fantastic dreamer

BPM EASY BASIC ADVANCED EXPERT MASTER Re:MASTER
185 3 4 6 9 11+ -

EXPERT MASTER Re:MASTER
譜面制作者 ミストルティン サファ太 -

EASY

(185){4},{1},1,1,8,
{4}8h[4:3],,,{2},,8-4[4:3],,,,4/5,,5,5,5,,6,6,6,,7,7,7,,8,8,8,,1,1,1,,,
1,,1,,2,,2,,3,,3,{1}3h[1:1],,4,4,5,5,6,6,7,7b,
{2}8h[4:3],,,1h[4:3],,,{0.5}2-6[4:3],7-3[4:3],{4},
{2}1,1,2,2,3,3,{4}4,4,,,{2}5,5,6,6,7,7,{4}8,8,,,
{2}8,8,7,7,6,6,{4}5,5,,{0.5}4h[1:1],3h[1:1],2-6[4:3],7-3[4:3],
{4}1,1,,,2,2,,,3,3,,,4,4,,,{1}5-8[4:3],,,E

BASIC

(185){1},
1,2,3,4/5,5,6,7,8/1,{2}7,7,6,6,5,5,{4}4,5,4,,
{2}3,3,2,2,{0.5}1h[1:1]/2h[1:1],7h[1:1]/8h[1:1],
{4}1,,1,,2,2,2,,3,,3,,4,4,4/5,,5,,5,,6,6,6,,7,,7,,8,8,1/8,,
7,,7,,6,6,6,,5,,5,,4,4,4/5,,3,,3,,2,2,2,,1,,1,,8,8,1/8,,
{2}1-5[4:5],,,,,,6,5/6,7,7/8,1,1/8,1b/8b,,
{4}8,8,8,,7,7,7,,6,6,6,,5,4,4/5,,4,4,4,,3,3,3,,2,2,2,,1,8,1/8,,
2,2,2,,3,3,3,,4,4,4,,4/5,4/5,4/5,,6,6,6,,7,7,7,,8,8,8,,1/8,1/8,1/8,,
{0.5}2-6[4:3],7-3[4:3],{4}2,,2,,1,1,1,,8,,8,,7,7,7,,
{1}1b/8b,,,E

ADVANCED

(185){4},{2},,2,3,4,5,6,7>4[4:3],,
{4},6,6,5/6,,3,3,3/4,,2<5[4:3]/5,,,,,,2b/7b,,
7,7,8,,2,2,1,,7,7,8,,1/8,1/8,1/8,,
3,3,3/4,,6,6,5/6,,4/5^8[2:1],,,,
1^4[2:1],,,,5^8[2:1],,,,1,8,2b/7b,,
6,6,5,,3,3,4,,6,6,5,,4,5,4/5,,
3,3,4,,6,6,5,,4-1[2:1]/5-8[2:1],,,,,,2/7,,
7,7,8,,2,2,1,,8,8,1,1,2h[2:1]/7h[2:1],,,,
3,3,3/4,,6,6,5/6,,4,4,5,5,4h[4:1]/5h[4:1],,3/6,,
3h[4:3],,,4h[4:3],,,5h[4:3],,,6,,,
6,6,5/7,,3,3,2/4,,5,5,4,4,4b^1[4:1]/5b^8[4:1],,,,
7,7,7/8,,2,2,1/2,,8,8,1,1,8,1,2/7,,
6h[4:1],5,4/7,,3h[4:1],4,2/5,,1/8,1/8,1^4[2:1]/8^5[2:1],,,,,,
3,4,2/5,,6,5,4/7,,1,1,8,8,1/8,2/7,3/6,,
6,6,5,5,4,3,2/5,,3,3,4,4,4/5,3/6,2/7,,
7/8,7/8,1/6,,1/2,1/2,3/8,,1pp4[4:5]/8qq5[4:5],,,,,,,,
1,2,3,4,5/6,5/6,4/7,,8,7,6,5,4h[2:1]/5h[2:1],,,,
{1}3b/6b,,,E

EXPERT

(185){4}7,7,7,
{1}2-5[2:1],7-4[2:1],3^6[2:1],7^2[2:1],
{4}3/6,1/2,3/8,4/7,5/6,2/7,{8}4/5,4/5,,2/1^6[2:1],
{4},,,2/7,3/6,4/5,,1b/8b,,
2,3,4/5,6,7/8,1/6,2/5,3/4,
7,6,4/5,3,1/2,3/8,4/7,5/6,
2,3/4,7,5/6,2,3/4,7^4[4:1],,,
4/7,5/6,4/7,5/6,3/8,5^3[4:1]/6^8[4:1],,,
3/4,2/5,3/4,1/6,3/4,2/7,,
6h[4:3],3,4,5,3h[4:3],6,5,4,7h[4:3],6,5,4,
1h[2:1]/2^5[4:1],,,4/5,
7h[4:3],4,5,6,2h[4:3],5,4,3,
{8}1/6,,4/5,4/5,,1/6,,7v4[4:1]/8v3[4:1],,,,,,,
{4}2/7,
3h[4:1],4,6h[4:1],5,2h[4:1],3,7h[4:1],6,
4h[4:1],3,5h[4:1],6,1-5[4:1],,8-4[4:1],,
2h[4:1],1,6h[4:1],5,3h[4:1],4,7,5/6,3/4,
{8}5/6,5<1[4:1]/6,{4},,,2b/7b,2b/7b,,
7h[4:3],6,5,4h[4:3],7,8,1h[4:3],4,3,2,3/6,4/5,
{8}2/5,,3,4,3,,1/8,,4/7,,6,5,6,,1/8,,2/7,,1,8,
{4}1,4^1[8:1]/5^8[8:1],,,1-4[8:1]/8-5[8:1],,,
5/6h[4:1],7>3[4:1],,,5/4h[4:1],3>7[4:1],,,
4/5h[4:1],6,7/8,4h[4:1],3h[4:1],2h[4:1],
1>6[2:1],,,,8<3[2:1]/6,,,,2/6,7h[2:1],8,2h[8:3],
{8}1,1b,,3b/8b,,4b/5b,,1b-4[8:1]/8b-5[8:1],,,,,
5/6h[4:1],,7>4[4:1],,,,,,6/5h[4:1],,4>7[4:1],,,,,,
5/6h[4:1],,7,,3/4,,1/6,,4/5,,7/8,,3/6,,
7h[2:1],,5,5,5,,1/2,,2h[2:1],,4,4,4,,7/8,,
5h[2:1]/7,,3,3,3,,1/2,,4h[2:1]/2,,6,6,6,,
8<1[2:1]/7,,,,,,,,2/7,,7/8,,5/6,5/6,,3<8[2:1]/4,,,,,,,
{4}3/7,2/6,1-4[4:1]/5-8[4:1],,2b/7b,,
1h[4:7]/5,5,7,7,4,7,4,7,
8h[4:3]/4,4,2,2,4qq8[2:1],,,,
{1}2h[1:2]/7h[1:2],,,,E

MASTER

(185){8}1,,1,,
4/6,5,4/6<3[2:1],4/6,,,,,,,
3,3>6[2:1],,,,,,,8,8h[2:1],,,2,2h[4:1],,1,,5
/7,,2/4,,1/8,,2/7,2/7,,4qq1[2:1]/5pp8[2:1],,,,,,,,
2/7,,5/6,5/6-1[8:1],,2,,3/4,,6,5/7,,3,4,
{4}5/2<5[8:3],,,2b/7b,,
3/4-7[8:1],,3/4-8[8:1],,6/5-2[8:1],,6/5-1[8:1],,
3/4^7[8:1],,6/5^2[8:1],,3-8[8:1]/4-7[8:1],,1/6,2/5,
6/5^2[8:1],,3/4^7[8:1],,5-2[8:1]/6-1[8:1],,
{8}3/8,3/8,,1b/6b,,
7,7-4[8:1],,8-3[8:1],,7-4[8:1],,8-3[8:1],,7,,4,4-1[8:1]*-7[8:1],,,,
2,2-5[8:1],,1-6[8:1],,2-5[8:1],,1-6[8:1],,2,,1/8,1/8,,2b/7b,,,,,
3h[4:1]/4h[4:1],,,5h[4:1]/6h[4:1],,,4/7,,
1h[4:1]/2h[4:1],,,7h[4:1]/8h[4:1],,,1/6,,
3,3,4,2h[8:3],,1,1,,3/8,3/8,,5h[4:1]/6h[4:1],,,5/6,,
6,6,5,7h[8:3],,8,8,,2/4,2/4,,,5h[4:1]/6h[4:1],,,
4/7^2[4:1],,2^5[8:1],,5^8[4:1],,8w4[4:1],,,,,2/7,,
5h[4:1]/6h[4:1],,,2/4,2/4,,1/8,,3h[4:1]/4h[4:1],,,5/7,5/7,,1/8,,
5h[4:1]/6h[4:1],,,2/4,2/4,,1/8,,5pp5[2:1]*qq5[2:1]/6,,,,,,3/7,,
4/5h[4:1],,6,6-2[8:1],,8,8,,5/4h[4:1],,3,3-7[8:1],,1,1,,
3/4,,5/6,5h[4:1]/6h[4:1],,,5/6,,4/5,,2/4,,4/5,,5/7,,
3h[4:1],{16},4,{8}4,,4/7,,6h[4:1],{16},5,{8}5,,
2-7[4:1]/3-5[4:1],,,,,,4/7,,5h[4:1],,4,,
2/4q8[4:1],,3,,,1,1,,7/5p1[4:1],,6,,,8,8,,
8-4[8:1]/4,,2-5[8:1],,6<3[4:1],,,,,1/8,,4/5,4-1[8:1]/5,,
8b,8bw4[8:1],,8b,,2/6,2/6,,
7h[4:3]/8>6[4:1],,,,,1,1,,3/4,,2/6,2h[2:1]/6^3[8:1],,,,
8-4[8:1],,1qq6[2:1],,5h[8:5],,,,,2,,
1-6[8:1]/8-6[8:1],,1/8,,1-5[8:1]/8-5[8:1],,1/8,,
1-6[8:1]/2-6[8:1],,1/2,,1-5[8:1]/2-5[8:1],,1/2,,
5bw1[8:1]/7b,,,,2/4,2/4-8[8:1],,1,,7/5-1[8:1],,8,,
2/4,,4/8w4[8:1],,8b,,2/6,2/6,,
2h[4:3]/1<3[4:1],,,,,8,8,,4/5,,7/3,7h[2:1]/3^6[8:1],,,,
1-5[8:1],,8<3[8:1],,2h[8:3],,,1,8,2/7,,
1b-5[8:1]/5,,1b-6[8:1],,1b-4[8:1],,1b^6[8:1],,
1b^4[8:1],,1b-5[8:1],,1bw5[8:1],,1b,,
8^5[8:1],,8^3[8:1],,8-5[8:1],,8-3[8:1],,
8-4[8:1],,8^3[8:1]*^5[8:1],,8,,2b/6b,,
5/2-5[8:1],,7-4[8:1],,2-6[8:1],,8-4[8:1],,3,,2/7,,
3/4,3-8[8:1]/4,,7<2[4:1],,1h[4:1],,,1/8>7[4:3],,,,,,,,,,1,8,2/7,,
3,2h[4:1]/4,,1,8h[4:1]/3,,1,2z6[8:3]/7,,,,,,,4/5,,
6,7h[4:1]/5,,8,1/6,,3qq5[2:1]/6pp4[2:1],,,,,,,,3>5[2:3]/6<4[2:3],,
{1}3b/6b,,,,,E

Re:MASTER


名前:
コメント:

タグ:

+ タグ編集
  • タグ:

このサイトはreCAPTCHAによって保護されており、Googleの プライバシーポリシー利用規約 が適用されます。

最終更新:2021年05月03日 04:40