ガヴリールドロップキック

BPM EASY BASIC ADVANCED EXPERT MASTER Re:MASTER
168 2 4 6 8+ 12 -

EXPERT MASTER Re:MASTER
譜面制作者 はっぴー 玉子豆腐 -

EASY

(168){1}8,8,1,1-4[4:3],,{2}4,4,4,,3,3,3,,2,2,2,,1,1,1/8,,
8-5[4:3],,,,6,7,8,,1-4[4:3],,,,3,2,1,,8,8,7,,6,6,5,,4,4,3,3b,,,,,
1h[2:1],,2h[2:1],,3h[2:1],,4/5,4/5,5h[2:1],,6h[2:1],,7h[2:1],,1/8,1/8,,
8,,1,2-6[4:3],,,,{4},7-3[4:3],{2},,,,,
{4}2,2,,,3,3,,,4/5,,,,6,6,,,7,7,,,8,8,,,1/8,,,,8b,,,,
7,7,,,6,6,,,5,5,,,4,4,,,3h[4:3],,,,,,
{1}2-6[4:3],,,,E

BASIC

(168){1}3,4,5,6,7,
{4}1,1,1,,8,8,8,,7,7,7,,6,6,5/6,,5,5,5,,4,4,4,,3,3,3,,2,2,1/2,,
{1}1h[1:1],,{4}2,,2,,3,3,3,,{1}4h[1:1],,{4}5,,5,,6,6,6,,
8,,8,,7,7,7/8,,6,,6,,5,4,5,,4,,4,,3,3,3/4,,{1},,
1-4[4:3],,8-5[4:3],,1-6[4:3],,8-3[4:3],,
{4}1,,8,,1,1,1/8,,1h[8:15]/8h[8:15],{1},,2h[4:7]/7h[4:7],,{4},,,
1,1,2,2,3,3,3/4,,4b/5b,,,,7,7,7,,8,8,7,7,6,6,5/6,,4b/5b,,,,2,2,2,,
1,1,1/8,,8,8,1/8,,1/2,,7/8,,1/8,1/8,1/8,,2,,,1,,,8,,,{1}7,,,E

ADVANCED

(168){2}4qq2[4:3]/5pp7[4:3],,,,4/5,3/6,2/7,1-4[4:3]/8-5[4:3],,,
{4}3,3,3/4,,6,6,5/6,,3,3,4,4,3,4,3/4,,6,6,5/6,,3,3,3/4,,6,6,5,5,
{2}4h[4:1]/5h[4:1],3/6,7h[2:1],8,
{4}1,8,{2}2/7,5h[4:1]/6h[4:1],3h[4:1]/4h[4:1],4h[4:1]/5h[4:1],3/6,2h[2:1],1,
{4}8,1,{2}2/7,3h[4:1]/4h[4:1],5h[4:1]/6h[4:1],4h[4:1]/5h[4:1],3/6,
{4}1,2,3/4,,8,7,5/6,,4,4,5,5,4,5,3/6,,5,6,7/8,,4,3,1/2,,{1}8b,,
2-7[2:1],6-3[2:1],2-7[2:1],{4}8,1,2/7,,{1}8^5[2:1],4^1[2:1],8-4[2:1],
{4}3,4/5,6,4/5,3h[2:1],4,4,,6h[2:1],5,5,,{8}1h[8:3],,,2h[8:3],,,3h[8:3],,,
4h[8:3],,,5h[8:3],,,6h[8:3],,,7h[8:3],,,8<2[4:7],{1},,{4},
7,7/8,2,1/2,7,7/8,2,1/2,8h[4:1],1b,2b/7b,,5/6,3/4,2/5,,
2,1/2,7,7/8,2,1/2,7,7/8,1h[4:1],8b,2b/7b,,1/8,2/7,3/6,,
6h[4:1],5,5/6,4b/7b,3h[4:1],4,3/4,2b/5b,6,7b/8b,3,1b^6[2:1]/2b^5[2:1],,,,,
7,8,1,2,2,1,1/8,,2/7,{1}2/7,,,E

EXPERT

(168){1}3/4<8[2:1],6/5>1[2:1],3/4<8[2:1],6/5>1[2:1],8/1>5[2:1],
{4}6,5/7,3,2/4,6,5/7,{8}2,2,1/2,,{4}3,2/4,6,5/7,3,2/4,{8}1/8,1/8,1/8,,
3,,2/4,,7,7,8,,3,,2/4,,2,2,1,,{4}5/6,4/7,3/4,2/5,1/8,4/5,2/7,,
3h[4:5]/4,4,1,1,4,4,2/5,,6h[4:5]/5,5,4,4,5,4,3/7,3/7,
4,4h[4:1],5,5h[4:1],4,4/5,3/6,,4/5,4/5,3/4,2/3,1/4,5/8,6/7,,
7h[4:5]/8,8,5,5,6,5,4/8,,3h[4:1],4,5h[4:1],4,3h[4:1],4,2/5,2/5,
7,6/7,4,4/5,5/6,7/6p2[4:1],,,,,,,,,,,
3/4,3/4,5/2^5[8:1],,6,5/6,7/8,1/6,1/2h[4:1],4,4/3h[4:1],1,4/5,1/8,
{8}2/7,2/7,2/7,,{4}
3h[4:1],4h[4:1],1h[4:1],2,7h[4:1],5h[4:1],8h[4:1],6,
4h[4:1],2h[4:1],3h[4:1],1h[4:1],6h[4:1],5h[4:1],7h[4:1],8b,,,
4h[1:1]/5,5,5,5,5,3/6,5p2[2:1]/7,,,,{8},2/4q7[2:1],{1},
{8}4h[4:1]/5h[4:1],,,3h[4:1]/6h[4:1],,,{4}2/7,2h[2:1]/7h[2:1],,,1/8<1[2:1],,,,
4h[4:1]/3,2,4h[4:1]/3,1,4h[4:1]/3,8,2/4,5/7,1/8,2b/7b,2b/7b,,
{16}4/6,,,3/5,,,4/6,,{4}4/6,1b,
5h[4:1]/6,7,5h[4:1]/6,8,5h[4:1]/6,1,{8}8,8,1,1,{4}2/7,4b/5b,2b/7b,,
{16}3/5,,,4/6,,,3/5,,3/5,,,,8b,,,,
3h[16:3],,,4h[16:3],,,5,,3/6,,,,1/4,,,,
6h[16:3],,,5h[16:3],,,4,,3/6,,,,5/8,,,,
{4}3/4,1/6,5/6,3/8,1/7,1/3,3/5,5/7,2/4,5,6,5/7,4,3,2/4,5,
{1}6^3[4:1],,,,E

MASTER

(168){1}6/5q2[2:1],3/4p7[2:1],
4qq2[2:1]/5pp7[2:1],3h[2:1]/6h[2:1],1^4[2:1]/8^5[2:1],
{8}5/6,7,1/8,7,{16}6,5,{8}6,3/4,5,3/4,2,1/8,2,{16}3,4,{8}3,5/6,4,
{16}6,5,6,,3,4,3,,7,5,7,,2,4,2,,{8}1/8,1/8,{16}7,8,,2,1,,1,,3b/7b,,,,
{8}3/4,2,1/8,2,{16}3,4,{8}3,5/6,4,5/6,7,1/8,7,{16}6,5,{8}6,3/4,2,
{16}8,1,8,1,8,1,8,1,8,1,8,1,8,1,8,1,{4}8b,1b/7b,2b/6b,,
{1}1-4[8:3]/2h[2:1],1-4[8:3]/3h[2:1],{8}5h[4:1]/6h[4:1],,,
5/6,5h[8:1],7h[8:1],1h[8:1],8h[4:1],,5h[8:1],7h[8:1],1h[8:1],8-5[8:1],,4,,
{1}7-2[8:3]/4h[2:1],7-2[8:3]/5h[2:1],{2}2-7[8:1]/3-6[8:1],2-7[8:1]/3-6[8:1],
{4}1V36[8:3]/4V27[8:3],,,1/7,{2}2-7[8:1]/7h[4:1],3-6[8:1]/6h[4:1],
{8}3-6[8:1],3,2-7[8:1],2,1,,2/8,,{8}3h[4:1]/5h[4:1],,,
3/5,3h[8:1],4h[8:1],2h[8:1],1h[4:1],,3h[8:1],4h[8:1],1h[8:1],8-5[8:1],,4,,
{2}4-1[8:1]/3h[4:1],5-8[8:1]/6h[4:1],{8}1/8,2,1/8,7,{2}1-4[16:3]/8-5[16:3],
{1},,3>6[2:1]*pp6[2:1],
{4}8h[4:1],7h[4:1],6,5b/7b,6^3[8:1],6,2q7[8:1],2,5-3[8:1]/6-8[8:1],,{8}5/6,5/6,3/8,,
{2}1^4[8:1]/5^8[8:1],4-1[8:2]/8-5[8:1],1V35[8:1]/5V71[8:1],5-2[8:1]/1-6[8:1],
{8}1-5[8:1],1,8-4[8:1],8,2-6[8:1],2,7-3[8:1],7,1^4[8:1],1,8^5[8:1],8,
4-1[8:1]*-7[8:1],4,,,{4}8,5/7,4/5,2/4,{2}1-5[8:1]/5^7[8:1],1-5[8:1]/2v4[8:1],
{8}
5h[8:1]/6h[8:1],,5/6,2h[8:1]/4h[8:1],,2/4,5h[8:1]/7h[8:1],,5/7,1h[8:1]/3h[8:1],,1/3,
1h[8:1]/6h[8:1],,1/6,3h[8:1]/8h[8:1],,3/8,2h[8:1]/6h[8:1],,2/6,4h[8:1]/8h[8:1],,4/8,
{4}2/6,1h[2:1]/5h[2:1],,,1/8<1[2:1],,,,
{16}8h[16:3]/6,,,7,8,,3/4,,1h[16:3]/6,,,8,1,,4/5,,2h[16:3]/7,,,1,2,,5/6,,
{32}4p3[4:1],3,2,1,8,7,6,5,{4}4,,1b/2b,4b/7b,,2-5[8:1]/6-1[8:1],,{8}8,1b,1b,,
{16}1h[16:3]/3,,,2,1,,5/6,,8h[16:3]/3,,,1,8,,4/5,,7h[16:3]/2,,,8,7,,3/4,,
{32}5q6[4:1],6,7,8,1,2,3,4,{4}5,,7b/8b,2b/5b,,4-1[8:1]/5-8[8:1],,{8}2/7,8b,8b,,
{4}2pp5[2:1]/4pp7[2:1],,,1b/8b,6qq3[2:1]/7q2[2:1],,,1b/8b,
4b-1[8:1]*-7[8:1],4b,5b-2[8:1]*-8[8:1],5b,
{32}1,2,3,4,5,6,7,8,1,2,3,4,5,6,7,8,1,2,3,4,5,6,7,8,1,2,3,4,5,6,7,8,
{4}1^4[2:1],,,5^8[2:1],,,{1}1>5[2:1]*<5[2:1],,,,,E

Re:MASTER


  • このままコピペするとmaipadでは反応しません。 -- 反応しない (2018-05-08 15:09:37)
  • 雛形も入れてあります -- 反応しない (2018-05-08 15:10:02)
名前:
コメント:

タグ:

+ タグ編集
  • タグ:

このサイトはreCAPTCHAによって保護されており、Googleの プライバシーポリシー利用規約 が適用されます。

最終更新:2021年05月03日 04:44