コネクト

BPM EASY BASIC ADVANCED EXPERT MASTER
175 2 5 7 8 11+

EXPERT MASTER Re:MASTER
譜面制作者 maimai TEAM チャン@DP皆伝 -

EASY

(175){4}
,,,,
,,8,,
,,7,,
,,6,,
,,,,
,,1,,
,,2,,
,,3,,
,,,,
,3,,3,

,,,,
,2,,2,
,,,,
,1,,1,
,,,,
,2,,1,
,8,,7,
,,,7,
,,,18,
,,,7-2[4:3],

,,,,
,,,2,
,,,18,
,,,2-7[4:3],
,,,,
,,,6,
,,,45,
,,,6-3[4:3],
,,,,
,,,3,

,,,45,
,,,3-6[4:3],
,,,,
,6,,6,
,7,,7,
,8,,8,
,1,,1,
,2,,2,
,3,,3,
,2,,2,

,1,,1,
,8,,8,
,7,,7,
,6,,6,
,,,,
,8,,,
,1,,,
,2b,,,
12,,,,
,1,,1,

,2,,3,
,4,,4,
,5,,6,
,7,,7,
,8,,1,
,8,,7,
,6,,,
,5,,5,
,6,,7,
,8,,8,

,1,,2,
,3,,3-6[4:3],
,,,,
,,,,
6,,7,,
8b,8,8,,
,,,,
1,1,1,,
,,,,
2,2,2,,

,2,,3,
,4,,5,
,6,,7,
,8,,1,
,2,,,
27,,,,
,,,,
{1},
E

BASIC

(175){8}
,,,,,,,,
2,,,,,,,,
1,,,8,,8,,,
7,,,,,,,,
6,,6,,,,,,
7,,,,,,,,
8,,,1,,1,,,
2-6[2:1],,,,,,,,
,,,,,,,,

{4}
7,7,7,,
,8,,1,
2,2,2,,
,3,,4,
5,5,5,,
,6,,7,
8,,2,,
4,,6,,

,7,7,,
,6,6,,
,5,5,,
,4,4,,
,3,,2,
,1,,8,
8,,7,,
6-3[2:1],,,,
,3,3,,
,4,4,,
,5,5,,
,6,6,,
,7,,8,
,1,,2,
2-7[2:1],,,,
,,,,

,5,,4,
,3,,2,
,1,,1,
,1,,1,
,2,,3,
,4,,5,
,6,,6,
,6,,6,
,5,,4,
,3,,2,
,1,,1,
,1,,1,
8,8b,,,
7,7b,,,
3h[4:3]/8h[4:3],,,,
1-5[2:1],,,,

,6,,6,
,8,,7,
,8,,8,
,1,,2,
,3,,3,
,4,,5,
,6,7,8,
1,2,,2,
,3,,3,
{8},,,12,,18,,78,
{4},4,,4,
,5,,6,
,7,,8,
,1,,2,
1h[4:3],,,,
1h[4:1]/8h[4:1],,2h[4:1]/7h[4:1],,

3h[4:3]/6h[4:3],,,,
,7,8,7,
6,6,6,,
,2,1,2,
3,3,3,,
,2,,2,
,2,,2,
,3,2,1,
{1}8h[4:7],
,
2h[4:7]/7h[4:7],
{1},
,
E

ADVANCED

(175){1},
1-4[2:1],
{8},,,8,,8,,,
{1}7h[4:3],
{4}6,6,,,
{1}3-6[2:1],
{8},,,1,,1,,,
{2}3h[2:1],6h[2:1],
2h[4:3],7h[4:1],

{4}
3,2,13,,
,7h[2:1],8,8,
1,8,17,,
,6h[2:1],5,5,
6,7,68,,
,2h[2:1],1,1,
2-7[2:1],,,,
6-3[2:1],,,,

,28,1,,
,27,8,,
,17,8,,
,27,1,,
,4,,3,
,2,,1,
3h[2:1],,6h[2:1],,
2h[2:1],,6h[4:1],,
,12,7,,
,78,2,,
,18,1h[4:5],,
,7,7,,
,8,,7,
,6,,5,
4^1[2:1],,,,
8^5[2:1],,,,

8,7,6,5,
4,3,2,1h[1:2],
,7,,5,
,7,,5,
4,5,6,7,
8,1,2,8h[1:2],
,2,,4,
,2,,4,
2,1,8,7,
6,5,4,3,
,34,,56,
,78,,12,
4-1[2:1],,,,
8-5[2:1],,,,
2h[4:3]/7h[4:3],,,,
1-6[2:1]/2-5[2:1],,,,

1h[1:1]/7,6,7,6,
,{8}1,1,{4},2,
3h[1:1]/1,8,1,8,
,{8}2,27,{4},27,
6h[1:1]/8,1,8,1,
,{8}4,4,{4},2,
,18,27,36,
4^1[2:1]/5^8[2:1],,,,
1h[1:1]/7,6,7,6,
,{8}1,1,,2,,3b/4b,{4}
,5,4,5,
,{8}27,2,{4},27,
4-1[2:1],,,,
1,2,3,4,
3h[2:1],,1h[2:1],,
7h[2:1],,,,

5-8[2:1],,,,
,3,,3,
3,3,3,,
,56,,34,
5,46,35,,
,28,,17,
{8}6,,,3,,,4h[1:1]/5h[1:1],,
{1},
3^6[2:1],
7^2[2:1],
5-8[4:6],
,
,
E

EXPERT

(175){8}
,,,,8,8,1,1,
2,,,3,3,3,,4,
4,4,,1,,2,,2,
,,,3,3,3,,4,
4,5,5,6,,8,8,7,
7,,,6,6,6,,5,
5,5,,1,,8,,7h[8:13],
,,,,,5,4,3h[8:5],

,,,,,,5-8[4:1],,
,,1,,3,3,,2,
,1,,8,8,,7,,
2,,8,,6,6,,7,
,8,,1,1,,2-7[4:1],,
,,1,,3,3,,2,
,1,,8,8,,7,,
6,,5,,4,,3,,
2-6[4:1],,,,7-3[4:1],,,,

,,6,,8,8,,1,
,,3,,1,1,,8,
,,6,,8,8,,1,
,,3,,1,1,,8,
,,6,,8,8,,1,
,,3,,1,1,,8,
7h[2:1],,,,8h[2:1],,,,
1h[2:1],,,,2h[2:1],,,,
,,7,,5,5,,4,
,,2,,4,4,,5,
,,7,,5,5,,4,
,,2,,4,4,,5,
,,7,,5,5,,4,
,2,4,4,5,,6-1[4:1],,
,,,2-5[8:3],,,,,

,,,,,,8,1,
8,,7,,6,,2,3,
2,,1,,8,,7,,
7,,8,,1,,2,,
3,,4,,5,,4,5,
4,,3,,2,,6,7,
6,,5,,4,,3,,
2,,1,,8,,7,7,
,,6,,6,,8,1,
8,,7,,6,,2,3,
2,,1,,8,,7,,
7,,8,,1,,2,,
3,,4,,5,,4,5,
{1}
4-7[4:1],
8-3[4:1],
1h[4:3]/6h[4:3],
7-3[4:1]/8-4[4:1],

{8}
2,,,3,3,3,,4,
4,4,,1,,2,,2,
,,,3,3,3,,4,
4,5,5,6,,8,8,7,
7,,,6,6,6,,5,
5,5,,8,,7,,7h[4:3],
,,,,,6,5,4,
,,,,8,8,1,1,
2,,,3,3,3,,4,
4,4,,7b/8b,,1b/8b,,1b/2b,
,,,3,3,3,,4,
4,5,5,6,,1,,2h[8:3],
,,,,4,,3,,
2,,1,1,,8,,7h[8:7],
,,6,,5,,4,,
3h[4:1]/8h[4:1],,,,2h[4:1]/7h[4:1],,,,

1h[4:7]/6,,5,,4,4,,7,
,6,,5,5,,7,,
2,,8,,6,6,,7,
,8,,1,1,,2-7[4:1],,
,,1,,3,3,,2,
,1,,8,8,,7-4[4:1],,
{4}
,,3,2-5[4:1],
,,6,7^2[4:1],
,,3,2-7[4:1],
,,8,1,
{1}
2h[4:7]/7h[4:7],
,
,
E

MASTER

(175){4}
,,7,8-5[2:1],

1,,,6-3[2:1],
7,,,4-1[2:1],
5,,,2-7[2:1],
3,,,8-4[2:1],
1,,,5-1[2:1],
6,,,7-2[1:1]/6-3[1:1],
{1}
67,
{4}
,,,8-5[4:1],

{8}
1h[8:7],,,,,,,2h[8:5],
{4}
,,3,7-4[4:1],
{8}
2h[8:5],,,,,1h[4:1],,2h[8:7],
{4}
,,,1-4[2:1],
{8}
5h[8:7],,,,,,,6h[8:5],
{4}
,,7,8-3[2:1],
6h[4:3],,,1,
{2}
3h[4:1]/7h[4:1],2h[4:1]/6h[4:1],

{4}
8-5[4:1],3,2,,
4-7[4:1],2,3,,
6-3[4:1],8,7,,
{2}
1-5[4:1],8-4[4:1],
{4}
5-1[4:1],5,2,,
3-8[4:1],3,7,,
{2}
8^3[8:1]/7^4[8:1],6^1[8:1]/5^2[8:1],
1^4[8:1]/8^5[8:1],5-1[8:1]/4-8[8:1],

{8}
1,,7-4[8:1],,7,,,7h[8:3],
,,2,2,,8-5[8:1],,,
,,6,,3,3,,2h[8:5]/7h[8:5],
,,,,,1,8-4[8:1],7,
6-3[8:1],,,,4,5,,6,
,1/7h[2:1],2,1,2,,1/8-5[8:1],,
4-7[8:1],,,6-2[8:1],,,8h[4:3],,
{4}
,,,8-5[8:1],

3,3/5-1[8:1],3,3/1-6[8:1],
3,3/6-2[8:1],3,3/2-7[8:1],
3,3/7-4[8:1],3,3/4-1[8:1],
3,3/1-6[8:1],3,6/3-8[8:1],
6,6/8-4[8:1],6,6/4-1[8:1],
6,6/1-5[8:1],6,6/5-8[8:1],
6,6/8-3[8:1],6,6/3-7[8:1],
6,6/7-2[8:1],6,6/2-5[8:1],

{8}
,,5-1[8:1],,,,1-4[8:1],8,
{4}
,,6-3[8:1],2-5[8:1],
{8}
7-4[8:1],,,7,,,6-1[8:1]/5-2[8:1],,
{4}
,,1/8-4[8:1],8,
{8}
7-4[8:1],,7,5,,8-5[8:1],,8,
,,5,4,,3,,2-7[4:3]/6-3[4:3],
{1}
,
{8}
,,,,8^3[8:1],7^4[8:1],,,

2-7[8:1],,,6-3[8:1],6,,,8,
7-2[8:1],8,,6-3[8:1],,,,4-1[8:1],
,,,5-8[8:1],,,,6,
1^4[8:1],8^5[8:1],,,,5-2[8:1],6-1[8:1],,
,,,5-2[8:1],5,,,3,
2,1-4[8:1],,8-5[8:1],,1-4[8:1],,7h[8:5],
,,,,,38,47,5-2[4:1]/6-1[4:1],
,,,,8-4[8:1],1-5[8:1],,,

8,,,7,2,6,,3,
4,5h[4:3],,1b,,6b,,3b,
,,,6,5,4,,3,
2,1-6[8:1],1,1-5[8:1],,1-4[8:1],,,
{4}
,,6h[4:1],1,
{8}
2,,3,4,,7,,2,
{4}
,,,7-3[8:1],
,1-5[8:1],,5-2[1:1]/6-1[1:1],

{1}
,
,
{8}
6h[4:7],,3,,2,2,,1,
{1}
,
{8}
1h[8:7],,,,,,,2h[8:5],
{2}
,3h[2:1],
{1}
2h[4:5],
{4}
,,1,8,
{2}
8-4[8:1],4-7[8:1],
7-2[8:1],2-5[8:1],

{1}
5-1[4:3],
,
,
E

名前:
コメント:

タグ:

+ タグ編集
  • タグ:

このサイトはreCAPTCHAによって保護されており、Googleの プライバシーポリシー利用規約 が適用されます。

最終更新:2021年05月03日 04:29