[宴]Garakuta Doll Play

BPM 属性 COMMENT
256 master練習用?(総選挙優勝譜面)
総選挙 No.1 いちばんかんたん じこぺ99.2%
総選挙 No.2 理論できる(出来るとは言ってない)
総選挙 No.3 ガラクタ++
総選挙 No.4 CHUNITHM 再翻訳版
総選挙 No.5 ブレイクマシマシコンボカラメ

属性:宴

(256){8}4,,,,
6,5,,7,,,,,7,5,6,4,5,,,,
4,5,,3,,,,,2/5,,4/7,,5,,,,
3,4,,2,,,,,2,4,3,5,4,,,,
5,4,,6,,,,,
4/7,,5-1[8:7]/2,,4,,,,
7,7,,5h[8:5],,,,,6,5,4^7[8:7],3,2,,,,
4,4,,2h[8:5],,,,,5,,4-8[8:7]/7,,3,,,,
2,2,,4h[8:5],,,,,3,4,5^2[8:7],6,7,,,,
4,4,,7,1/8,,4/5,,3q8[8:1]/6p1[8:1],,,,
{4}
2/7,3/4,2/7,5/6,2/7,4/5,1/8,{8}2/4,2,{4}
2/4,5/7,1/3,6/8,{16}2,1,8,7,{4}6-1[8:1],4,,
5/7,2/4,6/8,1/3,{16}7,8,1,2,{4}3-8[8:1],5,,
{8}4,8,8,8,2,6,6-4[8:1],6,{4}3-7[8:1],8-2[8:1],4,8b,
{8}6,,,4,{4}4,3/7,2/6,1/5,4^7[8:1]/8^3[8:1],,
2/6,4/8,1/5,3/7,{16}5,4,3,2,{4}1-6[8:1],3,,
3/7,1/5,4/8,1/5,{16}4,5,6,7,{4}8-3[8:1],6,,
{8}3,7,7,7,1,5,5,5,2,4,3,5,4,6,5,7,
{4}
4/6,2/5,3/7,1-4[8:1]/5,6-1[8:1],3-6[8:1],8,4,
3/5,4/7,2/6,8-5[8:1]/4,3-8[8:1],6-3[8:1],1,4,
4/6,2/5,3/7,1-4[8:1]/5,6-1[8:1],3-6[8:1],8,4,
{8}5,1,1,1,7,3,3-5[8:1],3,{4}6-2[8:1],1-7[8:1],5,1b,
3/5,4/7,2/6,8-5[8:1]/4,3-8[8:1]/8,6-3[8:1]/3,1/6,5,
4/6,2/5,3/7,1-4[8:1]/5,6-1[8:1]/1,3-6[8:1]/6,3/8,5,
{8}
8,1,8,,3,4,2,,6,5,7,,1w5[8:1],8,1,,7,,,2,,2,,2,,,,,7b,,,,
3qq5[4:3],,,5,,,7,,,,1,,8,,7,,
6pp4[4:3],,,4,,,2,,,3,3,3,3-8[8:1]*-6[8:1],,,,
7pp4[4:3],,,4,,,2,,,,8,,6,,4,,
2qq5[4:3],,,5,,,7,,,6,6,6,6-1[8:1]*-3[8:1],,,,
{1}2b,
{8}2/3,,,5/8,,,{4}2/3,1/4,,,,
{8}6/7,,,1/4,,,{4}6/7,5,,1<5[8:1]/2,
{16}5,4,3,2,{4}1,,8>4[8:1],
{16}4,5,6,7,{4}8,1,6,2-5[8:1],5-2[8:1],7-4[8:1],4-7[8:1],,
6,5/8,1/4,2-5[8:1]/3,1-4[8:1],8-3[8:1],7,6,
2/3,1/4,5/8,7-4[8:1]/6,8-5[8:1],1-6[8:1],2,3,
4/5,6/7,1/8,2-5[8:1]/3,1-4[8:1],8-3[8:1],7,6,
3/5,4/7,2/6,4/8,1b,,,,
2/3,5/8,6/7,1-4[8:1]/4,5-2[8:1],3-8[8:1],6,1,
6/7,1/4,2/3,8-5[8:1]/5,4-7[8:1],6-1[8:1],3,7,
4/6,2/5,3/7,1/5,8,4,
{8}
1,8,1-6[8:1],8-3[8:1],,,,,2,,6,,4,4,,5,5b/7b,,4b/5b,,
2V46[8:7]/3,,,,8,8-2[4:1],,8,,,,,3,4,5,6,
7V53[8:7],,,,1,1-7[4:1],,1,,,,,6,,2,,
6V82[8:7],,,,3,3-7[4:1],,3,,,,,7,6,5,4,
3V17[8:7],,,,6,6-2[4:1],,6,,,,,2,,4/8,,
6-2[4:1]/2,,,,3,4,3,4,3h[4:1],,2,2,3,,5,,
3-7[4:1]/7,,,,6,5,6,5,6h[4:1],,5,5,7,7,,1,
1-5[4:1],,,,7,2,5,4,5h[4:1],,4,4,5,,2,3,4,5,6,7,
{16}1/8,2,3,4,5,6,7,8,
{4}1/5,2/6,4b/8b,,
2-5[8:1]/5,2/7,1-6[8:1]/6,8-4[8:1]/1,3-8[8:1],7-4[8:1],1,5,
7-4[8:1]/4,2/7,8-3[8:1]/3,1-5[8:1]/8,6-1[8:1],2-5[8:1],8,4,
1-6[8:1]/6,1/7,8-3[8:1]/3,2-4[8:1]/8,5-7[8:1],1-5[8:1],8,
{8}2,2,,7,6,5,2,3,4-2[8:1],5,
{4}6-8[8:1],1-5[8:1],7,3,
7-4[8:1]/4,2/7,8-3[8:1]/3,1-5[8:1]/8,6-1[8:1],2-5[8:1],8,4,
2-5[8:1]/5,2/7,1-6[8:1]/6,8-4[8:1]/1,3-8[8:1],7-4[8:1],1,5,
8-3[8:1]/3,2/8,1-6[8:1]/6,7-5[8:1]/1,4-2[8:1],8-4[8:1],1,
{8}3,3,,8,8,8,8,8,8,8,4,,6,,2,,1b/8,,
3,3,3,3,7,7,7-1[8:1],7,2-6[8:1],2,5-3[8:1],5,8,8,4b/8,,
6,6,6,6,2,2,2-8[8:1],2,7-3[8:1],7,4-6[8:1],4,1,1,1/5b,,
3,3,3,3,1,1,1-5[8:1],1,4-8[8:1],4,6-2[8:1],2,1,1,1/5b,,
6,6,6,6,8,8,8-4[8:1],8,5-1[8:1],5,3-7[8:1],3,8,8,1b/8-4[8:1],,
3-7[8:1],3,6-2[8:1],6,1-5[8:1],1,7-3[8:1],7,4-8[8:1],4,6,6,1,1,1b/8-4[8:1],,
3-7[8:1],3,6-2[8:1],6,1-5[8:1],1,6-1[8:1],6,3-8[8:1],3,5-1[8:1],5,2,2,2/7b,,
3/5,3/5,4/7,4/7,2/6,2/6,4/8,4/8,
{16}3/7,6,5,4,1,8,7,6,3,2,1,8,7,6,5,4,
{8},1,2,3,8,7,6,5,
{1}4b,18,,,,,,,E

総選挙 No.1

(256){8}4,,,,
6,5,,7,,,,,7,5,6,4,5,,,,
4,5,,3,,,,,2/5,,4/7,,5,,,,
3,4,,2,,,,,2,4,3,5,4,,,,
5,4,,6,,,,,
4/7,,5-1[8:7]/2,,4,,,,
7,7,,5h[8:5],,,,,6,5,4^7[8:7],3,2,,,,
4,4,,2h[8:5],,,,,5,,4-8[8:7]/7,,3,,,,
2,2,,4h[8:5],,,,,3,4,5^2[8:7],6,7,,,,
4,4,,7,1/8,,4/5,,3q8[8:1]/6p1[8:1],,,,
{4}
2/7,3/4,2/7,5/6,2/7,4/5,1/8,{8}2/4,2,{4}
2/4,5/7,1/3,6/8,{16}2,1,8,7,{4}6-1[8:1],4,,
5/7,2/4,6/8,1/3,{16}7,8,1,2,{4}3-8[8:1],5,,
{8}4,8,8,8,2,6,6-4[8:1],6,{4}3-7[8:1],8-2[8:1],4,8b,
{8}6,,,4,{4}4,3/7,2/6,1/5,4^7[8:1]/8^3[8:1],,
2/6,4/8,1/5,3/7,{16}5,4,3,2,{4}1-6[8:1],3,,
3/7,1/5,4/8,1/5,{16}4,5,6,7,{4}8-3[8:1],6,,
{8}3,7,7,7,1,5,5,5,2,4,3,5,4,6,5,7,
{4}
4/6,2/5,3/7,1-4[8:1]/5,6-1[8:1],3-6[8:1],8,4,
3/5,4/7,2/6,8-5[8:1]/4,3-8[8:1],6-3[8:1],1,4,
4/6,2/5,3/7,1-4[8:1]/5,6-1[8:1],3-6[8:1],8,4,
{8}5,1,1,1,7,3,3-5[8:1],3,{4}6-2[8:1],1-7[8:1],5,1b,
3/5,4/7,2/6,8-5[8:1]/4,3-8[8:1]/8,6-3[8:1]/3,1/6,5,
4/6,2/5,3/7,1-4[8:1]/5,6-1[8:1]/1,3-6[8:1]/6,3/8,5,
{8}
8,1,8,,3,4,2,,6,5,7,,1w5[8:1],8,1,,7,,,2,,2,,2,,,,,7b,,,,
3qq5[4:3],,,5,,,7,,,,1,,8,,7,,
6pp4[4:3],,,4,,,2,,,3,3,3,3-8[8:1]*-6[8:1],,,,
7pp4[4:3],,,4,,,2,,,,8,,6,,4,,
2qq5[4:3],,,5,,,7,,,6,6,6,6-1[8:1]*-3[8:1],,,,
{1}2b,
{8}2/3,,,5/8,,,{4}2/3,1/4,,,,
{8}6/7,,,1/4,,,{4}6/7,5,,1<5[8:1]/2,
{16}5,4,3,2,{4}1,,8>4[8:1],
{16}4,5,6,7,{4}8,1,6,2-5[8:1],5-2[8:1],7-4[8:1],4-7[8:1],,
6,5/8,1/4,2-5[8:1]/3,1-4[8:1],8-3[8:1],7,6,
2/3,1/4,5/8,7-4[8:1]/6,8-5[8:1],1-6[8:1],2,3,
4/5,6/7,1/8,2-5[8:1]/3,1-4[8:1],8-3[8:1],7,6,
3/5,4/7,2/6,4/8,1b,,,,
2/3,5/8,6/7,1-4[8:1]/4,5-2[8:1],3-8[8:1],6,1,
6/7,1/4,2/3,8-5[8:1]/5,4-7[8:1],6-1[8:1],3,7,
4/6,2/5,3/7,1/5,8,4,
{8}
1,8,1-6[8:1],8-3[8:1],,,,,2,,6,,4,4,,5,5b/7b,,4b/5b,,
2V46[8:7]/3,,,,8,8-2[4:1],,8,,,,,3,4,5,6,
7V53[8:7],,,,1,1-7[4:1],,1,,,,,6,,2,,
6V82[8:7],,,,3,3-7[4:1],,3,,,,,7,6,5,4,
3V17[8:7],,,,6,6-2[4:1],,6,,,,,2,,4/8,,
6-2[4:1]/2,,,,3,4,3,4,3h[4:1],,2,2,3,,5,,
3-7[4:1]/7,,,,6,5,6,5,6h[4:1],,5,5,7,7,,1,
1-5[4:1],,,,7,2,5,4,5h[4:1],,4,4,5,,2,3,4,5,6,7,
{16}1/8,2,3,4,5,6,7,8,
{4}1/5,2/6,4b/8b,,
2-5[8:1]/5,2/7,1-6[8:1]/6,8-4[8:1]/1,3-8[8:1],7-4[8:1],1,5,
7-4[8:1]/4,2/7,8-3[8:1]/3,1-5[8:1]/8,6-1[8:1],2-5[8:1],8,4,
1-6[8:1]/6,1/7,8-3[8:1]/3,2-4[8:1]/8,5-7[8:1],1-5[8:1],8,
{8}2,2,,7,6,5,2,3,4-2[8:1],5,
{4}6-8[8:1],1-5[8:1],7,3,
7-4[8:1]/4,2/7,8-3[8:1]/3,1-5[8:1]/8,6-1[8:1],2-5[8:1],8,4,
2-5[8:1]/5,2/7,1-6[8:1]/6,8-4[8:1]/1,3-8[8:1],7-4[8:1],1,5,
8-3[8:1]/3,2/8,1-6[8:1]/6,7-5[8:1]/1,4-2[8:1],8-4[8:1],1,
{8}3,3,,8,8,8,8,8,8,8,4,,6,,2,,1b/8,,
3,3,3,3,7,7,7-1[8:1],7,2-6[8:1],2,5-3[8:1],5,8,8,4b/8,,
6,6,6,6,2,2,2-8[8:1],2,7-3[8:1],7,4-6[8:1],4,1,1,1/5b,,
3,3,3,3,1,1,1-5[8:1],1,4-8[8:1],4,6-2[8:1],2,1,1,1/5b,,
6,6,6,6,8,8,8-4[8:1],8,5-1[8:1],5,3-7[8:1],3,8,8,1b/8-4[8:1],,
3-7[8:1],3,6-2[8:1],6,1-5[8:1],1,7-3[8:1],7,4-8[8:1],4,6,6,1,1,1b/8-4[8:1],,
3-7[8:1],3,6-2[8:1],6,1-5[8:1],1,6-1[8:1],6,3-8[8:1],3,5-1[8:1],5,2,2,2/7b,,
3/5,3/5,4/7,4/7,2/6,2/6,4/8,4/8,
{16}3/7,6,5,4,1,8,7,6,3,2,1,8,7,6,5,4,
{8},1,2,3,8,7,6,5,
{1}4b,18,,,,,,,E

総選挙 No.2

(256){2}
2q4[1:1]/7,,,,
2q4[1:1]/7,,,{8}4,5,4,5,{2}
2q4[1:1]/7,,,4/5,
2q4[1:1]/7,,,
{4}2/5,3/4w8[1:1],4,,,,,,4/7,6/5w1[1:1],5,,,,,,
2/5,3/4z8[2:1],4,,,6/5s1[2:1],5,,,3/4-8[8:1],4,6/5-1[8:1],5,3/4,
4h[8:1]/5h[8:1],3h[8:1]/6h[8:1],1h[8:1]/8h[8:1],
2-5[8:1]/7,7-4[8:1],3-8[8:1],6-2[8:1],1^4[8:1]*^6[8:1],,{8}3/7,3/7,{4}3/7,
7-4[8:1]/2,2-5[8:1],6-1[8:1],3-8[8:1],7-3[8:1],2V46[4:1]*V48[4:1],,,
7-4[8:1]/2,2-5[8:1],6-1[8:1],3-7[8:1],8^3[8:1]*^5[8:1],,{8}2/6,2/6,{4}2/6,
2-5[8:1]/7,7-4[8:1],3-8[8:1],6-1[8:1],2-6[8:1],7V53[4:1]*V51[4:1],,,
2V41[2:1]/7V58[2:1],,,,8^3[8:1]*^5[8:1],,{8}2/6,2/6,{4}2/6,
2-5[8:1]/7,7-4[8:1],3-8[8:1],6-1[8:1],2-6[8:1],7V53[4:1]*V51[4:1],,,
2-5[8:1]/7,7-4[8:1],3-8[8:1],6-2[8:1],1^4[8:1]*^6[8:1],,
{8}3/7,3/7,3/7,,2h[8:9]/7,,3,3,8,8,4,4,7,7h[8:7],6,6,1,1,5,5,
{4}
2-8[8:1],4-6[8:1],3-7[8:1],4-8[8:1],1h[4:1],5^8[8:1],{16}1,2,3,4,{4}5,
7-1[8:1]/3,5-3[8:1],6-2[8:1],5-1[8:1],8h[4:1],4-1[8:1],5-8[8:1],4,
2-8[8:1]/5,4-6[8:1],3-7[8:1],4-8[8:1],1h[4:1],5v7[4:1]*V38[4:1],,,
3h[8:3]/4,7h[8:3],8h[8:3],6h[8:3],5h[8:3],1h[8:3],2h[8:3],6,
7-1[8:1]/3,5-3[8:1],6-2[8:1],5-1[8:1],8h[4:1],4^1[8:1],{16}8,7,6,5,{4}4,
2-8[8:1]/6,4-6[8:1],3-7[8:1],4-8[8:1],1h[4:1],5-8[8:1],4-1[8:1],5,
7-1[8:1]/4,5-3[8:1],6-2[8:1],5-1[8:1],4-6[8:1],2-8[8:1],3-7[8:1],1-5[8:1],8,
{8}1h[4:1]/8h[4:1],,,1/8,,4^1[8:3]/5^8[8:3],,,{2},2b/7b,
{8}6h[8:3],,,5h[8:3],{4},4,,4/5,3/6,4/5,
{8}3h[8:3],,,4h[8:3],{4},5,,3/6,4/5,3/6,4/8,
{16}
1/5,2,3,4,1/5,,,,4/8,7,6,5,4/8,,,,
1/5,2,3,4,1/5,,,,4/8,7,6,5,4/8,,,,
1/5,2,3,4,{2}1pp4[4:3]/5pp8[4:3],,,
{8}7-2[4:1]/2-5[4:1],,,,,,1b/2b,,
2/4,,,5/7,,,3/6,,2b/7b,,,,4/5,,,,5/7,,,2/4,,,3/6,,2b/7b,,,,
{4}4/5,{12}3/6,5,4,{2}3b,
{4}4/5,{12}3/6,4,5,{4}6b,
5/7,3,2/4,4h[8:3]/5h[8:3],,1b/8b,,
{8}
1-4[8:1]/5h[4:1],,1,5h[4:1],1-6[8:1],,1/5h[4:1],,1^4[8:1],5,1/5,,1^6[8:1]/5,,1/5,,
1-4[8:1]/5h[4:1],,1,5h[4:1],1-6[8:1],,1/5h[4:1],,1^4[8:1],5,1/5,,1^6[8:1]/5,,1/5,,
1-4[8:1]/5h[4:1],,1,5h[4:1],1-6[8:1],,1/5h[4:1],,1^4[8:1],5,1/5,,1^6[8:1]/5,,1/5,,
1-4[8:1]/5h[4:1],,1,5h[4:1],1-6[8:1],,1/5,,1b/5b,,,,,,,,
8-5[8:1]/4h[4:1],,8,4h[4:1],8-3[8:1],,8/4h[4:1],,8^5[8:1],4,4/8,,8^3[8:1]/4,,4/8,,
8-5[8:1]/4h[4:1],,8,4h[4:1],8-3[8:1],,8/4h[4:1],,8^5[8:1],4,4/8,,8^3[8:1]/4,,4/8,,
8-5[8:1]/4h[4:1],,8,4h[4:1],8-3[8:1],,8/4h[4:1],,8^5[8:1],4,4/8,,8^3[8:1]/4,4,4/8,4,
5-7[8:1],5,4-2[8:1],4,8-6[8:1],8,1-3[8:1],1,5-8[4:1],5,4-1[8:1],4,5,,6,,
{1}
7p5[1:1]/4h[2:3],,7p5[1:1]/3h[2:3],,7p5[1:1]/2h[2:3],,7p5[1:1]/1h[2:3],,
{4}
4/5,5,5,5,5,5,5,5,4/5,4,4,4,4,4,4,4,3/6,6,6,6,2/7,2,2,2,
1/8,8,2/7,2,2-6[8:1]/7-3[8:1],2/7,1b/8b,,
3/8-5[8:1],3/8,3/4-1[8:1],3/4,2/8-5[8:1],2/8-4[8:1],2/8-6[8:1],{8}2/8,2,{4}
3/8-5[8:1],3/8,3/4-1[8:1],3/4,2/8-5[8:1],2/8-4[8:1],2/8-6[8:1],{16}2/8,,1,2,{4}
3/8-5[8:1],3/8,3/4-1[8:1],3/4,2/8-5[8:1],2/8-4[8:1],2/8-6[8:1],{8}2>1[4:1]/8,2,{4},,
4/5,3-6[8:1]/6,7-2[8:1],4-1[8:1],8-5[8:1],4b,
6/1-4[8:1],1/6,6/5-8[8:1],5/6,7/1-4[8:1],7/1-5[8:1],7/1-3[8:1],{8}1/7,7,{4}
6/1-4[8:1],1/6,6/5-8[8:1],5/6,7/1-4[8:1],7/1-5[8:1],{16}7/1-3[8:1],,7,,1,,8,7,{4}
6/1-4[8:1],1/6,6/5-8[8:1],5/6,7/1-4[8:1],7/1-5[8:1],7/1-3[8:1],1/7,
{8}
1/8,1/8,1/8,1/8,1/8,1/8,1/8,1/8,1/8,,4-1[8:1]/5-8[8:1],,4/5,,2b/7b,,
1-5[8:1],8,1,7-3[8:1],8,7,2-6[8:1],1,2,8-4[8:1],1,8,2-6[8:1],1,2/8,,
8-4[8:1],1,8,2-6[8:1],1,2,7-3[8:1],8,7,1-5[8:1],8,1,7-3[8:1],8,1/7,,
1-5[8:1],8,1,7-3[8:1],8,7,2-6[8:1],1,2,8-4[8:1],1,8,2-6[8:1],1,2/8,,
8-4[8:1],1,8,2-6[8:1],1,2,7-3[8:1],8,7,1-5[8:1],8,1,7-3[8:1],8,1/7,,
1-5[8:1],5,1,6-2[8:1],2,6,3-7[8:1],7,3,8-4[8:1],4,8,2-6[8:1],6,2/7,,
8-4[8:1],4,8,3-7[8:1],7,3,6-2[8:1],2,6,1-5[8:1],5,1,7-3[8:1],3,2/7,,
2-6[8:1],6,2,8-4[8:1],4,8,1,8,
{16}1/5,8,7,6,7,8,1,8,7,6,5,4,3,2,1,,,,
{8}1,2,3,8,7,6,5,
{1}4b,2/7,,,,,,,E

総選挙 No.3

(256){8}
3^8[8:1],,,,7,6-1[8:1],,6,,,,,3,4,5,6,
7^4[8:1],,,,3,2-5[8:1],,2,,,,,6,5/7,3,2/4,
6^1[8:1],,,,2,3-8[8:1],,3,,,,,6,5,4,3,
2^5[8:1],,,,6,7-4[8:1],,7,{4},,2/4,5/7,
1-5[8:1],1,8-4[8:1],8,7s3[8:1],7,4,1/5,
8-4[8:1],8,1-5[8:1],1,2z6[8:1],2,5,4/8,
1-5[8:1],1,8-4[8:1],8,3-7[8:1],3,6-2[8:1],6,
5-1[8:1],5,4-8[8:1],4,5/7,2/4,1/8,,
2-6[8:1]/4,2/5,7-3[8:1]/5,7/4,4-8[8:1]/2,4/6,5/7,{8}5-1[8:1],4,{4}
3-7[8:1],3,6-1[8:1],2/6,{16}3/8,,6,5,6,,4/7,,{4}8-5[8:1],8,
6-2[8:1]/4,1/6,3-8[8:1]/5,3/7,{16}1/6,,3,4,3,,2/5,,{4}1-4[8:1],1,
{8}
5,6,7,8,4,3,2,1,7-3[8:1]/8,,7,,1/2-6[8:1],,2,,
4h[4:1]/5h[4:1],,,2,1,,3/8,,4/5,,7,8,,,1/6,,
3h[2:1]/5,,2,2,2,,2/8,,1/7,{16}6,5,{8}6,4/7,8-5[8:1],,8,,
6h[2:1]/3,,7,7,7,,1/7,,2/8,{16}3,4,{8}3,2/5,1-4[8:1],,1,,
5/6,5/6,5/6,5/6,3/4,3/4,3/4,3/4,5,6,7,8,4,3,2,1,
{4}5-8[8:1]/8,3-7[8:1],6-1[8:1],4/6,2/5,{16}7,8,{8}7,1/6,,2,1,
{4}5-8[8:1]/8,3-7[8:1],6-1[8:1],4/6,2/8-4[8:1],1-6[8:1]/8,1/5,{8}7,7,
{4}5-8[8:1]/8,3-7[8:1],6-1[8:1],4/6,2/4,{8}4-8[8:1],5,6-2[8:1],,1/6,,
7/8,1/6,2/5,3/4,1/2,3/8,4/7,5/6,4,3,2,1,5,6,7,8,
{4}4-1[8:1]/1,6-2[8:1],3-8[8:1],3/5,4/7,{16}2,1,{8}2,3/8,,7,8,
{4}4-1[8:1]/1,6-2[8:1],3-8[8:1],3/5,1-5[8:1]/7,8-3[8:1]/1,4/8,{8}2,2,
{2}4-1[8:1]*-7[8:1],5-2[8:1]*-8[8:1],4w8[8:1],5w1[8:1],
{8}4/5,,,6/8,,1/3,,2>8[8:5]/7<1[8:5],,,,,,,,,
1h[8:3],,,3h[8:3],,,5h[4:5],,,,6,,1,,4,,
8h[8:3],,,6h[8:3],,,4h[4:5],,,,3,,8,,6,,
{16}1h[4:1],,,,4,5,6,7,8h[4:1],,,,5,4,3,2,1h[4:1],,,,3,4,5,6,7h[4:1],,,,6,5,4,3,
{8}
2h[8:5],,1,8,7,6h[4:1],,3>6[4:1],,,,,,,,,1b/8b,,,,,,,,
2h[4:1]/8h[4:1],,,5h[4:1]/7h[4:1],,,3/4,,1b/8b,,,,,,,,
1h[4:1]/7h[4:1],,,2h[4:1]/4h[4:1],,,5/6,,
1h[4:1]/3h[4:1],,,,7/8,,{16}4,5,{8}4,
6h[4:1]/8h[4:1],,,,1/2,,{16}5,4,5,,
7/8,,,,4,5,4,,1/2,,,,5,4,5,,
{4}6/8,1/3,4/5,,
1-6[8:1],8-3[8:1],2-5[8:1],7-4[8:1],3-8[8:1],6-1[8:1],2,{8}7,7,{4}
7-4[8:1],2-5[8:1],6-1[8:1],2,{16}4/7,,6,5,6,,4/7,,{4}8-4[8:1],8,
3-8[8:1],6-1[8:1],4-7[8:1],8,{16}2/5,,3,4,3,,2/5,,4/7,,,,2,1,2,,
{4}3/8-4[8:1],8,1-5[8:1]/6,1,1b/8b,,,,
8-3[8:1],1-6[8:1],7-4[8:1],2-5[8:1],6-1[8:1],3-8[8:1],7,{8}2,2,{4}
2-5[8:1],7-4[8:1],3-8[8:1],7,{16}2/5,,3,4,3,,2/5,,{4}1-4[8:1],1,
6-1[8:1],3-8[8:1],5-2[8:1],1,{16}4/7,,6,5,{8}6,4/7,1/8,1/8,1/8,1/8,
2b/7b,2b/7b,{4},,,,,2b/3b,6b/7b,
{8}
1h[2:1]/8,,,,4,3,,2/5,,,,,1,8,7,6,1h[2:1]/5,,,,8,7,,1/6,,,,,6/7,,2/3,,
8h[2:1]/1,,,,5,6,,4/7,,,,,8,1,2,3,8h[2:1]/4,,,,1,2,,3/8,,,,,2/3,,6/7,,
1/3,,8,,6,5,7,4,6,,2,3,4,,1,,5/7,,3,4,2,5,3,4,2,,8,7,6,5,,8,
1/3,,4,,7,8,6,1,6/8,,2,1,3,,7,6,3/5,2,1,2,4/6,7,8,7,
2/3,,6/7,,{32}1,2,3,4,5,6,7,8,{4}1b,
{8}
5-1[8:1]/6-8[8:1],,5/6,,2-6[8:1],2,1-5[8:1],1,4-8[8:1],,7-3[8:1],7,5-1[8:1],,8,,
8^5[8:1]/2,,2-6[8:1],2,3-7[8:1],3,4-8[8:1],4,5-1[8:1],,2^5[8:1],2,1-5[8:1],,8,,
7-5[8:1]/8-4[8:1],,7/8,,3-7[8:1],3,4-8[8:1],4,1-5[8:1],,6-1[8:1],6,8-4[8:1],,
2,2h[4:1],,1^4[8:1],8,7,6^1[8:1],5,4,3,2-6[8:1],,8-4[8:1],,5-1[8:1],,6,,
3-1[8:1]/4-8[8:1],,3/4,,7-3[8:1],7,8-4[8:1],8,5-1[8:1],,2-6[8:1],2,4-8[8:1],,1,,
1^4[8:1]/7,,7-3[8:1],7,6-2[8:1],6,5-1[8:1],5,4-8[8:1],,7^4[8:1],7,8-4[8:1],,1,,
1-5[8:1]/2-4[8:1],,1/2,,6-2[8:1],6,5-1[8:1],5,8-4[8:1],,3-8[8:1],3,1-5[8:1],,
7,7h[4:1],,8^5[8:1],1,2,3^8[8:1],4,5,6,7-3[8:1],,1-5[8:1],,4-8[8:1],,3,,
1-5[8:1]/7,2,3,4-8[8:1],3,2,1-5[8:1],2,3,4-8[8:1],3,2,1-5[8:1],1,,,
8-4[8:1]/2,7,6,5-1[8:1],6,7,8-5[8:1],7,6,5-1[8:1],6,7,8-5[8:1],8,,,
1-6[8:1]/7,2,3,4-7[8:1],3,2,1-6[8:1],2,3,4-7[8:1],3,2,1-5[8:1],1,,,
8-3[8:1]/2,7,6,5-2[8:1],6,7,8-3[8:1],7,6,5-2[8:1],6,7,8-4[8:1],8,,,
1-6[8:1]/7,2,3,4-7[8:1],3,2,1^6[8:1],2,3,4^7[8:1],3,2,1-5[8:1],1,6,7,
8-3[8:1]/2,7,6,5-2[8:1],6,7,8^3[8:1],7,6,5^2[8:1],6,7,8-4[8:1],8,3,2,
1-5[8:1],1,1,8-4[8:1],8,8,3-7[8:1],3,3,
{16}4,5,6,7,8,1,{32}4,3,2,1,8,7,6,5,4,3,2,1,
{8}8b,,8,7,6,1,2,3,4,
{1}5b,1b/8b,,,,,E

総選挙 No.4

(256){8}
4-1[8:3],,,,8,7,,6,,,,,1,2,3,4,
5-8[8:3],,,,1,2,,3,,,,,2/5,3,4/7,6,
5-8[8:3]/2,,,,1,2,,3,,,,,8,7,6,5,
4-1[8:3],,,,8,7,,6,{4},,7-5[8:1]/4,
2V48[2:3]/7,7b,7,1,1,6,6,2,
7V51[2:3],1b,1,8,8,2,2,7,
2V48[4:3],7b,1,6,7V51[4:3],2b,8,3,
3v8[8:1],1b,6v1[8:1],8b,3,
5b/7b,2b/4b,4b-2[8:1]/5b-7[8:1],4b/5b,
1-3[8:1],1-4[8:1],1,1h[4:1],
8-6[8:1],8-5[8:1],8,{8}7,7,{4}
1-3[8:1],1-4[8:1],1,1h[4:1],
{24}8b,7b,6b,5b,4b,3b,{4}2b-5[8:1],2b,1b/8b,
7-5[8:1],7-4[8:1],7-3[8:1],7,
2-4[8:1],2-5[8:1],2-6[8:1],2,
{8}
8,7,1,2,7,6,2,3,6,5,3,4,6,5,3,4,
5<3[8:3],,,4,4-8[8:1],,4,,1,,2h[2:1],7h[8:3],,,,,
8-6[8:1],,8-5[8:1],1,8,,8h[4:1],,
{24}1b,2b,3b,4b,5b,6b,{4}7b-4[8:1],7b,1b/8b,
2-5[4:1]/5,5-1[4:1],1,5,7-4[4:1]/4,4-8[4:1],8b,4b,
{8}
4-7[8:1],4,5-2[8:1],5,3-8[8:1],3,6-1[8:1],7,2,3,4,1,7,6,5,8,
3-1[8:1]/5,,3/8,,3-8[8:1]/6,,3/7,,7,4,7,3,7,2,7,1,
6-8[8:1]/4,,1/6,,6-1[8:1]/3,,2/6,,2,5,2,6,2,7,2,8,
2^5[8:1]/8,,2/6,,7^4[8:1]/1,,3/7,,2/3,3,4/5,5,6/8,6,4/5,4,
{16}6,5,6,,1,,8,,3,4,{8}3,8,1,7,5,3,1,7/8,5/6,3/4,1/2,
7-4[8:1],4,7,,2-5[8:1],5,2,,6,5/6,3,3/4,7,6/8,2,1/3,
8-3[8:1],3,8,,1-6[8:1],6,1,,7,8/7,2,1/2,6,5/7,3,2/4,
7^5[8:1],4,7,,2^4[8:1],6,2,,
{12}8^5[16:1]/5b,4b,3b,2b,,,1^4[16:1]/4b,5b,6b,7b,,,
{8}
7h[8:3]/5,,,2h[4:1],,4h[8:5],,5h[8:3],,,,,2/4,,5/7,,
3b/4b,3/4,,5/6,5/6,,2/7,2/7,,6,7b,8,1,2,3b,,
4-1[8:1],5-8[8:1],4,5,,,2,7,3,6,4,5,2/4,,5/7,,3b/6b,,
{12}
2h[4:1]/3b,4b,5b,6b,,,
7h[4:1]/6b,5b,4b,3b,,,
1h[4:1]/3b,4b,5b,6b,,,
8h[4:1]/6b,5b,4b,3b,,,
1b/8b,2b/7b,3b/6b,
{8}
4b/5b,3h[4:1]/6h[4:1],,,,4,5,4,5,4/6,4,3/5b,6b^3[8:3],,,3^1[4:1],,,
8b^5[8:1]*-5[8:1],,8b^3[4:1]*-3[4:1],,,8b-4[4:1],,,8,,
8b^3[4:1],,3^6[4:1],,6^8[6:1],,
1^4[8:1]*-4[8:1],,1b^6[4:1]*-6[4:1],,,1b-5[4:1],,,1,,
8-4[4:1],,4-8[4:1],,8^5[8:1],,{12}4b,3b,2b,{8}
1b-5[4:1],,5-1[4:1],,1^4[8:1],,{12}5b,6b,7b,
{8}8h[4:1],,1b,,2b,6b,3b/5b,,
{4}4pp4[4:1]*qq4[4:1],4^1[4:1]*^7[4:1],,,
{8}
8b,,8,8b,8,,6b/8,,8,8b,8,,2b/8,,6b/8,8,
2b/8,,8,8b,8,,6b/8,,8,{16}8b,1,{8}8b,1,1/7b,,1/3b,,
1/7b,,1,1b,1,,1/3b,,1,{16}1b,8,{8}1b,8,2b/8,,
{16}1b/8,7,6,5,
{8}3b/4,,4,4b,4,,4b/5b,,3h[4:3]/6h[4:3],,,,,,,,
2b/5b,,4b,4,4b,,2/4b,,4b,4,4b,,4b/6,,2/4b,4b,
4b/6,,4b,4,4b,,2/4b,,4b,{16}4,5b,{8}4,5b,5b/7,,3/5b,,
5b/7,,5b,5,5b,,5b/7,,5b,{16}5,4b,{8}5,4b,5,4,6,3,
2b-5[8:1]/7b,2/7,,,7-4[8:1],,5-2[8:1],,,,,,6b/8b,,1b/3b,,
{8}
2-6[4:1],,,,7,7-3[8:3],,8b-3[8:1],,,,,2,3,4,5,
6-2[4:1],,,,3,3-7[8:3],,4b-7[8:1],,,,,8,,2b/7b,,
7-3[4:1],,,,2,2-6[8:3],,1b-6[8:1],,,,,7,6,5,4,
3-7[4:1],,,,6,6-2[8:3],,5b-2[8:1],,,,,1,,3b/6b,,
7h[2:3]/2,,2,,2,3,2,3,4,,3,2,1,,3/6,,
2h[2:3]/7,,7,6,7,6,7,6,5,,6,7,8,1/8,,3,
3h[1:1],,6,,6,7,6,7,6h[4:3],,3,2,3,,3,4/5,,3,6,2,
{16}1b,2b,3b,4b,5b,6b,7b,8b,
{4}1b/5b-7[8:1],3bpp7[8:3],,,
{8}
8-5[8:1]/3,,3/8,,8-6[8:1]/1,2,1/8,2,
8-5[8:1]/3,,1/8,2,8-4[8:1]/3h[4:1],,8b,,
1-4[8:1]/6,,1/6,7,1-3[8:1]/6,7,1/6,7,
1-4[8:1]/8,,1/8,7,1-5[8:1]/6h[4:1],,1b,,
8-5[8:1]/3,,3/8,,8-6[8:1]/1,2,1/8,2,
8-5[8:1]/3,,1/8,2,3/8,,
1b/8b,1h[64:1]/8h[64:1],,
2/7,3/6,4/5,3/6,4/5,3/6,4/5,
{12}
3,4,5,6/2b,,,
6,5,4,3/7b,,,
{8}
4-2[8:1]/8-5[8:1],,4/8,,8-6[8:1]/1,2,1/8,2,
8-5[8:1]/3,,3/8,2,1-3[8:1]/8-4[8:1],,1/8b,,
1-4[8:1]/5,,1/7,8,1-3[8:1]/7,8,1/7,8,
1-4[8:1]/7-5[8:1],,1/7,,3/6,3b/6b,,2b/7b,
4-2[8:1]/8-5[8:1],,4/8,,8-6[8:1]/1,2,1/8,2,
3-1[8:1]/8-5[8:1],,3/8,,3/8,,2b/7b,2b/7b,
,1/8,2/7,3/6,4/5,3/6,4/5,3/6,
{16}
7b,6b,5b,4b,3b,2b,1b,8b,{2}2h[4:1]/7h[4:1],
{8}
1/8b,1,1,1/7b,1,1,1/6b,1,1,1/5b,1,1,1/4b,1,1/3b,,
1b/8,8,8,2b/8,8,8,3b/8,8,8,4b/8,8,8,5b/8,8,6b/8,,
1b/2b,3,4,5b/6b,7,8,1b/2b,3,4,5b/6b,7,8,1b/2b,3,4b/5b,,
8b/7b,6,5,4b/3b,2,1,8b/7b,6,5,4b/3b,2,1,7b/8b,6,4b/5b,,
4b/5b,3,3,1b/2b,8,8,6b/7b,5,5,3b/4b,2,2,1b/8b,7,5b/6b,,
4b/5b,6,6,7b/8b,1,1,2b/3b,4,4,5b/6b,7,7,1b/8b,2,3b/4b,,
5h[4:1],6,7,4h[4:1],3,2,5h[8:1],6,
{16}
5/7,6/8,1/7,2/8,3/1,4/2,3/1,2/8,1/7,8/6,7/5,8,1,2,3,,
{8},7,6,5,1,2,3,4,5-8[4:1],,8-4[4:1],,
{2}4-8[4:1],1b,,,,,,,,E

総選挙 No.5

(256){8}
1/8,,,,1,8,,2/7,,,,,1,8,7,6,
4/5,,,,4,5,,3/6,,,,,1/8,2/8,1/8,1/7,
1/8,,,,8,1,,2/7,,,,,8,1,2,3,
4/5,,,,5,4,,3/6,,,,,4/5,,2/7,,
{16}5/1b,2,3,4,5,6,7,8,1,2,3,4,5,6,7,8,{8}1,,,,1,7,3,5,
{16}4/8b,7,6,5,4,3,2,1,8,7,6,5,4,3,2,1,{4}8,,4/5,2/7,
{16}5/1b,2,3,4,5,6,7,8,1,2,3,4,{4}5,
{16}4/8b,7,6,5,4,3,2,1,8,7,6,5,{4}4,
{16}5/1b,2,3,4,5,6,7,,4/8b,7,6,5,4,3,2,,
{4}4b/8b,1b/5b,3b-8[8:1]/7b-4[8:1],3b/7b,
1-5[4:1],5-8[4:1],8-5[4:1],5-1[4:1],
1-5[4:1],5-2[4:1],2-5[4:1],5-1[4:1],
1-5[4:1],5-8[4:1],8-5[4:1],5,
{16}1,4/8,3/7,2/6,{4}1-6[8:1]/5-2[8:1],1b/5b,,
8-4[4:1],4-1[4:1],1-4[4:1],4-8[4:1],
8-4[4:1],4-7[4:1],7-4[4:1],4,
{16}8,1,2,3,8,7,6,5,{12}1,2,3,7,6,5,
{8}4b,3,2,1,5b,6,7,8,
1b/2b,,,4/8,1^4[8:1]/5^8[8:1],,1/5,,
1,,1/2,1/2,1-5[8:1]/2-6[8:1],,1b/2b,,
8-4[4:1],,4-1[4:1],,1-4[4:1],,4,,
{16}8,1/5,2/6,3/7,{4}4-7[8:1]/8-3[8:1],4b/8b,,
1-5[4:1],5-8[4:1],8-5[4:1],5-1[4:1],
1-5[4:1],5-2[4:1],2-5[4:1],5,
{8}8,8,8,8,4/8,4/8,4/8,4/8,
4b/8b,3b,2b,1b,8b,7b,6b,5b,
{4}
2b-6[8:1]/8b-5[8:1],2b/8b,1b-4[8:1]/7b-3[8:1],1b/7b,1-5[8:1],1/7,2/8-4[8:1],8,
2b-5[8:1]/8b-4[8:1],2b/8b,1b-5[8:1]/7b-4[8:1],1b/7b,1-5[8:1],{8}1/7,7,{4}8-4[8:1],2/8,
2b-6[8:1]/8b-3[8:1],2b/8b,1b-6[8:1]/7b-3[8:1],1b/7b,1h[8:3],{8}7,7,,,4/5,,
1,1,1,1,1,1,1,1,1b/5b,1b/5b,1b/5b,1b/5b,1b/5b,1b/5b,1b/5b,1b/5b,
{4}
8b-4[8:1]/7b-3[8:1],8b^3[8:1]/7b^4[8:1],8b-4[8:1]/7b-3[8:1],8b/7b,
1-5[8:1]/8-6[8:1],1/8,1-3[8:1]/8-4[8:1],1/8,
1b-5[8:1]/2b-6[8:1],1b^6[8:1]/2b^5[8:1],1b-5[8:1]/2b-6[8:1],1b/2b,
1-3[8:1]/8-4[8:1],1/8,1-5[8:1]/8-6[8:1],1/8,
7b-3[8:1]/8b,4/7,2b-6[8:1]/1b,2/5,
7b-3[8:1]/8b,4/7,2b-6[8:1]/1b,2/5,
{8}1,,,8,,8,,1,,,,,5b,,4b,,
2b^7[2:15]/5,,,5,,,5,,,6,6,6,5,6,5,,3,4,3,4,,6,5,6,5,6,6,3,3,,
{16}
6,5,4,3,2,,,,2,3,4,5,6,,,,6,5,4,3,2,,,,2,3,4,5,6,,,,
6,5,4,3,2,,,,2,3,4,5,{8}6,5,6,5,,,5,,,,4,,
1b/2b,,,3,,,5,,1b/5b,,,3b/7b,,,2b/6b,,
4b/8b,,5,,4,,5,,4b/8b,,,2b/6b,,,3b/7b,,
{4}1b/5b,3/7,1/5,{16}4/8,3/7,2/6,1/5,
{4}4b/8b,2/6,4/8,{16}1/5,2/6,3/7,4/8,
{8}
1b/5b,,3/7,2/6,1b/5b,,3/7,,2>6[4:1]/6p2[4:1],,,,,,,,
8h[4:1]/4,,4,6h[4:1],4,,7h[4:1]/4,,4,8,4/8,,4/6,,4/7,4,
8h[4:1]/3,,3,6h[4:1],3,,7h[4:1]/3,,3,{16}2/8,3,{8}4/8,3,3/6,,3/7,,
8h[4:1]/2,,2,6h[4:1],2,,7h[4:1]/2,,2,{16}1/8,2,3/8,,4,,4/6,,,,3/7,2,{8}1,
8h[4:1]/1,,1,6h[4:1],1,,7h[4:1]/1,,{1}1b,
{8}
1h[4:1]/5,,5,3h[4:1],5,,2h[4:1]/5,,5,1,1/5,,3/5,,2/5,5,
1h[4:1]/6,,6,3h[4:1],6,,2h[4:1]/6,,6,{16}1/7,6,{8}1/5,6,3/6,,2/6,,
1h[4:1]/7,,7,3h[4:1],7,,2h[4:1]/7,,7,{16}1/8,7,{8}1/6,5,3/5,4,3/5,4,
1b,1b,,,4/5,,4/5,,8,8,,,2/5,,4/7,,
2b^5[4:3]/1b,,,,8,8,,7,,,,,4,3,2,1,
7^4[4:3]/8,,,,1,1,,2,,,,,5/6,,7/8,,
2^5[4:3]/1,,,,8,8,,7,,,,,4,3,2,1,
7^4[4:3]/8,,,,1,1,,2,,,,,5/6,,7/8,,
1b/2b,,1/2,,1,2,1,2,3/8,,1,2,3/8,,1/2,,
7b/8b,,8,7,8,7,8,7,1/6,,8,7,1/6,1/6,,7/8,
5b/6b,,5/6,,5,6,5,6,3b/4b,,4,3,2/5,,3/4,2,
1b,2,3,4,{16}5b,6,7,8,1,2,3,4,{4}5b/6b,1b/8b,
{32}1b,2b,3b,4b,5b,6b,7b,8b,{4}1b,
{8}
1h[8:1]/5b,,1h[8:1]/5b,,3/5b,2,3/5b,2,1h[8:1]/5b,,3/5b,2,1h[8:1]/5b,,3/5b,5b,
2h[8:1]/5b,,3/5b,2,3/5b,2,3/5b,2,1h[8:1]/5b,,2/5b,2,1h[8:1]/5b,,3/5b,{16}7b,6b,{8}
1h[8:1]/5b,,1h[8:1]/5b,,3/5b,2,3/5b,2,1h[8:1]/5b,,3/5b,2,1h[8:1]/5b,,
3/5b,2/5b,,1,2,3,4/5b,5,5b/6,7,
{4}
7-4[8:1]/8-3[8:1],7/8,1b-6[8:1]/2b-5[8:1],1b/2b,
{8}
4b/8h[8:1],,4b/8h[8:1],,4b/6,7,4b/6,7,4b/8h[8:1],,4b/6,7,4b/8h[8:1],,4b/6,4b,
4b/7h[8:1],,4b/6,7,4b/6,7,4b/6,7,4b/8h[8:1],,4b/6,7,4b/8,4b/8h[8:1],,{16}2b/8,3b,{8}
4b/7h[8:1],,4b/7h[8:1],,4b/6,7,4b/6,7,4b/8h[8:1],,4b/6,7,4b/8h[8:1],,
4b/7,4b/8,,8,7,6,4b/5,4,3/4b,2,1/8,,1/8,,{32}1b,2b,3b,4b,5b,6b,7b,8b,{4}1b-5[8:1]/5b,
{8}
1b/6b,7-4[8:1],7,3b/7b,2-6[8:1],2,2b/7b,8-3[8:1],8,2b/8b,1-5[8:1],1,1b/6b,7,2b/7b-4[8:1],,
3b/7b,2-6[8:1],2,2b/7b,8-3[8:1],8,2b/8b,1-5[8:1],1,1b/6b,7-3[8:1],7,4b/7b,4,5b/4b-8[8:1],,
4b/7b,6-1[8:1],7,2b/6b,3-7[8:1],3,3b/6b,5-2[8:1],5,3b/5b,4-8[8:1],4,4b/7b,6,3b/6b-1[8:1],,
2b/6b,3-7[8:1],3,3b/6b,5-2[8:1],5,3b/5b,4-8[8:1],4,4b/7b,6-2[8:1],6,1b/6b,1,8b/1b-6[8:1],,
1b/8b,8-3[8:1],8,1b/8b,2-5[8:1],2,2b/7b,7-4[8:1],7,1b/7b,1-6[8:1],1,1b/8b,8,
{16}8b-3[8:1]/5b,4b,3b,2b,
{8}
1b/8b,1-6[8:1],1,1b/7b,7-4[8:1],7,1b/7b,1-5[8:1],1,1b/8b,8-3[8:1],8,2b/8b,2,
{16}2b/4b,5b,6b,7b,
{8}
1b/8b,2b,3b,4b/8b,5b,6b,7b/3b,8b,
{16}1b,2b,3b/7b,4b,5b,6b,7b,8b,
{32}1b/5b,2b,3b,4b,5b,6b,7b,8b,1b/5b,2b,3b,4b,
{8}1b/5b,,4/8,3/7,2/6,1/5,8/4,7/3,6/2,
{1}5/1>1[2:1],5b,,,,,,E


  • ※宴とNo.1は同一です。修正等あればおねがいします。 -- Sea (2018-05-07 06:50:29)
  • No.5の最後の方にある16分のブレイクがずれていたので修正。 -- 名無しさん (2019-07-11 13:08:58)
  • ついでにFINAREの4/1以降の譜面のコメント(おそらく一部間違ってます) 1 Jackの現代アレンジ版 2 はっぴーの若干ストイック版 3 rioNのスライド筋版 4 玉子豆腐のチュウニリスペクト版 5 パリピS氏のやべー版 -- 名無しさん (2019-07-11 13:15:23)
名前:
コメント:

タグ:

+ タグ編集
  • タグ:

このサイトはreCAPTCHAによって保護されており、Googleの プライバシーポリシー利用規約 が適用されます。

最終更新:2019年07月11日 13:15