Doll Judgment

BPM EASY BASIC ADVANCED EXPERT MASTER Re:MASTER
230 3 5 7+ 12 13+ -

EXPERT MASTER Re:MASTER
譜面制作者 某S氏 はっぴー -

EASY

(230){1},
1,1,1,,8,8,8,,7,6,5,4,3,2,1,1,
{4}
1,1,,,1,,,,2,2,,,2,,,,
3,3,,,3,,,,4,4,,,4,,,,
{2}4/5,,,,4h[1:1],,,,
5,5,5,,6,6,6,,7,7,7,,8,8,8,,
1,1,1,,2,2,2,,3,3,3,,4,4,4/5,,
{1}
6-3[4:3],,2-7[4:3],,
8,8,7h[1:1],,6,6,5h[1:1],,
4,4,3h[1:1],,2,2,1h[1:1],,
{4}
2,2,2,,2,,,,3,3,3,,3,,,,
4,4,4,,4,,,,5,5,5,,5/6,,,,
6,6,6,,6,,,,7,7,7,,7,,,,
{2}8b,,,,1/8,1/8,1/8,,
8,8,7,7,6,6,5,,4,4,3,3,2,2,1,,
1,1,2,2,3,3,4,,5,5,6,6,7,7,8,,
{4}
8,8,8,,7,,7,,6,6,6,,4/5,,,,
4,4,4,,3,,3,,2,2,2,,1/8,,,,
1,1,1,,2,,2,,3,3,3,,4/5,,,,
5,5,5,,6,,6,,7,7,7,,1/8,,,,
{1},
8-5[4:3],,4-1[4:3],,
2-7[4:3],,6-3[4:3],,
{2}
4,4,3,3,2,2,1,,
8,8,7,7,6,6,5,,
{1}
4h[2:1],5h[2:1],
4-1[4:3],,,,,,E


BASIC

(230){1},
1,1,1b,,8,8,8h[1:1],,
{2}
1,1,2,2,3h[1:1],,,,
3/4,,5/6,,3,3,3/4,,
{1}
5h[1:1],,6h[1:1],,
7h[1:1],,8-4[4:3],,
3,3,2-5[4:3],,
{2}
6,6,5,5,4,4,3/4,,
2h[1:1],,,,1,8,1,,
2,2,3,3,4,4,5/6,,
7h[1:1],,,,8,1,1/8,,
8-5[4:3],,,,1-4[4:3],,,,
5,5,6,6,7,7,1/8,,1,1,2,2,3,3,4/5,,
4,4,3,3,2,2,1/8,,8,8,7,7,6,6,4/5,,
{4}
3,3,3,,3/4,,,,6,6,6,,5/6,,,,
3/4,,3/4,,5/6,,5/6,,4/5,,4/5,,3/6,,,,
7,7,7,,7/8,,,,2,2,2,,1/2,,,,
{1}8b,1b,8-4[4:3],,
{2}
1,1,2,2,3h[1:1],,,,4,4,5,5,6,6,5/6,,
7,7,8,8,1h[1:1],,,,8,8,7,7,6,6,5,5,
4h[1:1],,,,5h[1:1],,,,
4,4,3,3,2,2,1/2,,
8,8,1,1,8h[1:1],,,,
1,1,2,2,3,3,4b/5b,,,,
5/6,5/6,5/6,,
3/4,3/4,3/4,,
1/2,1/2,1/2,,
7/8,7/8,7/8,,
6,6,5/6,,3,3,3/4,,
4,4,5,5,4,5,3/6,,
{1}
2,2,2-6[4:3],,,,,,E


ADVANCED

(230){2},,
6h[2:1],5,3h[2:1],4,4-1[4:3]/5-8[4:3],,,2/7,
{4}
3,,2/4,,5,5,5,,
6,,5/7,,8,8,8,,
1h[2:1]/8h[2:1],,,,
1/8,,2/7,,3/4,,5/6,,
4,4,4/5,,2,,1/3,,8,8,8,,
1^4[4:3]/8^5[4:3],,,,,,3b/6b,,
6,,5/6,,4,,3/5,,3,,3/4,,2,2,2,,
7,,7/8,,6,,5/7,,3/4,,5/6,,4,4,4/5,,
4h[2:1]/5h[2:1],,,,
4h[2:1]/5h[2:1],,,,
4/5,,3/6,,4,4,4/5,,
{2}
2h[2:1],3h[2:1],4,4/5,
6h[2:1],7h[2:1],8,1/8,
1-6[4:3]/2-5[4:3],,,4/7,
7-4[4:3]/8-3[4:3],,,2/4,
3h[2:1],2h[2:1],1,7/8,
6h[2:1],7h[2:1],8,1/2,
3h[2:1],4h[2:1],5h[2:1],6h[2:1],
7h[2:1],8h[2:1],1,2/7,
5^2[4:3]/6,,,1/8,
7^4[4:3]/8,,,3/5,
{4}
2h[2:1],,1,,3,3,3,,4h[2:1]/5h[2:1],,,,4/5,4/5,4/5,,
7h[2:1],,8,,6,6,6,,4h[2:1]/5h[2:1],,,,4/5,4/5,4/5,,
{2}
3/4,5/6,4/7,3/6,1/2,7/8,1h[2:1]/6h[2:1],,
3h[2:1],4,6h[2:1],5,4/5,3/6,
{4}1/8,1/8,1b/8b,,
2,2,1,,7,7,8,,3,3,4,,5,5,4/5,,
3h[2:1],,4h[2:1],,3,3,3/4,,
5h[2:1],,4h[2:1],,5,5,4/5,,
3,3,3/4,,6,6,5/6,,
3,3,2/4,,6,6,4/7,,
{1}
4qq1[4:5]/5pp8[4:5],,
{4}
2/7,,3/6,,4/5,4/5,3b/6b,,
3,3,3/4,,6,6,5/6,,
7>4[4:3]/4,,,,,,3/6,,
2,2,1/2,,7,7,7/8,,
1h[2:1]/8h[2:1],,,,
1,8,2/7,,
6,6,5/6,,3,3,3/4,,
2<5[4:3]/5,,,,,,1/8,,
7,7,7/8,,2,2,1/2,,
8,8,1,1,1/8,1/8,2b/7b,,
3,3,2/4,,6,6,5/7,,
1pp3[4:3]/8qq6[4:3],,,,,,2/7,,
3,3,2/4,,6,6,5/7,,1h[2:1]/8h[2:1],,,,
1/8,2/7,3b/6b,,
7,7,6/8,,2,2,1/3,,
4qq2[4:3]/5pp7[4:3],,,,,,1/8,,
3/4,3/4,2/5,,5/6,5/6,4/7,,
4/5,4/5,3/6,3/6,2h[2:1]/7h[2:1],,,,
1,1,1b/8b,,
2h[2:1],,1,,8,7,1/6,,7h[2:1],,8,,1,2,3/8,,
3h[2:1],,4,,5,6,4/7,,6h[2:1],,4,,4,5,3b/6b,,
7h[2:1]/8h[2:1],,,,5/6,5/6,4/7,,
3h[2:1]/4h[2:1],,,,1/2,1/2,3/8,,
1-5[4:3]/8-4[4:3],,,,,,3/6,,
2/4,,5/7,,4/5,3/6,2b/7b,,
6h[2:1]/8h[2:1],,,,
1h[2:1]/3h[2:1],,,,
1/8,1/8,1h[2:1]/8h[2:1],,,,,,,,,,E


EXPERT

(230){4},,,,
8h[4:1],2,2h[4:1],6,6h[4:1],4,
{12}4,,5,,,4h[6:11],{4},5,,5,,5,,5,

2^5[4:1]/8,,,,7^4[4:1]/1,,,,
1h[4:1]/8h[4:1],,1/8,,1^4[4:1]/8^5[4:1],,,,
5h[4:3],4,,3,3h[4:3],4,,6,
7h[4:3],6,,1,1h[4:3],2,,8,
3/4,4/5,5/6,,5/7,4/6,3/5,,
1pp4[4:3]/8qq5[4:3],,,,,,4,5,

3h[4:1],4,3h[4:1],4,3/4,2/5,1/6,,
6h[4:1],5,6h[4:1],5,5/6,4/7,3/8,,
7h[4:1],8,7h[4:1],8,7/8,1/6,2/5,3/4,
3h[4:1],4h[4:1],2h[4:1],1,1/2,3/8,4/7,5/6,
4h[2:3]/7b,,,,,,,,

4/5,4/5,{12}4,,5,,,3h[8:5]/6h[8:5],{4},,,3/6,
4,5,4,3/5,6,5,6,5/7,4h[2:1],,3h[2:1],,2^7[4:1],,,,
8,1,8,1/7,2,1,2,1/3,6,5,6,5/7,4^1[4:1],,8b,,
5,4,5,4/6,3,4,3,2/4,5h[2:1],,6h[2:1],,7^2[4:1],,,,
3,1/2,3/8,4/7,5/6,7/8,1/6,2/5,
4h[2:1]/3,,5h[2:1],,{12}6,,6,,,4/7,{4},,

1/8,2,3,4,3/5,6,7,8,1/7,6,5,4,3/5,2/5,1/5,5/8,
7/8,6,5,2/8,1/2,3,4,1/7,8/7-3[4:1],,8-4[4:1],,1-5[4:1],,,,
3h[4:3],4,5,4,6h[4:3],5,4,5,2h[4:3],4,5,4,3/5,4/6,5b/7b,,
1/2,3,4,1/7,7/8,6,5,2/8,1/2-6[4:1],,1-5[4:1],,8-4[4:1],,,,
8,7,6,3/5,4,3,2,1/7,
8b,,,,,,1/8,2/7,

3,2/4,3,1/5,3,2/4,1/5,6/8,
6,5/7,6,4/8,6,5/7,4/8,3/1,
3,2/4,6,5/7,4,3/5,5,4/6,
3h[4:1]/5h[4:1],,4h[4:1]/7h[4:1],,
2h[4:1]/5h[4:1],,4h[4:1]/8h[4:1],,

2,1/3,2,4/8,2,3/1,4/8,5/7,
7,6/8,7,1/5,7,6/8,1/5,2/4,
1q6[4:1]/2^5[4:1],,,,
7^4[4:1]/8p3[4:1],,,,
3/4,1/7,5/6,2/8,3h[4:1],8,7h[4:1],1,

2,4/8,7,1/5,2,4/8,7,1/5,
3,4/8,6,1qq5[2:1]/5,,,,,
8,1/7,2/6,3/5,1,2/8,3/7,4/6,
3/4,2/5,{6}1/6,1V37[2:1]/6V48[2:1],,{4},,,,

6h[4:1],5,4h[4:1],5,5h[4:1],4,3h[4:1],4,
7h[4:1],8,2h[4:1],1,6h[4:1],5,3h[4:1],4,
{8}
3h[4:1]/4h[4:1],,,2h[8:3]/5h[8:3],,,,,
5h[4:1]/6h[4:1],,,4h[8:3]/7h[8:3],,,,,
7h[4:1]/8h[4:1],,,1h[8:3]/6h[8:3],,,,,
1h[4:1]/2h[4:1],,,3h[8:3]/8h[8:3],,,,,
{2}
4^1[4:1]/8q5[4:1],,1p4[4:1]/5^8[4:1],,
4qq1[4:3]/8qq5[4:3],,,2/7,
4q6[2:1]/7,,5p3[2:1]/2,,
{4}
1,1,1h[8:3],{8},8pp4[2:1],{4},,,,

3,3/4,6,5/6,2,1/2,7,7/8,
2-5[4:1],,8,,
8-4[4:1],,1,,
{8}
3h[8:3],,,4,,,2/5,,
6h[8:3],,,5,,,4/7,,
{4}4/8,3/7,2/6,1/5,
4bpp7[1:1]/8bpp3[1:1],,,,,,,,

1,2/8,
{12}1,,1,,,2/8,{4},3/4,4/5,5/6,8,1/7,
{12}8,,8,,,1/7,{4},5/6,4/5,3/4,1,2/8,
{12}1,,1,,,2/8,{4},3/4,4/5,5/6,
7-4[8:1],1,2-5[8:1],8,8h[4:1],2h[4:1],
{12}1,,1b,,,2h[8:3],{4},1,
{12}2,,2,,,3/8,{4},5/6,3/4,5/6,7h[4:1],8,
{12}7,,7,,,1/6,{4},3/4,5/6,3/4,3h[4:1],4,
{12}3,,3,,,2/5,{4},4/6,3/5,4/6,3/4,2/5,
{6}1/6,1h[4:1]/6h[4:1],,
{4},3/8,4/7,5/6,4/7,
{12}
6,,6,5,,,3/4,,,2/5,,,
3,,3,4,,,5/6,,,
4,5,4,5,,,1/8,,1/8,,,
{1}2/7,,,,E


MASTER

(230){12}3,4,3,6,5,6,4,5,4,{4}5,
4/3-1[8:1],5,6-8[8:1],5,4-1[8:1],5,
{12}8,,1/8,,,{6}2/7h[3:4],,5,,,5,,,5,,
{12},3,4,,4,
{4}
3/5,5/6,{12}4/7,,8h[4:1],,,1h[3:1],,,,{4}2,7/8,5/6,
3/4,5/6,{12}4/7,,4/7,,,2/5,,,5,4,,4,7,,7,5,,5,
8h[4:3],,,6,,,3,,,6,,8,
1h[4:3],,,3,,,3,,,6,,1,
8,,,3,5,4,6,,,1/8,,,
{4}
5-2[8:1]/6,8,6-1[8:1],3,
4^1[8:1],7,5^8[8:1],2,
4^1[8:1],7,{12}5,,5,4,,4,
3/6,,,,,,3/4,,3/4,,,1/6,,,,
{4}2h[4:1],1,3/8,4/6,8,5/7,1,
{12}
8,,8h[4:1],,,7h[4:1],,,6,,,6,
{4}
5,1,2/4,8^5[8:1],
1-5[8:1],8-4[8:1],1,1,4/6,8,5/7,1,
{12}
8,,8h[4:1],,,7h[4:1],,,6,,,
6,4,5,4,5,3,4,3,,
3/5,,,4/7,,,8,1,,,2/4,,,4/5,,,
{2}2b/7b,,,

{12}4,5,4,6,,,
5h[4:1],,,4,,,4/5,,
3>6[2:1]/6,{4},,,,1/8,
7h[4:1],5h[4:1],4^7[8:1],,
2h[4:1],4h[4:1],5^2[8:1],,
8^5[8:1],3,1^4[8:1],6<3[2:1],,,
{12},,4,5,,,

{4}
2h[4:1],4h[4:1],5^2[8:1],,
7h[4:1],5h[4:1],4^7[8:1],,
1^4[8:1],7,5^8[8:1],4h[4:1],
{12}
1h[4:1],,,8h[4:1],,,6,,6,,,
2/8,,,3,4,,4,3,,2/5,,,6h[3:1],,,,
{4}
8h[4:1],1h[4:1],3^6[8:1],
8,7p3[8:1],1,2^7[8:1],
6h[4:3],,,3,2^5[8:1],1,
{12}8,,3/8,,,1,
8^6[8:1],,,2,,1,,,1/6<3[2:1],,,
3,,,,,,,,,,4/5,,,
1/8,,1/8,,,2b/7b,,,,,,,

4/5,,5,4,,4,5,,5,2,,2,
7,,7,5,,5,7,,7,4,,4,5,,5,2,,2,5,,5,
4-2[8:1],,,5-7[8:1],,,4-1[8:1],,,5-8[8:1],,,
4,,,1,,1,4-8[12:1],,4,1-4[8:1],,,,,,
8h[4:1],,,5h[4:1],,,6,,,4/7,,,
3^1[8:1]/5,,,7,,,6^8[8:1],,,2,,,1,,
1/8,,,3/6,,,5,{4}4,
8^5[4:1],5-1[4:1],1^4[4:1],4,
5^8[4:1],8-4[4:1],4^1[4:1],1,
8,4/7,
{12}3/4,,
2/5<3[4:1],,,4,,,,,,,
1/8,,1/8,,,3/5,,,

3,4,3,2,3,,3,4,,6,
5,,3,4,,2/5,,,4/7,,,6,
5,6,7,6,5,6,7,6,5,6,7,6,
5h[4:1],,,8h[4:1],,,1h[4:1],,,3,,,
2/7,,,5,,5,4,,4,8,,8,
1^4[8:1],,,5^8[8:1],,,,,,4,,,
2-5[8:1]/8,,,6,,,7-4[8:1],,,3,,,
2-6[8:1],,,7-3[8:1],,,1,,,8b,,,
1-4[8:1]/2-5[8:1],,,1/2,,,6,,6,8,,8,
1,,1,3,,2/4,,,7,5,,,
7-4[8:1]/8-5[8:1],,,7/8,,,3,,3,1,,1,
8,,8,6,,,4/7,,,2/5,,,
1-4[8:1]/2-5[8:1],,,1/2,,,6,,6,8,,8,
1,,1,3,,,2/5,,,4/7,,,
1,,1,8,,8,5,,5,4,,4,
1,8,2,7,3,6,4,,,2b/7b,,,

1-5[8:1]/2-4[8:1],,,1/2,,,6,,6,8,,8,
1,,1,3,,2/4,,,,5/7,,,
7-5[8:1]/8-4[8:1],,,7/8,,,3,,3,1,,1,
8,,8,6,,,4/7,,,2/5,,,
{4}
4h[2:1]/5h[2:1],,,2/7,
3V58[2:1]/6V41[2:1],,,,

1bw5[8:1],1b,1bw5[8:1],1b,
{12}
7,8,6,2,1,3,5,,5,4,,,
5h[2:1]/2,,,4,,,1,,,4/6,,6,
{4}
2,4/8,1/8-6[8:1],4,
2/5,4/5,1/6,4/6,
{12}
2/7,,7,5,,5,4,,,4/6,,,
7h[4:1]/2,,,4,,,1/8,,8-5[8:1],4,,,
2,,,4/6,,,1/7,,,4/5,,,
2/7,,,4,5,4,5,,3>6[4:1]/6,,,
5,,,,,,,4/5,,,1/8,,,

4h[2:1]/7,,,5,,,8,,,3/5,,3,
{4}
7,5,1-3[8:1]/8,5,
4^1[8:1]/7,5,8,5,
{12}
3/7,,3,5,,5,4,,4,6,,,
4/7,,,3/5,,3,8,,,1/5,,,
1/7,,,3/5,,3,8,,,4/5,,,
1/7,,,3/5,,3,8,,,1/5,,,
2/7,,8,1,,1,8,,,3/6,,,

7^5[12:1],,7,8,,,2^4[12:1],,2,1,,,
7^5[12:1],,7,8,,,2^4[12:1],,2,1,,,
7,,7,5,,5,4,,4,2,,2,
1,,1,8,,8,7,,,4/7,,,
3^6[12:1],,3,7,,,7^2[12:1],,7,3,,,
3^6[12:1],,3,7,,,7^2[12:1],,7,3>4[4:1],,,
,,,,,,8,,1/8,,,2/7,

,,,3/6,,,5,4,6,3,,,
6^8[12:1],,6,5,,,3^1[12:1],,3,4,,,
6^8[12:1],,6,5,,,3^1[12:1],,3,4,,,
6h[4:1],,,8h[4:1],,,1h[4:1],,,3,,,
4/5,,6,5,,3,4,,5,4,,,
6^1[8:1]/2,,,3,,3,,,,2/5,,,
3^8[8:1]/7,,,6,,6,,,,7/4,,,
1/8,,,5/7,,,5,6,4,5,3,4,
{1}3h[1:1],

{12}
5,,,5,,,4,5,4,5,,,
2-5[8:1],,,7,,,6-1[8:1],,,3,,,
3-6[8:1],,,7-2[8:1],,,4-1[8:1],,,8-5[8:1],,,
3,,,2/4,,,6,,,5/7,,,
7-4[8:1],,,3-8[8:1],,,6-1[8:1],,,2-5[8:1],,,
7,,,6/8,,,2,,,1/3,,,
3-6[8:1],,,7-2[8:1],,,4-1[8:1],,,8-5[8:1],,,
4^1[8:1],,,7,,,5^8[8:1],,,2,,,
4,5,4,6,,,4/5,,4/5,,,2/7,
,,8,1-5[8:1],,,7,,,8<4[4:1],,,
4>8[4:1],,,8<4[4:1],,,4>8[4:1],,,8,,,
4,,,3/5,,,2,,,1>5[4:1]/7,,,
5<1[4:1],,,1>5[4:1],,,5<1[4:1],,,1,,,
5,,,4/6,,,7,,,8>4[4:1]/6,,,
4<8[4:1],,,8>4[4:1],,,4,,,8,,,
3,4,3,6,5,6,4,,3/6,,,3/6,
,,,7-3[8:1],,,2-6[8:1],,,5w1[8:1],,,
,,,,,,,,,,,,
3/7,,,5,4,5,3,,,3/6,,,
1,8,1,8,,,3/6,,1-5[8:1]/8-4[8:1],,,
{1}1b/8b,,,,E


Re:MASTER



  • かなりアバウトなところも多いので、修正箇所等あれば修正おねがいします。 -- Sea (2018-05-12 10:48:11)
名前:
コメント:

タグ:

+ タグ編集
  • タグ:

このサイトはreCAPTCHAによって保護されており、Googleの プライバシーポリシー利用規約 が適用されます。

最終更新:2022年08月11日 15:16