日本の米は世界一

BPM EASY BASIC ADVANCED EXPERT MASTER Re:MASTER
138 2 4 6 10+ 13 -

EXPERT MASTER Re:MASTER
譜面制作者 サファ太 Jack -

EASY

(138){1},,1,2,3,4/5,5,6,7,1/8,
{4},{2},8,,7,,6,6,6,,4/5,,4/5,,3,3,3-6[4:3],,,,
{4},{1}7-2[4:3],,2-7[4:3],,8h[1:1],,1h[1:1],,
{2}
8,8,8,,7,7,7,,6,6,6,,5,5,4/5,,
4,4,4,,3,3,3,,2,2,2,,1,1,1/8,,
1,1,1,,2,2,2,,3,3,3,,4,4,4/5,4/5,
{1}4/5,5-8[4:3],,
{2}1b,1,1,,8,8,8,,7,7,7,,6,6,6,,
{1}4/5,,,,E


BASIC

(138){1},,
{4}
8,8,8,,7,7,7,,6,6,6,,5,,4/5,,
4,4,4,,3,3,3,,2,2,2,,1,,,,
8,8,8,,1,1,1,,2,2,2,,3,,3/4,,
4,4,4,,5,5,5,,6,6,6,,7,,7/8,,
{1}
1-4[4:3],,8-5[4:3],,
4-1[4:3],,5-8[4:3],,
{2}1/8,1/8,1/8,,
{4}
8b,8,8,,7,7,7,,
6,6,6,,5,4,5,,
4,4,4,,3,3,3,,
2,2,2,,1,1,1,,
8b,8,1,1,2,2,1/2,,
3,3,4,4,5,5,4/5,,
6,6,7,7,8,8,1/8,,
{1}
1h[1:1]/8h[1:1],,
{4}
2b,2,1,1,7/8,7/8,7/8,,
7,7,6,6,4/5,4/5,4/5,,
4,4,3,3,1/2,1/2,1/2,,
8,8,8,,
{1}8h[1:2],1h[1:1],,,
{4}
1b,1,1,,2,2,2,,
3,3,3,,4/5,,4/5,,
5,5,5,,6,6,6,,
7,7,7,,1/8,,1/8,,
{1}2/7,,,,E

ADVANCED

(138.0){1},,
{4}2,2,1/2,,
{4}7,7,7/8,,
{4}1,1,1/8,,
{4}8,8b,1,1b,
{4}7,7,7/8,,
{4}2,2,1/2,,
{4}8,8,1/8,,
{1}1-4[8:3]/8-5[8:3],
{4}3,3,4,4b/5b,
{4}6,6,5,4b/5b,
{4}3,3,4,4b/5b,
{4}6,6b,7,7b,
{4}7,7,8,1b/8b,
{4}2,2,1,1b/8b,
{4}7,7,8,1b/8b,
{4}2,1b/2b,7,7b/8b,
{4}2,2,1b/2b,1b/2b,
{4}7,7,7b/8b,7b/8b,
{4}1,1,1b/8b,1b/8b,
{4}2,3,4,4b/5b,
{4}6,6,5b/6b,5b/6b,
{4}3,3,3b/4b,3b/4b,
{4}6h[4:1],5,3h[4:1],4,
{4}7h[4:1],6,2h[4:1],3,
{2}7h[4:1]/8h[4:1],1h[4:1]/2h[4:1],
{1}1h[4:1]/8h[4:1],
{4}1b/8b,8,7/8,,
{4}1/8,1,1/2,,
{4}2,1/2,7,7/8,
{4}1/8,1/8,2/7,,
{4}7h[4:1],8,7/8,,
{1}1-6[8:3]/2-5[8:3],
{4}6h[4:1],5,3h[4:1],4,
{1}5b-8[8:3],
{4}1/8,1,1/2,,
{4}1/8,8,7/8,,
{4}7,7/8,2,1/2,
{4}1/8,1/8,2/7,,
{4}2h[4:1],1,1/2,,
{1}7-4[8:3]/8-3[8:3],
{4}3,3b/4b,6,5b/6b,
{4}4/5,4b/5b,3/6,,
{4}3/4,3/4,2/5,,
{4}5/6,5/6,4/7,,
{4}3,3/4,6,5/6,
{4}4,4/5,3/6,,
{4}6,6,5/6,,
{1}3-8[8:3]/4-7[8:3],
{4}7,7,8,8,
{4}1,1,2,2,
{4}1/2,1/2,7/8,7/8,
{1}1/8,,
{4}1b,8,2/7,,
{4}7,8,1/6,,
{4}2,1,3/8,,
{4}7,7b/8b,2,1b/2b,
{4}8,1,2/7,,
{4}2,1,3/8,,
{4}7,8,1/6,,
{4}2,1b/2b,7,7b/8b,
{1}1b/8b,
E

EXPERT

(138){1},{4},,,1b,
{8}
6h[4:1],,5,,4,4,3,,
2h[4:1],,1,,8,8,7,,
6h[4:1],,5,,4,4,4/5,,
{4}
5/6,2b/8b,3/4,1b/7b,
{8}
7h[4:1],,8,,1,1,2,,
3h[4:1],,5,6,,,5/1,,
3h[4:1],,4,3,,,4/8,,
{4},,,,{8}
1/2,3/4,5/6,7/8,1-5[8:1],2/8,1b,,
8/7,6/5,4/3,2/1,8-4[8:1],7/1,8b,,
1/2,3/4,5/6,7/8,1-5[8:1],2/8,1b,,7-3[8:1],6/8,7b,,2-6[8:1],3/1,2b,,
7/8,3/4,7/8,2/5,7-3[8:1]/8-4[8:1],1/6,7b/8b,,
2/1,6/5,2/1,7/4,2-6[8:1]/1-5[8:1],8/3,2b/1b,,
7/8,3/4,7/8,2/5,7-3[8:1]/8-4[8:1],1/6,7b/8b,,
2-6[8:1]/1-5[8:1],8/3,2b/1b,,
7-3[8:1]/8-4[8:1],1/6,7b/8b,,

1,2/8,3,2/4-8[8:1],,3-1[8:1]/4b,,3b/8,8,7/1,6,7/5-1[8:1],,6-8[8:1]/5b,,6b/1,
1,2/8,3,2/4-8[8:1],,3-1[8:1]/4b,,3b/8,8,7/1,6,7/5,4>1[8:1]/8<5[8:1],,4b/8b,,
8,7/1,6,7/5-1[8:1],,6-2[8:1]/5b,,6b/1,1,2/8,3,2/4-8[8:1],,3-7[8:1]/4b,,3b/8,
8h[4:1],,1,1/8,2/7,2/7,3/6,3/6,4/5,5/6,6/7,7/8,8/1,1/2,2/3,3/4,
4-8[8:1]/5-1[8:1],3/6,4/5,,
4-8[8:1]/5-1[8:1],2/7,4/5,,4/5,1/7,4/5,2/8,
1-5[8:1]/7-3[8:1],,1/7,,2b/6b,4b/8b,
{4}1-5[8:1],
1/4-8[8:1],4/5-7[8:1],5/8b-4[8:1],
8/7-5[8:1],7/4-2[8:1],4/5-1[8:1],
2b-4[8:1]/5,1-5[8:1]/2,1/4b-8[8:1],4/5-7[8:1],
8b-4[8:1]/5,7-5[8:1]/8,7/4bw8[8:1],4b,
{8}
2h[4:1],4,1h[4:1],3,8h[4:1],6,7h[8:1],5,{16}1b/2b,,,6b/7b,,,{8}3b>6[16:3]/4bp5[16:3],,,,,
6h[4:1],8,4h[4:1],1,5h[4:1],8,3h[8:1],1,3b/4b,5b/6b,7b/8b,1b/2b,3b/4b,{16}5,4,6,3,7,2,
{8}
8b-5[8:1],4,8-3[8:1],4,8-5[8:1],4,8>3[8:1],4,8b<5[8:1],4,8>3[8:1],4,8-4[8:1],4,8,3,
1b-4[8:1],5,1-6[8:1],5,1b-4[8:1],5,1<6[8:1],5,1b>4[8:1],5,1<6[8:1],5,1b-5[8:1],5,1b,6,
7h[8:1],8,2h[8:1],1,6h[8:1],8,3h[8:1],1,{16}8b/7b,,,3b/2b,,,{8}6b<3[16:3]/5bq4[16:3],,,,,
1-5[8:1]/8-4[8:1],27,1b/8b,,1-5[8:1]/8-4[8:1],3/6,1b/8b,,
1-5[8:1]/8-4[8:1],45,1b/8b,,{16}4b,5b,4b,5b,4b,5b,4b,5b,
{8}
2b-5[8:1],1,7-4[8:1],8,2>5[8:1],1,7<4[8:1],8,2b-6[8:1],1,7-3[8:1],8,2>4[8:1],1,7<5[8:1],8,
3b-8[8:1],4,6-1[8:1],5,3b>8[8:1],4,6<1[8:1],5,4b-8[8:1],7,5-1[8:1],2,3b>6[8:1],7,,,
1h[8:1]/8b,3,1b/8h[8:1],6,1h[8:1]/8b,3,1b/8h[8:1],5,{16}1b/8b,,,4b/5b,,,{8}1bpp4[16:3]/8bqq5[16:3],,,,,
{8}
4b/5b,2/3,4b/5b,6/7,4b/5b,1/2,4b/5b,7/8,3b/4b,4b/5b,
5b/6h[4:1],,7b,4b/5b,3b/2h[4:1],,1b,4b/5b,
7b/8h[4:1],,1b,3b/6b,1b/8b,4b/5b,{1}2b/7b,,
{16}
1b/8h[8:1],,2-6[8:1],8h[16:3],,,2,,8h[8:1],,2-6[8:1],8h[16:3],,,2,,
7h[8:1],,2-5[8:1],7h[16:3],,,2,,7h[8:1],,2-5[8:1],7h[16:3],,,2,,
6h[8:1],,1-5[8:1],6h[16:3],,,1,,6h[8:1],,1-5[8:1],6h[16:3],,,1,,
{8}8-4[8:1],2/6,8b,,1-5[8:1]/7-3[8:1],3/5,1b/7b,,
{16}8/1h[8:1],,
7-3[8:1],1h[16:3],,,7,,1h[8:1],,
7-3[8:1],1h[16:3],,,7,,2h[8:1],,
7-4[8:1],2h[16:3],,,7,,2h[8:1],,
7-4[8:1],2h[16:3],,,7,,3h[8:1],,
8-4[8:1],3h[16:3],,,8,,3h[8:1],,
8-4[8:1],3h[16:3],,,8,,{8}1-5[8:1],7/3,1b,,8-4[8:1]/2-6[8:1],6/4,8b/2b,,
{2}1b,,,,E


MASTER

(138)
{8}3b,4b,3b,2b,,1b,1b,,8b,8b,,7b,{4}7b,1b/8b,


{16}3h[8:1],,4,3,,,24,,6h[8:1],,5,6,,,75,,3h[8:1],,4,3,,,14,,6h[8:1],,5,6,,,85,,
3h[8:1],,4,3,,,48,,6h[8:1],,5,6,,,51,,{8}2-6[8:1]/8-4[8:1],28,2b/8b,,7-3[8:1]/1-5[8:1],71,7b/1b,,
{16}6h[8:1],,5,6,,,75,,3h[8:1],,4,3,,,24,,6h[8:1],,5,6,,,85,,3h[8:1],,4,3,,,14,,
6h[8:1],,5,6,,,51,,3h[8:1],,4,3,,,48,,
{4},,,,


{8}12,34,56,78,1-5[8:1],28,1b,,87,65,43,21,8-4[8:1],71,8b,,
12,34,56,78,1-5[8:1],28,1b,,7-3[8:1],68,7b,,2-6[8:1],31,2b,,
78,34,78,25,7-3[8:1]/8-4[8:1],16,7b/8b,,21,65,21,74,2-6[8:1]/1-5[8:1],83,2b/1b,,
78,34,78,25,7-3[8:1]/8-4[8:1],16,7b/8b,,2-6[8:1]/1-5[8:1],83,2b/1b,,7-3[8:1]/8-4[8:1],16,7b/8b,,

{8}1,28,3,2/4-8[8:1],,3-1[8:1]/4b,,3b/8,8,71,6,7/5-1[8:1],,6-8[8:1]/5b,,6b/1,
1,28,3,2/4-8[8:1],,3-1[8:1]/4b,,3b/8,8,71,6,7/5,4>1[8:1]/8<5[8:1],,4b/8b,,
8,71,6,7/5-1[8:1],,6-2[8:1]/5b,,6b/1,1,28,3,2/4-8[8:1],,3-7[8:1]/4b,,3b/8,
8h[4:1],,1,18,27,27,36,36,45,56,67,78,81,12,23,34,
4-8[8:1]/5-1[8:1],36,45,,4-8[8:1]/5-1[8:1],27,45,,45,17,45,28,{4}1-5[8:1]/7-3[8:1],17,


{8}2b/6b,4b/8b,{4}1-5[8:1],1/4-8[8:1],4/5-7[8:1],5/8b-4[8:1],7-5[8:1]/8,4-2[8:1]/7,4/5-1[8:1],
2b-4[8:1]/5,1-5[8:1]/2,1/4b-8[8:1],4/5-7[8:1],5/8b-4[8:1],7-5[8:1]/8,4bw8[8:1]/7,4b,
{8}2h[4:1],4,1h[4:1],3,8h[4:1],6,7h[8:1],5,{16}1b/2b,,,6b/7b,,,3b>6[16:3]/4bp5[16:3],,{4},,
{8}6h[4:1],8,4h[4:1],1,5h[4:1],8,3h[8:1],1,3b/4b,5b/6b,7b/8b,1b/2b,3b/4b,{16}5,4,6,3,7,2,

{8}8b-5[8:1],4,8-3[8:1],4,8-5[8:1],4,8>3[8:1],4,8b<5[8:1],4,8>3[8:1],4,8-4[8:1],4,8,3,
1b-4[8:1],5,1-6[8:1],5,1b-4[8:1],5,1<6[8:1],5,1b>4[8:1],5,1<6[8:1],5,1b-5[8:1],5,1b,6,
7h[8:1],8,2h[8:1],1,6h[8:1],8,3h[8:1],1,{16}8b/7b,,,3b/2b,,,6b<3[16:3]/5bq4[16:3],,{4},,
{8}1-5[8:1]/8-4[8:1],27,1b/8b,,1-5[8:1]/8-4[8:1],36,1b/8b,,
1-5[8:1]/8-4[8:1],45,1b/8b,,{16}4b,5b,4b,5b,4b,5b,4b,5b,

{8}2b-5[8:1],1,7-4[8:1],8,2>5[8:1],1,7<4[8:1],8,2b-6[8:1],1,7-3[8:1],8,2>4[8:1],1,7<5[8:1],8,
3b-8[8:1],4,6-1[8:1],5,3b>8[8:1],4,6<1[8:1],5,4b-8[8:1],7,5-1[8:1],2,3b>6[8:1],7,,,
1h[8:1]/8b,3,1b/8h[8:1],6,1h[8:1]/8b,3,1b/8h[8:1],5,{16}1b/8b,,,4b/5b,,,1bpp4[16:3]/8bqq5[16:3],,{4},,
{8}4b/5b,23,4b/5b,67,4b/5b,12,4b/5b,78,
3b/4b,4b/5b,5b/6h[4:1],,7b,4b/5b,2h[4:1]/3b,,1b,4b/5b,7b/8h[4:1],,1b,3b/6b,1b/8b,4b/5b,
{4}2b/7b,,,,,,,,


{16}1b/8h[8:1],,2-6[8:1],8h[16:3],,,2,,8h[8:1],,2-6[8:1],8h[16:3],,,2,,
7h[8:1],,2-5[8:1],7h[16:3],,,2,,7h[8:1],,2-5[8:1],7h[16:3],,,2,,
6h[8:1],,1-5[8:1],6h[16:3],,,1,,6h[8:1],,1-5[8:1],6h[16:3],,,1,,
{8}8-4[8:1],26,8b,,1-5[8:1]/7-3[8:1],35,1b/7b,,

{16}8/1h[8:1],,7-3[8:1],1h[16:3],,,7,,1h[8:1],,7-3[8:1],1h[16:3],,,7,,
2h[8:1],,7-4[8:1],2h[16:3],,,7,,2h[8:1],,7-4[8:1],2h[16:3],,,7,,
3h[8:1],,8-4[8:1],3h[16:3],,,8,,3h[8:1],,8-4[8:1],3h[16:3],,,8,,
{8}1-5[8:1],73,1b,,8-4[8:1]/2-6[8:1],64,8b/2b,,
{4}1b,,,,
,,,,

E

Re:MASTER


名前:
コメント:

タグ:

+ タグ編集
  • タグ:

このサイトはreCAPTCHAによって保護されており、Googleの プライバシーポリシー利用規約 が適用されます。

最終更新:2022年06月25日 18:16