SPILL OVER COLORS

BPM EASY BASIC ADVANCED EXPERT MASTER Re:MASTER
142 3 4 7+ 10+ 13 -

EXPERT MASTER Re:MASTER
譜面制作者 はっぴー はっぴー -

EASY

(142){1},,,,{2}
1,1,1,,2,2,2,,3,3,3,,4,4,4/5,,
5,5,5,,6,6,6,,7,7,7,,8,8,1/8,,
{1}
7h[1:1],,6h[1:1],,5h[1:1],,4-1[4:3],,
2h[1:1],,3h[1:1],,4h[1:1],,5-8[4:3],,
8,1/8,1b,
{4}
1,1,,,2,2,,,3,3,,,4,4,,,5,5,,,6,6,,,7,7,,,1/8,,,,
8,8,,,7,7,,,6,6,,,5,5,,,4,4,,,3,3,,,2,2,,,1/8,,,,
{2}1,2,3,4,5,6,7,8,
{1}
8h[2:1],7h[2:1],6h[2:1],5h[2:1],4h[2:1],3h[2:1],2h[2:1],1-5[4:3],,
{4}
5,5,5,,6,6,6,,7,7,7,,8,8,8,,
1,1,1,,2,2,2,,3,3,3,,4,4,4,,
{1}5-1[4:3],,,,,E


BASIC

(142){1}1h[1:1],,8h[1:1],,
{2}
1,1,2,2,3,3,4,4/5,
5,5,6,6,7,7,8,1/8,
{1}
7h[2:3],8h[2:1],6h[2:3],5h[2:1],
3h[2:3],4h[2:1],2h[2:3],1h[2:1],
{4}
8,,8,,1,1,1,,2,,2,,3,3,3/4,,
4,,4,,5,5,5,,6,,6,,7,7,7/8,,
{1}1-5[4:3],,8-4[4:3],,1-6[4:3],,8-3[4:3],,
{2}1/8,1/8,1h[1:1]/8h[1:1],,,,
{4}
1b,1,1,,2,2,2,,3,3,3,,4,5,4/5,,5,5,5,,6,6,6,,7,7,7,,8,1,1/8,,
8b,8,8,,7,7,7,,6,6,6,,5,4,4/5,,4,4,4,,3,3,3,,2,2,2,,1,8,1/8,,
7,7,7,,8,8,8,,1,1,1,,2,2,2,,
{1}2-6[4:3],,7-3[4:3],,2-5[4:3],,7-4[4:3],,,
{4}
1b,1,2,2,3,3,3/4,,5,5,6,6,7,7,7/8,,
8,8,7,7,6,6,5/6,,4,4,3,3,2,2,1/2,,
{1}1-4[4:3]/8-5[4:3],,,,E


ADVANCED

(142){1}2q5[2:1],7p4[2:1],2qq5[2:1],
{4}6,4/5,3/6,2b/7b,
6,5/7,3,2/4,1,2/8,3/7,,3,2/4,6,5/7,8,1/7,2/6,,
2,1/3,7,6/8,5,4/6,3/7,,7,6/8,2,1/3,1-4[4:1]/8-5[4:1],,,,
3h[2:1],,4,4/5,6h[2:1],,5,4/5,3h[2:1],,4,4/5,6,5/6,3,3/4,
6h[2:1],,5,4/5,3h[2:1],,4,4/5,6h[2:1],,5h[2:1],,4h[2:1],,3,2/5,
6,5/6,3,3/4,5/6,3/4,5/7,,{1}4^7[8:3]/3,5^2[8:3]/6,
{4}
3,3/4,6,5/6,3/4,5/6,2/4,,2,1/2,7,7/8,1/8,2/7,3/6,4/5,
6^1[8:3]/5,,,,1/2,3/8,4/7,,
3^8[8:3]/4,,,,7/8,1/6,2/5,,
3,4,5,6,5/6,4/5,3/4,,
{2}
5h[4:1]/6h[4:1],3h[4:1]/4h[4:1],
5h[4:1]/7h[4:1],2h[4:1]/4h[4:1],
{4}
6,4/5,3,4/5,3/6,2/7,1/8,1^4[8:3]/8^5[8:3],,,,3b/6b,
{8}5/6,,3/4,,2,2,1,,3/4,,5/6,,7,7,8,,{4}5/6,4/7,3/8,1^6[8:3]/2^5[8:3],,,,
4/7,5/6,3/4,2/5,1/8,3/4,5/6,4/7,1/8,1/2,1/2,7/8,7^4[8:3]/8^3[8:3],,,,2b/5b,
{8}3/4,,5/6,,7,7,8,,5/6,,3/4,,2,2,1,,{4}3/4,5/6,7/8,1/2q4[8:5],,,,,
5/6,7,3/4,2,5/7,8,2/4,1,
{8}8,8,1,1,8,8,1,1,
{4}8h[4:3],,,1b>7[8:11],,,,,,,,,
2,3,4,5/6,7,6,4/5,3/6,2h[2:1],,1,,7h[2:1],,8,,
6,5,4,3>6[2:1],,,,4/5,3,2,1,7/8,6,7,8,1/2,
7h[4:1]/8h[4:1],,1h[4:1]/2h[4:1],,
1/8,2/7,3/6,4^1[8:3]/5^8[8:3],,,,2b/7b,{8}1/2,,7/8,,6,6,5/6,,7/8,,1/2,,3,3,{4}3/4,
1/2,3/8,4/7,5^2[8:3]/6^1[8:3],,,,3/8,1/2,7/8,1/6,4/5,7/8,1/2,3/8,4/5,
{8}4,4,5,5,4,4,4/5,4/5,3h[4:3]/6,,,,,,
{1}4b<2[1:2],,,,,,E


EXPERT

(142){16}
6h[16:3],,,5h[16:3],,,4,,,,,,4/5,,,,
3h[16:3],,,4h[16:3],,,5,,,,,,4/5,,,,
7h[16:3],,,6h[16:3],,,5,,,,,,5/6,,,,
4h[16:3],,,3h[16:3],,,2,,,,1/8,,{4}2/7,
6h[4:1]/5,8,3h[4:1]/4,1,6h[4:1]/5,8h[4:1],4-1[8:1],,2h[4:1]/1,4h[4:1],5,3/6,{16}2/4,,,4/5,,,5/7,,{4}7-3[8:1],,
3h[4:1]/4,1,6h[4:1]/5,8,3h[4:1]/4,1h[4:1],5-8[8:1],,{16}5/7,,,4/5,,,2/4,,4/5,,,5/7,,,1/8,,1/8,,,4/5,{8},2/7,,,,,
{16}4/5,,,,4,,3,,2h[16:3],,,3h[16:3],,,4,,5h[16:3],,,6h[16:3],,,7,,{4},5/6,3/4<8[2:1],3,2,2,1,1,3/4,2/5,
{16}4/5,,,,5,,6,,7h[16:3],,,6h[16:3],,,5,,4h[16:3],,,3h[16:3],,,2,,{4},3/4,6/5>1[2:1],6,7,7,8,8,5/6,4/7,
{16}1/8,,,,1,,2,,3h[16:3],,,2h[16:3],,,1,,8h[16:3],,,7h[16:3],,,6,,{4},7/8,2/1<5[2:1],2,3,3,4,4,1/2,3/8,
1/8,2-7[4:1]/6-3[4:1],,,
4/5,7-2[4:1]/3-6[4:1],,,
8>4[2:1]/7,7,6,6,5,5w1[4:1],,,
{8}
6h[2:1]/4,,,5,5-2[8:1],,,,3h[2:1]/5,,,4,4-7[8:1],,,,
6h[2:1]/4,,,5,5-1[8:1],,,,3h[2:1]/5,,,4,4-8[8:1],,,,
5/6,4,2,,3/4,2,1,,
3/4,5,7,,5/6,7,8,,
4/7,3,2,1,2/5,6,7,8,8h[4:1],,1,,2/7,2/7,,,
1h[1:1]/5,5,5,5,6,6,7,7,{16}8,,,4/5,,,{8}2/7,,4/5,
{4}4b^1[4:1]/5b^8[4:1],,,2h[4:1]/4-8[8:1],,
5^2[8:1]/6,8,4^7[8:1]/3,1,{16}8h[16:3],,,6h[16:3],,,5,,,,3/7,,{4}2/6,
4^7[8:1]/3,1,5^2[8:1]/6,8,4w8[4:1],,{8},2/6,3/7,,
{2}4/7-1[8:1],8/3-5[8:1],4/7-1[8:1],8/3-5[8:1],4h[4:1]/8h[4:1],
{16}5/7,,,4/5,,,2/4,,2/4,,,4/5,,,5/7,,{4}5/7-3[8:1],,
4^7[8:1]/3,1,5^2[8:1]/6,8,{16}1h[16:3],,,3h[16:3],,,4,,,,2/6,,{4}3/7,
5^2[8:1]/6,8,4^7[8:1]/3,1,{16}1/6,,,3/8,,,2/7,,,,5,,3/7,,,,
{2}5/2-7[8:1],1/6-3[8:1],5/2-7[8:1],1/6-3[8:1],
{8}2h[1:1]/5,5,5,5,6,6,7,7,8-5[8:1],,,,4-1[8:1]/5-8[8:1],,,,2h[4:7]/7,,8,8>7[4:5],{2},,,
{16}
4h[16:3],,,3h[16:3],,,2,,,,2/4,,3/5,,,,
5h[16:3],,,6h[16:3],,,7,,,,5/7,,4/6,,,,
{1}
1h[4:3]/3^6[2:1],8h[4:3]/6^3[2:1],
4h[4:3]/2^7[2:1],5h[4:3]/7^2[2:1],
{4}5h[4:1]/4,4h[2:1],5,6h[2:1],4,3h[2:1],5,7h[2:1],4,2h[4:1],
{16}7,,,5/7,,,4/5,,2/4,,,2/4,,,{8}4/5,,7/8,{4}1b/6b<3[4:1],,,
2h[4:1]/3-8[8:1],,
5^2[8:1]/6,8,4^7[8:1]/3,1,{16}8h[16:3],,,6h[16:3],,,5,,,,4/8,,{4}2/6,
4^7[8:1]/3,1,5^2[8:1]/6,8,{16}3/8,,,1/6,,,2/7,,,,4,,2/6,,,,
{2}7^2[8:1]/4,3^6[8:1]/8,7^2[8:1]/4,3^6[8:1]/8,
{8}7h[1:1]/4,4,4,4,3,3,2,2,
{2}1-4[8:1],4-1[8:1]/5-8[8:1],
{1}8b<1[2:3],,,,,E

MASTER

(142){16}
4^1[4:1]/5,,,7,,,8,,8,,,6,,,5,,5^8[4:1]/4,,,2,,,1,,1h[4:1],,,,8,,,,
4/5,,,7,3,,8,,2,,,,1,,4,,4/5,,,2/7,,,1/8,,{4}4-1[8:1]/5-8[8:1],4/5,
5-2[8:1]/6,5/7,4-7[8:1]/3,2/4,
5-1[8:1]/6,5/7,4-8[8:1]/3,2/4,
{16}7,5,6,4,5,3,4,2,
3h[16:3],,,1h[16:3],,,8,,
6h[16:3],,,8h[16:3],,,1,,
{8}2-5[8:1]/6-1[8:1],,2/6,,
4-7[8:1]/3,2,1/4,,5-2[8:1]/6,7,5/8,,
4-8[8:1]/3,2,1/4,,5-1[8:1]/6,7,5/8,,
{16}4/5,,,2/4,,,1/8,,4/5,,,5/7,,,1/8,,2/7,,,4/5,,,1b/8b,,,,,,,,,,
{8}
4^6[8:1]/2,,4/6,,5^3[8:1]/7,,3/5,,4^6[8:1]/2,,4/6,,5^3[8:1]/7,,3/5,,
4-6[8:1]/2,5,4/7,,5-3[8:1]/7,4,2/5,,4-6[8:1]/2,5,4/7,,5-3[8:1]/7,4,2/5,,
8^2[8:1]/6,,3/8,,1^7[8:1]/3,,1/6,,8^2[8:1]/6,,3/8,,1^7[8:1]/3,,1/6,,
8-2[8:1]/6,1,3/8,,1-7[8:1]/3,8,1>8[4:1]/6,,,,,
{24}5,4,5,{16}4,,,5/7,,,{8}4/5,
4-8[8:1]/2,5,4/7,,5-1[8:1]/7,4,2/5,,4-8[8:1]/2,5,4/7,,5-1[8:1]/7,4,2/5,,
4-8[8:1]/2,5,4/7,6,5-1[8:1]/7,4,2/5,3,4-8[8:1]/2,5,4/7,6,5-1[8:1]/7,4,2/5,3,
4^1[8:1]/2,5,4/7,,5^8[8:1]/7,4,2/5,,4^1[8:1]/2,5,4/7,,5^8[8:1]/7,4,2/5,,
4^1[8:1]/2,5,4/7,6,5^8[8:1]/7,4,2/5,3,4^1[8:1]/2,5,4/7,6,
{16}5/7,,,2/4,,,1/8,,4/7,,,3/5,,,
1-4[8:1]/4,,6,,1/8,,6,5,,,2/5,,,4/6,,,
8-5[8:1]/5,,3,,1/8,,3,4,,,4/7,,,3/5,,,
3,4,,2/5,,6,5,,4/7,,
{4}3-8[8:1]/4,5-1[8:1]/3,4-8[8:1]/5,4,
{8}
3^6[8:1]/7,6,1/3,,6^3[8:1]/2,1,6/8,,
3^6[8:1]/7,6,1/3,,6^3[8:1]/2,1,6/8,,
4q8[8:1]/3,,1/4,,5p1[8:1]/6,,5/8,,
1^4[8:1]/8^5[8:1],,1/8,,1/8,3/6,,,
7^2[8:1]/5,4,3/7,,2^7[8:1]/4,5,2/6,,
{16}5/7,,,1/2,,,{8}3>6[4:1]/6,,,,,
{32}5,6,7,8,1,2,3,4,5,6,7,8,1,2,3,4,
{4}5-1[8:1],5/7b,
4-1[8:1]/6^3[8:1],6-8[8:1]/4,5-1[8:1]/6,8-3[8:1]/5,2-6[8:1]/8,4^1[8:1]*^7[8:1]/2,4,2/6,
5-8[8:1]/3^6[8:1],3-1[8:1]/5,4-8[8:1]/3,1-6[8:1]/4,7-3[8:1]/1,5^2[8:1]*^8[8:1]/7,5,3/7,
3-1[8:1]/2,8-4[8:1]/3,5-7[8:1]/8,4/5,
6-8[8:1]/7,1-5[8:1]/6,4-2[8:1]/1,1w5[8:1]/4,1,
{16}3/7,,2,7,1/8,,,2/4,,,5/7,,1/8,,,5/7,,,2/4,,8-4[8:1]/1,,3,,{4}5/8,
1-4[8:1]/7^2[8:1],7-5[8:1]/1,8-4[8:1]/7,5-2[8:1]/8,3-7[8:1]/5,1^4[8:1]*^6[8:1]/3,1,3/7,
8-5[8:1]/2^7[8:1],2-4[8:1]/8,1-5[8:1]/2,1/4,{16}4/7,,2,2/5,,7,2/7,,,,4/5,,2/7,,,,
{4}
2^5[8:1]/5^8[8:1],2/5,
8^5[8:1]/5^2[8:1],8/5,
3/8^5[4:1],5^2[4:1],2^7[4:1],7^4[4:1],{8}4,3,2,1,
{32}1,2,3,4,5,6,7,8,{8}1,3/7,
{4}1>5[8:1]/5V72[8:1],1/5,5-1[8:1],5/7b,1v4[8:1]*v6[8:1],1>8[4:1],,,
5-7[8:1]*v8[8:1]/7,5,4-2[8:1]*v1[8:1]/2,4,
5-1[8:1]*v8[8:1]/7,5,4-8[8:1]*v1[8:1]/2,4,
8-4[8:1]*v5[8:1]/6,8,1-5[8:1]*v4[8:1]/3,1,
4/8h[4:3],,,7<2[2:1],,,,4/5,
5-2[8:1]/7h[4:1],,4-7[8:1]/2h[4:1],,
{16}5/7,,,2/4,,,{8}3/6,4-1[8:1]/5-8[8:1],,4/5,,
2-7[8:1]/5,6,2/8,,
7-2[8:1]/4,3,1/7,,
3-6[8:1]/8,7,3/5,,
6-3[8:1]/1,2,4/6,,
2/5,,,{16}5,4,3/6,,,1/6,,,3/8,,2/7,,5,2/5,,4,4/7,,
8-4[8:1]/1,,3,,5/8,,,,
{32}2b,3,4,5,7b,6,5,4,1b,2,3,4,8b,7,6,5,
{4}4-8[8:1],2b/4,
4^1[8:1]/7^4[8:1],4-8[8:1],8w4[8:1]/4,8,
5^8[8:1]/2^5[8:1],5-1[8:1],1w5[8:1]/5,1,
4^1[8:1]/7^4[8:1],4-8[8:1],8bw4[8:1]/4,8b,
{16}
1h[8:1]/7h[8:1],,,3h[8:1]/5h[8:1],,,4/5,,
{4}
4^1[8:1]/5^8[8:1],4/5,
6V41[8:1]/7V51[8:1],,
3V58[8:1]/2V48[8:1],,
6/1^4[4:1],4^7[4:1],7^2[4:1],2^5[4:1],{8}5,6,7,8,
{32}
8,7,6,5,4,3,2,1,
{8}
8,2/6,4V27[8:1]/8<4[8:1],,4/8,,4-8[8:1],,2b/4,,
{1}8<1[2:3],,,,E



Re:MASTER


  • 多分スライド速いので後で直します -- Sea (2018-05-22 15:26:34)
  • [16:1]のスライドをすべて[8:1]にしました。 -- Sea (2018-05-22 18:55:20)
  • 赤以下補完しました。間違いなどあれば修正おねがいします。 -- Sea (2018-05-23 13:47:16)
  • リマスター持ってる人いますか? -- 名無しさん (2022-09-21 00:28:52)
名前:
コメント:

タグ:

+ タグ編集
  • タグ:

このサイトはreCAPTCHAによって保護されており、Googleの プライバシーポリシー利用規約 が適用されます。

最終更新:2022年09月21日 00:28