Mare Maris

BPM EASY BASIC ADVANCED EXPERT MASTER Re:MASTER
150 3 5 8 11 13+

EXPERT MASTER Re:MASTER
譜面制作者 サファ太 小鳥遊さん -

EASY

(150){4},{1}1,2,3,4,5,6,7,{2}
8,8,8,,7,7,7,,6,6,6,,5,5,5,,4,4,4,,3,3,3,,2,2,{1}2,1/8,2,
3h[1:1],,4h[1:1],,5h[1:1],,6h[1:1],,
{2}7,7,7,,8,8,8,,1,1,1,,2,2,{1}2,2-7[4:3],,6-3[4:3],,
{2}4,4,3,3,2,2,1,,
{4}1,1,1,,,,2,2,2,,,,,,3,3,3,3,,,,,4/5,4/5,4/5,,,,,,
5,5,5,5,,,,,6,6,6,,,,,,7,7,7,7,,,,,8,8,8,,,,,,,,
8,8,,,7,7,,,6,6,,,5,5,,,4,4,,,3,3,,,2,2,,,1b,,,,
1,1,1,,2,2,2,,3,3,3,,4,4,4,,5,5,5,,6,6,6,,7,7,7,,8b,,
{1}1b,,,,E


BASIC

(150){4},{1}1,2,3,4,5,6,7,{4}
8,8,8,,7h[2:1],,,,6,6,5,5,4,5,4,,
4,4,4,,3h[2:1],,,,2,2,1,1,1h[2:1]/8h[2:1],,,,
8,8,8,,1,1,1,,2,2,2,,3/4,3/4,3/4,,
5,5,5,,6,6,6,,7,7,8,8,1/8,1/8,2/7,,
3-7[4:3],,,,,,,,8,8,8,,1,1,1,,8-4[4:3],,,,,,,,3,3,3,,4,4,5,5,
6-2[4:3],,,,,,,,1,1,1,,8,8,8,,1-5[4:3],,,,,,,,6,6,6,,5,4,5,,
4,4,4,,3,3,3,,2-5[4:3],,,,,,,,6,6,6,6,7,7,7,7,8,8,1,1,8b,,,,
1-4[4:3],,,,,,5,5,5-8[4:3],,,,,,2,2,
2-7[4:3],,,,,,6,6,6-3[4:3],,,,,,1,1,
2,2,1/2,,4h[2:1],,,,6,6,5/6,,8h[2:1],,,,
7,7,7/8,,5h[2:1],,,,4,4,3/4,,1h[2:1],,,,
1,1,1,,2,2,2,,3,3,4,4,5h[2:1],,,,
5,5,5,,6,6,6,,7,7,8,8,1h[2:1],,,,
8,8,8,8,7,7,7,7,6,6,5,5,4/5,4/5,4/5,,
4,4,4,4,3,3,3,3,2,2,1,1,1/8,1/8,
{1}2b/7b,,,,E


ADVANCED

(150){4},
{1}4^1[8:3]/5,8^5[8:3]/1,3^8[8:3]/4,{4}7,7,7/8,,
{1}5^8[8:3]/4,1^4[8:3]/8,6<3[2:1]/5,
{4}
4,4,5,4/6,7,7,7/8,,5,5,4,3/5,2,2,1/2,,
3,4,3/5,6,7,8,7/8,,6,5,4/6,3,2,1/2,3/8,,
3h[4:3],4,4,4,5h[2:1],4,4,4/5,6h[4:3],5,5,5,3h[4:1]/4h[4:1],,2/5,2/5,
7h[4:3],8,8,8,1h[2:1],8,8,2/7,2,1/2,7,7/8,1/8,2/7,3b/6b,,
6h[2:1],4,5,,3h[2:1],5,4,,7h[2:1],5,6,,
2h[2:1],4,3,,7h[2:1],1,8,,2h[2:1],8,1,,
3h[4:1],4h[4:1],5h[4:1],6,5/6,4/5,3/6,,
2h[4:1]/4h[4:1],,3,3,4,5,3/6,,8,7,6,5,3/4,2/5,1/6,,
5h[4:1]/7h[4:1],,6,6,5,4,3/6,,
1h[4:1]/2h[4:1],,7h[4:1]/8h[4:1],,
4h[4:1]/5h[4:1],,4/5,3V51[2:1]/6,,,,2/8,7,4/6,5,
4-8[4:1],,,,7,7-4[4:1]/8,,,3,
6,5/6,6,5/7,3,3/4,3,2/4,6,5/7,3,2<5[2:1]/4,,,,4/5,
5/6,2/4,2h[4:1],1,7h[4:1],8,5/6,2/4,3/6,4/5,6,5/6,3,3/4,2/5,,
3/4,5/7,7h[4:1],8,2h[4:1],1,3/4,5/7,4/5,3/6,
2V41[2:1]/7V58[2:1],,,,2b/7b,,5/6,2/4,
1h[4:1],2h[4:1],3h[4:1],4,5/6,7/8,1/6,2/7,3/4,5/6,2/4,1,2/8,3/7,4/5,
3V15[4:3]/6V84[4:3],,,,,3/6,2/7,3,2/4,6,5/7,4,3/5,2b/6b,,
{1}8>4[4:1]/7,1<5[4:1]/2,1>6[4:1]/8,
{4}7/8,1/6,2/5,,
7h[2:1],5,6,1/8,
2h[2:1],4,3,1/8,
7h[4:1],5,2h[4:1],4,
4h[4:1]/5h[4:1],,4/5,2b/7b,
{8}
3,3,2/4,,6,6,5/7,,2,2,1/3,,7,7,6/8,,
1,2,3,4,5/6,,4/7,,8,7,6,5,3/4,,2/5,,
6,5,4/7,,3,4,2/5,,7,8,1/6,,2,1,3/8,,
7,8,1,2,3,4,5/6,,3/4,,5/7,,
{1}1b/5b,,,,E


EXPERT

(150)
{4}3>6[2:1],5h[2:1],,,6<3[2:1],4h[2:1],,,
{8}2/5,,4/6,5,5,4/6,,4,3/5,,3/5,4,4,3/5,,5,
{4}4/6<3[2:1],5h[2:1],,,3>6[2:1],4h[2:1],,,
{8}2/6,,1,1>6[4:1],8,8,,,,,
7h[4:1]/8h[4:1],,,7/8,,5/6,5/6,,3h[8:5]/7,6,5,4h[4:1],,,3/4,,
7h[4:1]/8h[4:1],,,7/8,,1/6,1/6,,2h[8:5]/6,5,4,3h[4:1],,,2/3,,
1h[4:1]/2h[4:1],,,1/2,,3/8,3/8,,7h[8:5]/3,4,5,6h[4:1],,,6/7,,
7h[4:1]/8h[4:1],,,1h[4:1]/2h[4:1],,,1/2,,
3/6,4,5,3/6,,1/8,1b/8b,,
{4}
2^4[8:1]/5,5,8^6[8:1]/5,5,2^4[8:1]/5,5,5/7,1/8,
7^5[8:1]/4,4,1^3[8:1]/4,4,7^5[8:1]/4,4,2/4,7/8,
6^8[8:1]/1,1,4^2[8:1]/1,1,6^8[8:1]/1,1,1/3,2/7,
3h[4:1]/4,1,6h[4:1]/5,8,1q5[8:1],8p4[8:1],1,2b>8[2:1]/6b,,,,
{8}
3/7,,2/4,3,4,3/5,4,5,4/6,,1/7,2,3,1/4,8,7,
6<3[2:1]/3,5,4h[2:1],,,,,,1/2,,
5/7,6,6,7^4[8:1]/5,,8,8,,
2/4,3,3,2^5[8:1]/4,,1,1,,
5/7,6,5,2h[4:1]/4,,1,1,,
{4}1v3[4:1]/8v6[4:1],,,7<1[2:1]/2,,,,
{8}
2/6,,5/7,6,5,4/6,5,4,3/5,,2/8,7,6,5/8,1,2,
3>6[2:1]/6,4,5h[2:1],,,,,,7/8,,
2/4,2/4,3,2q6[8:1]/4,,8,8,,
5/7,5/7,6,7p3[8:1]/5,,1,1,,
2/4,3,4,7h[4:1]/5,,8,8pp3[2:1],,
{4},,,2/5,
7h[4:1],5h[4:1],4h[4:1],3,
2h[4:1],4h[4:1],5h[4:1],6p4[2:1],,,,3q5[2:1],,,,2/6,
{8}5,5,3,3,6,6,4,4,7,7,5,4,2,2,4,5,7,7,2,2,
{16}8,1,8,1,8<3[2:1],1,8,1,
{4},,,8bv6[8:1]/1b,4v2[8:1],,1h[4:1],3h[4:1],4,4/5,
2v4[8:1]/6v8[8:1],,7h[4:5]/3,5,8,6,1,5,2-5[8:1]/5,1,7-4[8:1]/4,8,
2h[4:1],4h[4:1],3h[4:1],1,4-7[8:1]/5-2[8:1],,1/8,3/6,
{16}4h[8:1]/7h[8:1],,,3h[8:1]/6h[8:1],{8},2/5,,7/8,
{4}7-4[8:1]/8,3-8[8:1],
7^4[8:1],3^8[8:1],7,7,5h[2:1]/6,6,4,
3^8[8:1]/7^4[8:1],,2/6,4/5,
{8}6h[8:3],,8,8,,2/4,2-5[8:1]/4,,6-1[8:1],,2^5[8:1],,6^1[8:1],,2,,
{16}2h[8:1]/4h[8:1],,,3h[8:1]/5h[8:1],,,4h[8:1]/6h[8:1],,,5h[8:1]/7h[8:1],,,
{8}5/7,,2^5[8:1]/6^1[8:1],,,,4/8,7,6,5,1/4,2,3,4,6<3[4:1]/5,,,,,,1b/8b,,
2-6[8:1],,1,1p5[8:1],,3,3,,
7-3[8:1],,8,8q4[8:1],,6,6,,
3/5,6,7,5/8,4,3,2>7[2:1],1,8h[2:1],,,,,,2/6,,
7-3[8:1],,8,8^3[8:1],,5,5,,
2-6[8:1],,1,1^6[8:1],,4,4,,
5/7,6,5,2/4,3,4,{4}5/6,3^8[4:1]/4^7[4:1],,,
1b/6b,
2^5[8:1],1^6[8:1],2^5[8:1],8^5[8:1],1q5[8:1],8p4[8:1],1,2/7,
4h[8:1]/5h[8:1],5h[8:1]/7h[8:1],4h[8:1]/5h[8:1],2h[8:1]/4h[8:1],
4h[8:1]/5h[8:1],6h[8:1]/7h[8:1],4h[8:1]/5h[8:1],3/6,
7^4[8:1],8^3[8:1],7^4[8:1],1^4[8:1],8p4[8:1],1q5[8:1],8,2/7,
5h[8:1]/7h[8:1],4h[8:1]/5h[8:1],2h[8:1]/4h[8:1],1/8,
2-5[8:1]/7-4[8:1],,
{1}3b/7b,,,,E


MASTER

(150){16}4/5,,,,
3/6,,2,4,2,,2h[4:1],,,,1,,8,,7,,
3/6,,7,5,7,,7h[4:1],,,,8,,1,,2,,
3/6,,2,1,2,,2h[4:1],,,,4,,5,,6,,
7h[4:1]/2,,,,6,,2h[4:1]/7,,,,3,,4,,5,,
1/6,,7^4[8:1],8,7,,7h[4:1],,,,3,,2,,1,,
3/8,,2^5[8:1],1,2,,2h[4:1],,,,6,,7,,8,,
2/7,,4,5,{8}4,3h[8:3]/6h[8:3],,,,,

2^5[8:1]/7,,6,7^4[8:1],,2,1-5[8:1],,
7^4[8:1],,3,2^5[8:1],,7,8-4[8:1],,
2^5[8:1],,6,7^4[8:1],,2,1-5[8:1],,
{16}6h[8:3],,,,,,8,7,8,,1,,2,,3,,
{8}
2/8<3[8:3],,3,3q8[4:1],,1,1,,
7/1>6[8:3],,6,6p1[4:1],,8,8,,
2/8<3[8:3],,3,3q8[4:1],,1,1,,
1h[4:1]/7,,8,

{16}4,5,3,6,2,7,1h[4:1],,,,
8h[4:1],,,,1,,2,1,2,,8,1,8,,3,1,3,,7,1,7,,4,1,3,1,2,,3/8,,,,
1h[4:1]/6,,,,8,,7,8,7,,1,8,1,,6,8,6,,2,8,2,,5,8,6,8,7,,1/6,,,,
8h[4:1]/3,,,,1,,2,1,2,,8,1,8,,3,1,3,,7,1,7,,4,1,3,1,2,,3/8,,,,
1h[4:1]/6,,,,8,,7,8,7,,1,8,1,,6,8,6h[4:1],,,,4,5,3,6,1,8,1,,2b/7b,,,,
4/5,,2^5[8:1],1,{8}2,2h[4:1],,7h[2:1],8,1,2,3>5[8:3],5,4h[8:3]/3,,,,,
8h[4:1]/7,6,5,4h[4:1]/3,2,1,8>7[2:1]/7,6,5h[2:1],,,,,,3/8,,
{16}4/5,,7^4[8:1],8,{8}7,7h[4:1],,2h[2:1],1,8,7,6<4[8:3],4,5h[8:3]/6,,,,,
{16}1/2,,4,5,4,,3h[4:1]/6h[4:1],,,,,,1/8,,,,
7h[4:1]/2,,,,3,6,4,5,1,,,,2b/7b,,,,

1/6,,7^4[8:1],8,{8}7,7h[4:1],,2h[4:1],1,8,7h[4:1],6<4[8:3],4,5h[8:3]/6,,,,,
1h[4:1]/2,3,4,5h[4:1]/6,7,8,1<2[2:1]/2,3,4h[2:1],,,,,,6/1,,
{16}
3/8,,2^5[8:1],1,{8}2,2h[4:1],,7h[4:1],8,1,2h[4:1],3>5[8:3],5,4h[8:3]/3,,,,,
{16}8/7,,4,5,4,,6h[4:1]/3h[4:1],,,,,,8/1,,,,2/7h[4:1],,,,
{32}8,1,2,3,4,5,6,7,{8}8h[4:1],,1b,,

4/6h[4:1],5,4h[4:1],5,6h[4:1],5,3h[4:1],4,5h[4:1],
4,2h[4:1],3,4h[4:1],3,2h[4:1],1,8h[4:1],1,2h[4:1],
1,7h[4:1],8,1h[4:1],8,6h[4:1],7,8h[4:1],7,5h[8:1],
4,3b/6b,,

4/5,5,5/6,6,6/7,7,7/8,8,8/1,1,1/2,2,2/3,3,3/4,4,
{16}4/5,6,3,7,2,8,1,8,2,7,3,6,{24}4,5,4,5,4,5,
{8}3pp8[4:1]/6qq1[4:1],,,,,,2b/7b,,
1-4[8:1]*-6[8:1]/8,,,,
4h[16:1]/5h[16:1],5h[16:1]/6h[16:1],4h[16:1]/5h[16:1],3h[16:1]/4h[16:1],
4h[16:1]/7h[16:1],1h[16:1]/5h[16:1],6h[16:1]/8h[16:1],2h[16:1]/4h[16:1],
8-6[8:1]*-5[8:1]/1,,8-2[8:1]*-3[8:1],,,,
1h[16:1]/8h[16:1],7h[16:1]/8h[16:1],1h[16:1]/8h[16:1],1h[16:1]/2h[16:1],
4h[16:1]/6h[16:1],1h[16:1]/3h[16:1],4h[16:1]/8h[16:1],1h[16:1]/6h[16:1],
5h[16:1]/7h[16:1],2h[16:1]/4h[16:1],
1-6[8:1]*-7[8:1]/8,,1-3[8:1]*-4[8:1],,1-5[8:1]*s5[8:1],,,,
6h[16:1]/8h[16:1],2h[16:1]/7h[16:1],1h[16:1]/3h[16:1],4h[16:1]/6h[16:1],
1h[16:1]/4h[16:1],7h[16:1]/8h[16:1],2h[16:1]/3h[16:1],4h[16:1]/6h[16:1],
8-3[8:1]*-2[8:1]/1,,8-6[8:1]*-5[8:1],,,,
2h[16:1]/4h[16:1],5h[16:1]/8h[16:1],3h[16:1]/7h[16:1],1h[16:1]/2h[16:1],
4h[16:1]/6h[16:1],6h[16:1]/8h[16:1],2h[16:1]/5h[16:1],4h[16:1]/8h[16:1],
2b/7b,,

4^1[8:1]/8^5[8:1],,4q8[8:1]/8q4[8:1],,4^1[8:1]/8^5[8:1],,,,
{16}1,8,1,8,1,6,5,6,1,5,4,5,1,4,3,4,
{4}5^8[8:1]/1^4[8:1],1-6[8:1]/5-2[8:1],,
{24}1,2,3,7,6,5,
{16}8h[8:1],,7,6/8,,2,1/3,,2,4,3,5,4,6,5,7,
{4}4^1[8:1]/8^5[8:1],8-3[8:1]/4-7[8:1],4-8[8:1]/8-4[8:1],,
{16}3/6,,3,2/4,,6,5/7,,2,1/3,,7,6/8,,2/4,,
{4}5^8[8:1]/1^4[8:1],1w5[8:1]/5,,
{16}
3/7,2/6,1/5,4/8,3h[8:1]/7h[8:1],,,1h[8:1]/5h[8:1],,,4b/8b,,2h[4:1]/7,,,,
{32}1,8,7,6,5,4,3,2,{4}1h[4:1],8b,{24}1/6,,,7^4[8:1],8,7,8,,,
{8}7h[4:1],,3^6[8:1],2,1,8^3[8:1],7,6,5h[8:3],{24}6,7,8,1,2,3,
{8}4,,1h[4:1]/2,3,4,5h[4:1]/6,7,8,1<2[2:1]/2,3,{4}8h[2:1]/1,,,4/7,
{24}3/8,,,2^5[8:1],1,2,1,,,
{8}2h[4:1],,6^3[8:1],7,8,1^6[8:1],2,3,4h[8:3],{24}3,2,1,8,7,6,{4}5,
{24}1/8,,,4,5,4,{8}5,2h[4:1]/7h[4:1],,,4/8,,6h[4:1]/3,,
{32}5,4,3,2,1,8,7,6,{4}5h[4:1],1b,

{16}
1-5[8:1]/8,,2,,7-4[8:1]/1,,8,,2^5[8:1]/7,,1,1,8-4[8:1]/2,,7,,
2-7[8:1]/8,,1,1,2^5[8:1]/6^1[8:1],,5,,2/6,,,,3/7,,,,
3-8[8:1]/5,,4,,6-1[8:1]/3,,5,,4-8[8:1]/6,,3,,5-1[8:1]/4,,6,,4/5,,
{24}
2,3,4,5,,,1/8,,,7,6,5,4,,,2b/7b,,,,,,
{16}
8-4[8:1]/1,,7,,2-5[8:1]/8,,1,,7^4[8:1]/2,,8,8,1-5[8:1]/7,,2,,
7-2[8:1]/1,,8,8,3^8[8:1]/7^4[8:1],,4,,3/7,,,,2/6,,,,
{24}4/5,,,
1/8,2/7,3/6,4/5,,,2/7,,,
4,5,4,5,4,5,2,7,2,7,2,7,
{4}1^4[8:1]*^6[8:1]/8,1w5[8:1],
{1}1b,,,,E


Re:MASTER


  • 赤黄譜面追加、赤製作者を追記しました。修正箇所等ありましたら手直しをお願いします。 -- Sea (2018-06-11 22:41:38)
名前:
コメント:

タグ:

+ タグ編集
  • タグ:

このサイトはreCAPTCHAによって保護されており、Googleの プライバシーポリシー利用規約 が適用されます。

最終更新:2021年05月10日 20:31