バッド・ダンス・ホール

BPM EASY BASIC ADVANCED EXPERT MASTER Re:MASTER
152 2 4 6 10 12+ -

EXPERT MASTER Re:MASTER
譜面制作者 小鳥遊さん LabiLabi -

EASY

(152){1},,,,,,,,
8,7,6,5,4,3,2,1,
{2}2,2,2,,3,3,3,,4,4,4,,5-8[4:3],,,,
{1}8h[1:1],,7h[1:1],,6h[1:1],,5h[1:1],,
{2}
5,5,5,,6,6,6,,7,7,7,,8,8,8,,
1,1,1,,2,2,2,,3,3,3,,4,4,4,,
{1}4/5,3,2-6[4:3],,
{2}
8,8,8,,7,7,7,,6,6,6,,5,5,5,,
4,4,4,,3,3,3,,2,2,2,,1,1,1,,
{1}
8b,1,1/8,1/8,
7-3[4:3],,2-6[4:3],,
5-1[4:3],,1h[1:1],,
1-5[4:3],,,,,,E


BASIC

(152){1},,,,
{2}5,5,6,6,7,7,8,8b,
{4}
1,,1,,2,2,2,,3,,3,,4h[2:1],,,,
5,,5,,6,6,6,,7,,7,,8h[2:1],,,,
{2}1,1,8,8,7,7,{4}6,6,5/6,,
{2}4,4,3,3,2,2,{4}1,1,1b/8b,,
{1}
1-4[4:3],,8-5[4:3],,
4-1[4:3],,5-8[4:3],,
{4}
1,,1,,2,2,2,,3,,3,,4,4,4/5,,
5,,5,,6,,6,,7,7,7,,1/8,1/8,1/8,,
8,,8,,7,7,7,,6,,6,,5,5,4/5,,
3/4,,3/4,,5/6,,5/6,,7/8,,7/8,,1/2,1/2,1/2,,
{2}8b,8,7,7,6,6,{4}5,5,4/5,,
4,4,4,,3,3,3,,2,2,1,1,7/8,7/8,
{2}7/8,6,7,8,1,2-6[4:3],,,,
{4}5,5,5,,6,6,6,,7,7,8,8,1/2,1/2,
{2}1/2,3/4,3/4,5/6,5/6,7-3[4:3],,,,
4,4,3,3,2,2,1,1,
{4}
8,,8,,7,7,7/8,,
6,,6,,5,5,4/5,,
{1}
4-1[4:3],,
5-8[4:3],,
2h[1:1]/7h[1:1],,,,,E


ADVANCED

(152){1},,,,{4}
4,4,3,,3,3,2,,2,2,1,,1,1b,,,
7,7,8,,2,2,1,,8,8,1,1,8,1,2/7,,
3,3,4,,6,6,5,,4,4,5,5,4,5,3/6,,
{2}
3h[4:1]/4h[4:1],2/5,3h[4:1]/4h[4:1],2/5,2-5[2:1],,1-6[2:1],,
5h[4:1]/6h[4:1],4/7,5h[4:1]/6h[4:1],4/7,
{4}5,4,4-1[8:3]/5-8[8:3],,,,1/8,,
{1}8-3[8:3],7-3[8:3],{4}6,6,5,5,4/5,4/5,3/6,,
{1}4-7[8:3],3-7[8:3],{4}2,2,1,1,1/8,2/7,,,
7h[4:1],8,2h[4:1],1,1-6[8:3]/2-5[8:3],,,,3h[4:1],4,6h[4:1],5,5-2[8:3]/6-1[8:3],,,,
2,2,1/2,,3,3,3/4,3-8[8:3]/4-8[8:3],,,,,7/8,7/8,1/6,,
2h[4:1],1,7h[4:1],8,7-4[8:3]/8-3[8:3],,,,6h[4:1],5,3h[4:1],4,3/4,3/4,2/5,,
6h[2:1],5,5,,3h[2:1],4,4,,6,5/6,3,3/4,5,4,4/5,3/6,2b/7b,,
1,,2,1,3/8,,7,,8,,7,8,1/6,,
2b,1/2,7,7/8,7-4[8:3]/8-3[8:3],,,,6,5/6,3,3/4,3-8[8:3]/4-7[8:3],,,,
7,8,1/6,,6,5,4/7,5-1[8:3]/6-1[8:3],,,,,1/2,3/8,4/7,,
7b,7/8,2,1/2,1-6[8:3]/2-5[8:3],,,,3,3/4,6,5/6,5/6,5/6,4b/7b,,
3h[2:1],4,4,,6h[2:1],5,5,,3,3/4,6,5/6,3/4,5/6,4/5,3/6,2b/7b,,
1,1,8,8,7,,7,7,8,8,1,1,2,,
{2}
7h[4:1]/8h[4:1],1/6,1h[4:1]/2h[4:1],3/8,
3h[4:1]/4h[4:1],2/5,5h[4:1]/6h[4:1],4/7,
7qq4[8:7]/8pp3[8:7],,,4/5,
4^1[2:1]/5^8[2:1],,
{4}2,8,1,7,
{1}1pp4[4:3]/8qq5[4:3],,,,,,E


EXPERT

(152){1},,,,{4}
3,2/4,6,5/7,2,1/3,7,6/8,3,2/4,6,5/7,1/8,2b/7b,,4/5,
{8}
6h[4:1],,5,,3,3,2/4,,2h[4:1],,1,,7h[4:1],,8,,
3h[4:1],,4,,6,6,5/7,,4-1[8:1]/5-8[8:1],,,,2/7,,4/5,,
2h[4:1],,1,,7,7,6/8,,6h[4:1],,5,,3h[4:1],,4,,
7h[4:1],,8,,2,2,1/3,,1-4[8:1]/8-5[8:1],,,,3/6,,1/8,,
{2}4h[4:1]/5h[4:1],2h[4:1]/7h[4:1],1-6[8:1]/2h[4:1],8-3[8:1]/7h[4:1],1h[4:1]/8h[4:1],3h[4:1]/6h[4:1],
{8}1,2/8,3/7,,8,1/7,2/6,,
{4}4h[4:1]/5h[4:1],,2h[4:1]/7h[4:1],,3/4,5/6,
{16}3/6,,,1/8,{8},4h[8:3]/5h[8:3],,,,,,4-1[8:1]/5-8[8:1],,,,,2b/7b,,,4/5,4/5,,
{16}
2h[16:3],,,3h[16:3],,,4,,,,7,,7,,,,
7h[16:3],,,6h[16:3],,,5,,,,2,,2,,,,
{4}6h[4:1],7,3h[4:1],2,6h[4:1],7,
{16}
1/2,,,4/5,,,7/8,,,,,,
3/4,,,3h[16:3]/4h[16:3],,,,,
5/6,,,5h[16:3]/6h[16:3],,,,,
1/8,,,1h[16:3]/8h[16:3],,,,,2/7,,,,
{8}
1/2,,7/8,,1,1,8,8,2-5[8:1]/7-4[8:1],,,,,,3/6,,
{16}7h[16:3],,,6h[16:3],{8},5,,1/2,3/8,,
{16}2h[16:3],,,3h[16:3],{8},4,,7/8,1/6,,
{16}8h[16:3],,,7h[16:3],{8},6,,1/2,3/8,,
{16}1h[16:3],,,2h[16:3],{8},3,,7/8,1/6,,
{2}7-4[8:1]/8-3[8:1],1-6[8:1]/2-5[8:1],1-3[8:1]/8-6[8:1],4qq1[8:3]/5pp8[8:3],{4},2b/7b,
{16}7h[16:3],,,6h[16:3],,,5,,2h[16:3],,,3h[16:3],{8},4,,1/8,2/7,,
{16}6h[16:3],,,7h[16:3],{8},8,,1/2,3/8,,
{16}3h[16:3],,,2h[16:3],{8},1,,7/8,1/6,,
{16}5h[16:3],,,6h[16:3],{8},7,,1/2,3/8,,
{16}4h[16:3],,,3h[16:3],{8},2,,7b/8b,7b/8b,,
{4}
7/8^3[8:1],7,2/1^6[8:1],2,
7/8^3[8:1],7,2/1^6[8:1],2,
{8}1/5,,2/6,,3/7,3/7,4/8,,{1}1qq6[2:1]/5qq2[2:1],
{8}3b/7b,,2h[2:1],,3,3,3,,2/6,,7h[2:1],,6,6,6,,3/7,,2h[2:1],,3,3,3,,
{2}3h[4:1]/6h[4:1],4-8[8:1],
{16}6h[16:3],,,7h[16:3],{8},8-4[8:1],,1,1,,
{16}3h[16:3],,,2h[16:3],{8},1-5[8:1],,8,8,,
{16}5h[16:3],,,6h[16:3],{8},7-3[8:1],,8,8,,
{16}4h[16:3],,,3h[16:3],{8},2-6[8:1],,1,1,,
{2}3-8[8:1]/4-7[8:1],5-2[8:1]/6-1[8:1],4-2[8:1]/5-7[8:1],4qq1[8:3]/5pp8[8:3],{4},2b/7b,
{16}1h[16:3],,,2h[16:3],,,3,,8h[16:3],,,7h[16:3],{8},6,,4/5,3/6,,
{16}1/7h[16:3],,,6h[16:3],{8},5-1[8:1],,4,4,,
{16}8/2h[16:3],,,3h[16:3],{8},4-8[8:1],,5,5,,
{16}2/8h[16:3],,,7h[16:3],{8},6-2[8:1],,8,8,,
{16}7/1h[16:3],,,2h[16:3],{8},3-7[8:1],,1b,1b,,
{4}
2/1^6[8:1],3,7/8^3[8:1],6,
2/1^6[8:1],3,7/8^3[8:1],6,
{8}4/8,,3/7,,2/6,2/6,1/5,,{1}4pp7[2:1]/8pp3[2:1],
{8}
2b/6b,,1/7h[2:1],,6,6,5,,3/7,,8/2h[2:1],,3,3,4,,
2/6,,1/7h[2:1],,8,8,1,,3/6,,8/2h[2:1],,1h[4:1],,,
4/5,4h[4:1]/5h[4:1],,,2/7,2h[4:1]/7h[4:1],,,1/2-6[8:1],1/2,,,8/7-3[8:1],8/7,,,
4/5,4h[4:1]/5h[4:1],,,2/7,2h[4:1]/7h[4:1],,,1/2-5[8:1],1/2,,,8/7-4[8:1],8/7,,,,
{1}5w1[2:1],4w8[2:1],{4}4/5,3/6,2/7,1/8,
{16}
3h[16:3]/6h[16:3],,,,4/5,,4/5,,4-1[8:1]/5-8[8:1],,,,,,,,,,
1/3,,,1/3,,,6/8,,,6/8,,,4,5,4,{1}5,,,,E


MASTER

(152)
{4}8,7,{16}6h[16:3],,,5h[16:3],,,{8}4h[8:3],,3,3,,{16}2h[16:3],,,3h[16:3],,,{8}4h[8:3],,5,5,,
{16}7h[16:3],,,6h[16:3],,,{8}5h[8:3],,6,6,,{16}4h[16:3],,,3h[16:3],,,2,,
{4}4-8[8:1]/8,7,2-6[8:1]/6,5,8-4[8:1]/4,3,6-2[8:1]/2,1,4-8[8:1]/8,7,
{16}7,7,,46,,35,,24,{4}24,1bpp4[4:1]/8bqq5[4:1],,,

{8}3,4,25,6,{16}48,48,,37,,26,,15,{8},1,2,4/5-8[8:1],{16}36,,,4-1[8:1],,,5,,
{8},6,57,8,13,2,35,4h[8:3],,5,6,7,{16}7-4[8:1]/8-4[8:1],78,,,{4},
{8}6,5,74,3,{16}51,51,,62,,73,,84,{8},8,7,5/4v1[8:1],{16}63,,,5v8[8:1],,,4,,
{8},3,42,1,86,7,64,5h[8:5],,4,3,2,1,8,5b/7b,


{8}2h[16:5],8-4[8:1],,,2h[16:5],7-3[8:1],,,2,57,3,24,1h[16:5],7-4[8:1],,,
2h[8:4],8,8,7,7,{16}45,,,36,{8},2h[16:4]/7h[16:4],,,48,48,3-6[8:1]/6,,,
{8}7h[16:5],1-5[8:1],,,7h[16:5],2-6[8:1],,,7,42,6,75,3,
{16}18,,,4qq1[8:3]/5pp8[8:3],,,{4},,,{8}36,27,18,{16}3,4,5,6,{8}2b/7b,,,38,,38,

{16}7h[16:3],,,3h[16:7],,,4h[8:2],,{8},,25,,{16}2h[16:3],,,6h[16:7],,,5h[8:2],,{8},,74,,
5,5h[4:1],7,7h[4:1],1,1h[4:1],3,3h[4:1],5,5h[4:1],7,7,{16}68,,,13,,,27,,
{8}46,46,{16}3-7[8:1],3,,5,{8},5,{16}6-2[8:1],6,,3,{8},3,{16}4-8[8:1],4,,7,{8},6,7,18,
{16}4h[16:3],,,6h[16:3],,,8,,{8}12,34,56,78,{16}6,5,4,3,{4}7b/2b,5-2[8:1]/6-1[8:1],56,


{16}8,,,8-3[8:1],,,4-1[8:1],,{8},8,7,6,{16}1,,,1-6[8:1],,,5-8[8:1],,{8},3,2,1,
{16}6,,,6-1[8:1],,,2-7[8:1],,{8},4,5,6,{16}2,,,2-5[8:1],,,6-3[8:1],,{8},8,1,2,
{16}17,,,57,,,27,,46,,,48,,,24,,13,,,37,,,35,,{8}16,2,3/6-1[8:1],4,5-2[8:1]/6,,5b,6,
{16}27,,,35,,,46,,3/5h[16:3],,,2h[16:3],,,8h[8:2],,{8},2,16,,

{16}3,,,3<7[8:1],,,8p4[8:1],,{8},2,1,8,{16}6,,,6>2[8:1],,,1q5[8:1],,{8},7,8,1,
{16}2,,,2>6[8:1],,,7q3[8:1],,{8},1,8,7,{16}5,,,5s1[8:1],{8},,,3b,7b,,
{4}2/7-3[8:1],7/8-4[8:1],8/1-5[8:1],1/2-6[8:1],2/1-5[8:1],1/8-4[8:1],8/7-3[8:1],17,
{8}4,35,6,57,2,14,7,56,{16}37,26,15,48,,15,,26,,35,,18,{8}1-5[8:1]/8-4[8:1],27,{4}1b/8b,

{8}38,7,{16}15,15,,26,,37,,48,{8},4,3,1/8v5[8:1],{16}27,,,1v4[8:1],,,8,,
{8},7,68,5,24,3,28,1h[8:4],,8,7,6,{4}4-7[8:1]/3-8[8:1],4b/3b,


{16}2-7[16:1],,,5<8[8:1],,,1-4[8:1],,{8},6,7,8,{16}7-2[16:1],,,1>4[8:1],,,5-8[8:1],,{8},3,2,1,
{16}1-6[16:1],,,7>2[8:1],,,3-6[8:1],,{8},8,7,6,{16}5-2[16:1],,,3<6[8:1],,,7-2[8:1],,{8},4,3,2,
{16}7>3[16:1],,,4h[16:3],{4},{16}2<6[16:1],,,5h[16:3],{4},{16}8<4[16:1],,,2h[16:3],{4},
{8}8,7,3-8[8:1]/6,5,3/4-7[8:1],,4b,3,{16}27,,,56,,,24,,3h[16:3]/5,,,7h[16:3],,,1h[8:2],,{8},7,38,,

{16}3-8[16:1],,,6p1[8:1],,,2>5[8:1],,{8},6,7,8,{16}6-1[16:1],,,3q8[8:1],,,7<4[8:1],,{8},1,2,3,
{16}2-5[16:1],,,7q4[8:1],,,3>8[8:1],,{8},7,6,5,{16}7-4[16:1],,,2p5[8:1],,,6<1[8:1],,{8},2b,2b,,
{4}1/8-3[8:1],2-5[8:1]/8,2/7-4[8:1],1-6[8:1]/7,1/8-5[8:1],4-1[8:1]/8,4/6-2[8:1],26,
{8}5,64,3,42,7,85,2,43,{16}62,73,84,51,,84,,73,,64,,81,{8}8/1>7[4:6],72,8b/1b,,


{4}8,1,2,3,4,5,68,{8}3,34,6,56,2,12,7,78,5,34,2,18,45,36,27,
1v4[8:1]/7v4[8:1],17,,,4>1[8:1]*<7[8:1],4,,,1-5[8:1]/7-3[8:1],17,,,45,45,1b/7b,1b/7b,
8v5[8:1]/2v5[8:1],82,,,5<8[8:1]*>2[8:1],5,,,1-5[8:1]/7-3[8:1],17,,,3-7[8:1]/5-1[8:1],35,,,,
{4}35,46,13,68,{8}1-5[8:1],1,2-6[8:1],2,3-7[8:1],3,4-8[8:1],4,5-1[8:1],5,6-2[8:1],6,7-3[8:1],7,8,8,
{16}17,17,,34,,56,,18,,26,26,,18,,27,,3,24,,6,57,,2,13,,7,68,,1qq7[8:1]/5qq3[8:1],26,37,48,

{4}
,,,,
,,,,

E

Re:MASTER


名前:
コメント:

タグ:

+ タグ編集
  • タグ:

このサイトはreCAPTCHAによって保護されており、Googleの プライバシーポリシー利用規約 が適用されます。

最終更新:2020年05月07日 16:25