アウターサイエンス

BPM EASY BASIC ADVANCED EXPERT MASTER Re:MASTER
195 3 5 7 11+ 12+ -

EXPERT MASTER Re:MASTER
譜面制作者 Jack はっぴー -

EASY

(195){1},,,,
8,7,6,5,4,3,2,1,
{4}
1,1,,,2,2,,,3,3,,,4/5,,,,
5,5,,,6,6,,,7,7,,,1/8,,,,
{2}8,8,8,,7,7,7,,6,6,6,,{1}4/5,4/5,
{2}4,4,4,,3,3,3,,2,2,2,,{1}1/8,,
{1}7-3[4:3],,2-6[4:3],,7h[1:1],,8h[1:1],,
{4}
8,8,8,,7,,,,6,6,6,,5,,,,4,4,4,,3,,,,2,2,2,,1/8,,,,
1,1,1,,2,,,,3,3,3,,4,,,,5,5,5,,6,,,,7,7,7,,1/8,,,,
{1}
7-3[4:3],,2-6[4:3],,6-3[4:3],,2-5[4:3],,
6h[1:1],,5h[1:1],,4h[1:1],,3h[1:1],,
{4}
4,4,4,,3,,3,,2,2,2,,1,,1,,
8,8,8,,7,,7,,6,6,6,,5,,4/5,,
5,5,5,,6,6,6,,7,7,7,,8,8,8,,
1,1,1,,2,2,2,,3,3,3,,4,4,4,,
5,5,{2}5,4/5,,
5,5,6,6,7,7,1/8,,
1,1,2,2,3,3,4/5,
{1}4b/5b,,,,E


BASIC

(195){1},,,,{2}
1,1,1,,8,8,8,,7,7,7,,6,6,6,,
5/6,5/6,5/6,,3/4,3/4,3h[2:1]/4h[2:1],,
3,3,4,4,5,5,6b,,
5,5,4,4,3,3,{4}2,2,{2}2,1,1,8,8,1-5[4:3],,,,
4,4,5,5,6,6,{4}7,7,{2}7,8,8,1,1,{1}8-4[4:3],,
1-4[4:3],,8-5[4:3],,2-5[4:3],,8b,,
{4}
1,1,1,,2,2,1/2,,3,3,4,4,5,4,5,,6,6,5/6,,3,3,3/4,,5,5,4,4,5,4,5,,
5,5,5,,6,6,5/6,,7,7,8,8,1,8,1,,2,2,1/2,,7,7,7/8,,1,1,8,8,1,8,1b,,
{1}
8h[1:1],,7h[1:1],,6h[1:1],,5h[1:1],,4,4,3,3,2,2,1,{4}1,1,1b,,
8,8,8,,7,7,7/8,,6,6,5,5,4,5,4,,3,3,3/4,,6,6,5/6,,4,4,5,5,4,5,4/5,,
4,4,4,,3,3,3/4,,2,2,1,1,8,1,8,,7,7,7/8,,2,2,1/2,,8,8,7,7,6,6,4/5,,
4,4,3,3,2,2,1/8,,8,,8,,1,,1,,2,,2,,3,3,3,,4,,4,,5,,5,,6,,6,,7,7,
{1}7b,,,,E


ADVANCED

(195){1}1pp4[2:5]/8qq5[2:5],,,{4}4,5,3/6,,
3,3,4,,6,6,5,,4,4,5,,5,4,4/5,,2,2,1,,7,7,8,,1,1,8,,8,1,1/8,,
3/4,3/4,5/6,5/6,3/4,3/4,5/6,5/6,3/4,3/4,5/6,5/6,3,2/7,2/7,,
1/2,1/2,7/8,7/8,1/2,1/2,7/8,7/8,1/2,1/2,7/8,7/8,2,3/6,3/6,,
3,,3/4,,6,5,5/6,,3,,3/4,,5,4,4/5,,6,,5/6,,3,4,3/4,,6,,5/6,,4,5,4/5,,
7,,7/8,,2,1,1/2,,7,,7/8,,1,8,1/8,,2,,1/2,,7,8,7/8,,2,,1/2,,8,1,1/8,,
{1}6h[1:1],5h[1:1],4h[1:1],3,1h[1:1],8,1v4[4:3]/8v5[4:3],{4},,2b/7b,,
2h[4:1],1,7h[4:1],8,1/8,2/7,3/6,,3h[4:1],4,6h[4:1],5,4/5,3/6,2/7,,
5,4/6,3/7,,4,3/5,2/6,,1-5[2:1],,,,4/5,4/5,3/6,,
6h[4:1],5,3h[4:1],4,4/5,3/6,2/7,,7h[4:1],8,2h[4:1],1,1/8,2/7,3/6,,
1,2/8,3/7,,8,1/7,2/6,,3h[4:1]/4h[4:1],,5h[4:1]/6h[4:1],,1/8,1/8,2b/7b,,
6h[2:1],,5,,3,4,5,,3h[2:1],,4,,6,5,4,,
4h[4:1]/5h[4:1],,3/6,,5,4,3/6,,2,1,8,7z3[4:3],,,,,
{2}2h[1:1],,1,1,7h[1:1],,8,8,
5h[2:1]/6h[2:1],,3h[2:1]/4h[2:1],,4h[2:1]/5h[2:1],,3h[4:1]/6h[4:1],2b/7b,
{4}
2h[4:1],1,7h[4:1],8,8,1/7,2/6,,3h[4:1],4,6h[4:1],5,5,4/6,3/7,,
5/6,4/7,3/8,,3/4,2/5,1/6,,1-5[2:1],,,,4/5,4/5,3/6,,
6h[4:1],5,3h[4:1],4,4,3/5,2/6,,7h[4:1],8,2h[4:1],1,1,2/8,3/7,,
1/2,3/8,4/7,,7/8,1/6,2/5,,3h[4:1]/4h[4:1],,5h[4:1]/6h[4:1],,4/5,3/6,2/7,1/8,
{8}1,1,,8,8,,1/8,1/8,{4}1b/8b,,,,
3,3,4,,6,6,5,,4,4,5,,5,4,4/5,,
2,2,1,,7,7,8,,1,1,8,,8,1,
{1}2b/7b,,,,E


EXPERT

(195){4}
3h[1:2],4,,4,,4,,4,6h[4:3],5,,5,1-4[8:1]/8-5[8:1],,
{8}2/7,2/7,1b/8b,,
3,4,2,,6,5,7,,3,4,2<6[4:1],,,,,,
6,5,7,,3,4,2,,6,5,7>3[4:1],,,,,,
2,1,3,,7,8,6,,2,1,3>6[4:1],,,,,,
7,8,6,,2,1,3,,2/6,,3p7[4:1]/7p3[4:1],,,,,,
1/2,1/2,1/2,,7/8,7/8,7/8,,
1/2,1/2,1/2,,7/8,7/8,7/8,,
1/2,1/2,1/2,,7/8,7/8,7/8,,{1}1qq6[2:1]/2pp5[2:1],
{8}
6/7,6/7,6/7,,2/3,2/3,2/3,,
6/7,6/7,6/7,,2/3,2/3,2/3,,
6/7,6/7,6/7,,2/3,2/3,2/3,,{1}7qq4[2:1]/8pp3[2:1],
{4}
2h[4:1],1,3h[4:1],4,6h[4:1],5,7/8,1/2,
7h[4:1],8,6h[4:1],5,3/4,{8}6^1[4:1]/5^2[4:1],6/5,{4},,
3h[4:1],4,2h[4:1],1,7h[4:1],8,6h[4:1],5,
{1}3>6[2:1]/4p5[2:1],{8}3/4,,5/6,,4/5,4/5,4/5,,
{4}
7,7/8,6,5/6,3,3/4,1/2,7/8,
2,1/2,3,3/4,5/6,{8}3^8[4:1]/4^7[4:1],3/4,{4},,
6,5/6,7,6/8,4,3/4,2,1/3,
{1}6<3[2:1]/5q4[2:1],{8}5/7,,2/4,,1/8,1/8,1/8,,
{1}5h[1:2]/4qq1[4:5],,2^7[2:1],
{4}4,5,6,7,{1}4h[8:15]/8qq5[4:5],,
{8},1/3,1/3,,6/8,6/8,,4/5,4/5,,
2bV41[4:1]/7bV58[4:1],,,,,,
2b/7b,,4,4,6,5/7,,2/4,,1-5[8:1]/8-6[8:1],,,,,3/7,,
1/2,,5,5,3,2/4,,8-5[8:1],,1-4[8:1],,8b,,,
6,5,7,3,4,2/5,,8,8,1,6,6,5,4/7,,1,1,8,2/7,,8,8,1,1-5[8:1],,,,
3/7,5,3/7,5,3/7,5,3/7,
1b,,5,5,3,2/4,,5/7,,1-3[8:1]/8-4[8:1],,,,,2/6,,
7/8,,4,4,6,5/7,,1-4[8:1],,8-5[8:1],,1b,,,
3,4,2,6,5,4/7,,1,1,8,3,3,4,2/5,,1/8,7,7,1/8,2,2,1/8,7,7,1/8,2,2,
1b/8b,,4b/5b,,2b/7b,2b/7b,,
3/4,,4/5,,5h[4:1]/6h[4:1],,,5/6,,2p6[8:3]/3pp5[8:3],,,,,,,
7/8,,1/8,,1h[4:1]/2h[4:1],,,1/2,,6/7,,3/4,3/4,,,,
6/5,,4/5,,3h[4:1]/4h[4:1],,,3/4,,7q3[8:3]/6qq4[8:3],,,,,,,
1/2,,7/8,7/8,,3/6,,4-8[4:1]/5-1[4:1],{1},
3h[1:1],4h[1:1],5h[1:1],6h[1:1],7>4[2:1],2<5[2:1],
{8}
4h[4:3]/5h[4:3],,,,,,,4b/5b,,2/7,2/7,2/7,2/7,2/7,2/7,2/7,
2b/7b,,5,5,3,2/4,,5/7,,2-5[8:1]/1-6[8:1],,,,,3/8,,
1/6,,4,4,6,5/7,,1-5[8:1],,8-4[8:1],,1b,,,
3,4,2,6,5,4/7,,1,1,8,3,3,4,2/5,,8,8,1,2/7,,1,1,8,8-4[8:1],,,,
2/6,4,2/6,4,2/6,4,2/6,
8b,,4,4,6,5/7,,2/4,,7-4[8:1]/8-3[8:1],,,,,1/7,,
3/8,,5,5,3,4/5,,8^5[4:1],,1^4[4:1],,8b,,,
6,5,7,3,4,2/5,,8,8,1,6,6,5,4/7,,
1/2,3,3,1/2,8,8,1/2,3,3,1/2,,7/8,6,6,7/8,1,1,7/8,,
1/8,2,2,1/8,7,7,1/8,1/8,1/8,2b/7b,,4b/5b,,1b/8b,1b/8b,,
5/6,,4/5,,3h[4:1]/4h[4:1],,,3/4,,6/7s3[8:3],,,,,,,
1/2,,1/8,,7h[4:1]/8h[4:1],,,7/8,,2/3,,5/6,5/6,,,,
3/4,,4/5,,5h[4:1]/6h[4:1],,,5/6,,3/2z6[8:3],,,,,,,
7/8,,1/8,,1h[4:1]/2h[4:1],,,1/2,,6/7,,3>6[2:1]/4p5[2:1],
{1}3/4,,,,E


MASTER

(195){1},,,{8}5,,5,,5,4,3/6,,
5^8[8:1]/2,,3,3-8[8:1],,6,6,5,4^1[8:1]/7,,6,6-2[8:1],,3,3,4,
5^8[8:1]/2,,3,3-8[8:1],,6,6,5,4^1[8:1]/7,,8,8-4[8:1],,1,1,,
4^1[8:1]/7,,6,6-1[8:1],,3,3,4,5^8[8:1]/2,,3,3-7[8:1],,6,6,5,
4^1[8:1]/7,,6,6-1[8:1],,3,3,4,5^8[8:1]/2,,1,1-5[8:1],,8,8,,
3-6[8:1]/5,5,3,,3-6[8:1]/6,6,3,,3-6[8:1]/7,7,3,,
3-6[8:1]/8,8,3,,3-6[8:1]/1,1,3,,3-6[8:1]/2,2,3,,
8-5[8:1],6,5,4,3-8[8:1],,,,
6-3[8:1]/4,4,6,,6-3[8:1]/3,3,6,,6-3[8:1]/2,2,6,,
6-3[8:1]/1,1,6,,6-3[8:1]/8,8,6,,6-3[8:1]/7,7,6,,
1,2,3,4h[4:1],,8,,,
4,5,3,4^6[8:1],,3,2,3,5,4,6,5^3[8:1],,6,7,6,
4,5,3,4^6[8:1],,3,2,3,5,4,6,5-1[8:1],,8,8,,
5,4,6,5^3[8:1],,6,7,6,4,5,3,4^6[8:1],,3,2,3,
5,4,3h[2:1]/6h[2:1],,,,,,3/6,2^4[8:1]/7^5[8:1],,,,3/6,3/6,3/6,
4h[4:1]/5,,8,8,1h[4:1],5,5,,4h[4:1]/8,,7,7,1h[4:1],4,4,,
4h[4:1]/6,,8,8,1h[4:1],5,5,,4h[4:1]/7,,6,6,1h[4:1],4,4,,
5h[4:1]/2,,3,3,8h[4:1],4,4,,5h[4:1]/1,,3,3,8h[4:1],5,5,,
5h[4:1]/3,,4,4,8h[4:1],1,1p8[4:3],,{1}5h[4:3],
4>5[2:11]/6h[4:3],5h[4:3],4h[4:3],3h[4:3],2h[4:3],1h[4:3],
{8},5/6,4/7,,3/4,2/5,,4/8,3/7,2/6,1-4[8:1]/5-8[8:1],,,,2b/6b,,
5/4^1[8:1],,8,7,6,5^8[8:1],,2^5[8:1],,7-3[8:1],,5-8[8:1],,1,1,,
4/5^8[8:1],,1,2,3,4^1[8:1],,7^4[8:1],,2-6[8:1],,4-1[8:1],,8,8,,
3,4,5,6^3[8:1],,1,1-5[8:1],,7,6,5,4^1[8:1],,8,8,1,
2/7,,1/2,3/8,4/7,6^1[8:1]/5,,4-8[8:1],,7-2[8:1],7,3-7[8:1],3,6^1[8:1],6,
4,3^8[8:1],,7,6,5,4^7[8:1],,1^4[8:1],,6-2[8:1],,5-8[8:1],,1,1,,
5/6^1[8:1],,2,3,4,5^2[8:1],,8^5[8:1],,3-7[8:1],,4-1[8:1],,8,8,,
8,1,2,3^8[8:1],,6,6-1[8:1],,2-6[8:1],,8,8,,
1b-4[8:1],4,1,8b-5[8:1],5,8,
1b-4[8:1],4,1,8b-5[8:1],5,8,
1-5[8:1],,1/8,,2/7,2/7,,4/8,,
2,2,3,2-7[8:1],,6-3[8:1],,2,2,,2/3,1/4,2/3,1/4,5,,
7,7,6,7-2[8:1],,3-6[8:1],,7,7w3[4:1],,,,,,1/5,,
7,7,6,7-2[8:1],,3-6[8:1],,7,7,,6/7,5/8,6/7,5/8,4,,
4,5,,1/8,,5h[4:1]/4h[8:3],,,,,4,,5<4[2:13],,
{1}3h[4:3],4h[4:3],5h[4:3],6h[4:3],5-8[2:1],8-5[2:1],
{8}8h[2:1],,,,,,,1h[4:1]/8h[4:1],,,
{24}1b/8b,2/7,3/6,,,,1b/8b,2/7,3/6,,,,1b/8b,2/7,3/6,,,,
{8}
1^4[8:1]/8,,5,6,7,8^5[8:1],,3-7[8:1],,8-4[8:1],,1^6[8:1],,5,5,,
8^5[8:1]/1,,4,3,2,1^4[8:1],,6-2[8:1],,1-5[8:1],,8^3[8:1],,4,4,,
2,1,8,7-2[8:1],,4,4-1[8:1],,6,7,8,2-7[8:1],,5,5,4,3/6,,1/2,3/8,4/7,
6^1[8:1]/5,,4-8[8:1],,6-2[8:1],6,3^8[8:1],3,4-8[8:1],4,
1,2^5[8:1],,6,7,8,1-6[8:1],,4^1[8:1],,7^4[8:1],,8-5[8:1],,4,4,,
7^4[8:1]/8,,3,2,1,8-3[8:1],,5^8[8:1],,2^5[8:1],,1-4[8:1],,5,5,,
5,4,3,2^5[8:1],,7,7^2[8:1],,3^6[8:1],,7,7,,8b-5[8:1],6,8,
1b-4[8:1],3,1,8b-5[8:1],6,8,1,8,
1b-4[8:1],3,1,8b-5[8:1],6,8,1,8,
1b^4[8:1],3,1,8b^5[8:1],6,8,1b-5[8:1],3,1/8h[4:3],,,,,,1b,,4/5,,
2,4,5,7-2[8:1],,4-1[8:1],,7,7s3[4:1],,3s7[4:1],,,,8,,
7,5,4,2-7[8:1],,5-8[8:1],,1,1w5[4:1],,,,,,4/5,,
7,5,4,3-6[8:1],,5^8[8:1],,2,2z6[4:1],,6z2[4:1],,,,1,,
2,4,5,7-2[8:1],,3-6[8:1],,8,8,1,
{1}2b/7b-3[8:1],,,,,E


Re:MASTER


名前:
コメント:

タグ:

+ タグ編集
  • タグ:

このサイトはreCAPTCHAによって保護されており、Googleの プライバシーポリシー利用規約 が適用されます。

最終更新:2020年04月30日 14:43