シャルル

BPM EASY BASIC ADVANCED EXPERT MASTER Re:MASTER
145 2 4 6 8+ 12 -

EXPERT MASTER Re:MASTER
譜面制作者 LabiLabi すきやき奉行 -

EASY

(145){1},,,,,,,,1,2,3,4,5,6,7,8,
{4}8,8,,,7,7,,,6,6,,,4/5,,,,4,4,,,3,3,,,2,2,,,1/8,,,,
{1}7h[1:1],,8h[1:1],,1h[1:1],,2h[1:1],,
{2}
1,1,1,,2,2,2,,3,3,3,,4/5,,4/5,,
5,5,5,,6,6,6,,7,7,7,,1/8,,1/8,,
7-3[4:3],,,,2-6[4:3],,,,
6,6,6,,5,5,5,,4,4,4,,3,3,3,,
{1}3-6[4:3],,4/5,,5h[1:1],,4,5b,
{4}
6,6,6,,7,,,,8,8,8,,1/8,,,,
1,1,1,,2,,,,3,3,3,,4/5,,,,
{1}6,7,8,1b,,,,,E


BASIC

(145){1}4,4,3,3,2,2,1,{4}1,1,1,,
8,8,8,,7,7,7,,6,6,6,,5,5,4,4,5,5,5,,4,4,4,,3,3,3,,1/2,1/2,1/2,,
{2}1h[2:1],,1,1/8,8h[2:1],,8,1/8,
{4}2,2,2,,3,3,3,,4h[2:1],,,,5,5,4/5,,
5h[2:1]/6h[2:1],,,,5,5,4/5,,5,5,6,6,5/6,5/6,5/6,,
3h[2:1]/4h[2:1],,,,4,4,4/5,,4,4,3,3,3/4,,4b,,
5,5,5,,6,6,5/6,,7,7,8,8,1,1,1/8,,1/2,,7/8,,1/2,1/2,1/2,,3,3,4,4,5,5,4/5,,
4,4,4,,3,3,3/4,,2,2,1,1,8,8,1/8,,7/8,,1/2,,7/8,7/8,7/8,,6,6,5,5,4,4,4/5,,
{1}4-1[4:3],,8-5[4:3],,
{4}4,,4,,4,4,4,,5,,5,,5,5,5,,4,,4,,3/5,3/5,3/5,,5,,5,,4/6,4/6,4/6,,
7h[2:1],,,,8,8,{2}8,1h[1:1],,,1b,1,,1,,8,,{4}8,8,1b/8b,,
1/2,,7/8,,1/2,1/2,1/2,,4,4,3,3,5,5,4/5,,4,4,4,,3,3,3/4,,
{1}2-6[4:3],,{4}7/8,,1/2,,7/8,7/8,7/8,,1,1,2,2,3/4,3/4,
{1}3/4,,,,,E


ADVANCED

(145){1}1>8[2:3],,8<1[2:3],,
1-5[2:1],8-4[2:1],4-1[2:1]/5-8[2:1],{4},,2b/7b,,
3,4,3/4,3/4,6,5,5/6,5/6,3,3/4,6,5/6,4,5,3/6,,
2,1,1/2,1/2,7,8,7/8,7/8,2,1/2,7,7/8,1,8,2/7,,
4,3,3/4,,5,6,5/6,,2,1,1/2,,7,8,7/8,,
1,2,3,4,5,6,7,8s4[4:3],{1},2-7[2:1],
{4}
6h[2:1],,5,5/6,3h[2:1],,4,3/4,5/6,4/7,3/4,2/5,5/6,3/4,2b/7b,,
7h[2:1],,8,7/8,2h[2:1],,1,1/2,7,8,2,1,2b/7b,,,,
7/8,1/6,1/2,3/8,1/8,1/8,2/7,,1,2,3,4,4/5,3/6,2/7,2/7,
2/8,2/8,1/7,1/7,1p4[2:1],,,,3h[4:1]/4h[4:1],,5h[4:1]/6h[4:1],,6,3,4/5,,
3/4,2/5,5/6,4/7,4/5,4/5,3/6,,5,6,7,8,1/8,2/7,3/6,3/6,
4/6,4/6,3/5,3/5,5p8[2:1],,,,1h[4:1]/7h[4:1],,2h[4:1]/8h[4:1],,1/8,1/8,2b/7b,,
{1}4pp1[4:5],,5qq8[4:5],,
{4}
3h[4:1],4,3h[4:1],4,3,4,3/4,3q5[4:3],,,,,4/6,4/6,4/6,,
6h[4:1],5,6h[4:1],5,6,5,5/6,6p4[4:3],,,,,3/5,3/5,3/5,,
4-1[2:1]/5-8[2:1],,,,2,3,4,5,{2}6b,,,,
6h[2:1],5,3h[2:1],4,2h[4:1]/7h[4:1],3h[4:1]/6h[4:1],
{4}4b/5b,4/5,3/6,2/7,
2/8,2/8,1/7,1/7,1p4[2:1],,,,3h[4:1]/4h[4:1],,5h[4:1]/6h[4:1],,6,3,4/5,,
1/7,2/6,2/8,3/7,1/7,2/8,1/7,8<1[1:1],,,,,,,1/8,,
7,8,7/8,,1,2,1/2,,1/8,1/8,2/7,2/7,
{1}3b/6b,,,,,E


EXPERT

(145){2}3h[1:1],4,4h[1:1],5,5h[1:1],6,6h[2:1],5,
{1}4h[2:1]/5h[2:1],3h[2:1]/4h[2:1],5h[2:1]/6h[2:1],
{4}4,5,4/5,3/6,
2,1/3,4,1/2,7,6/8,5,7/8,1,2/8,3,1/8,5/6,7/8,1/8,1/2,
7,6/8,5,7/8,2,1/3,4,1/2,8,1/7,6,1/8,3/4,1/2,1/8,7/8,
6h[1:1],5,4,4,3h[1:1],4,5,6,7h[1:1],5,4,3,2,4,5,7,
3h[1:1],4,5,5,6h[1:1],5,4,3,2h[1:1],4,5,6,7,5,4/5,,
7,4/5,7-5[8:1],,2,4/5,2-4[8:1],,8,5/6,8-5[8:1],,3/4,5/6,2/7,,
2,4/5,2-4[8:1],,7,4/5,7-5[8:1],,1,3/4,1-4[8:1],,4/5,,,,

8-3[8:1]/7b,,8-3[8:1]/7,,5/6,3/5,1/2,1/8,
6h[4:1],8h[4:1],1h[4:1],3,4/6,2/4,1/8,7/8,
{8}5h[4:1]/7h[4:1],,,2/4,2h[4:1]/4h[4:1],,,5/7,
{4}5h[4:1]/7h[4:1],,1/8,,5/6,7/8,1/2,3/4,5-1[8:1]*-7[8:1],,8,1,
1-6[8:1]/2b,,1-6[8:1]/2,,3/4,4/6,7/8,1/8,
3h[4:1],1h[4:1],8h[4:1],6,3/5,5/7,1/8,1/2,
{8}2h[4:1]/4h[4:1],,,5/7,5h[4:1]/7h[4:1],,,2/4,
{4}2h[4:1]/4h[4:1],,1/8,,3/4,1/2,7/8,5/6,3h[4:1]/4h[4:1],,3/6,4/5,

4-7[8:1]/3,,3-8[8:1],,6,5,4,3,
8-3[8:1]/7,,7-4[8:1],,3,4,5,6,
3h[4:1],4,5h[4:1],4,3^6[4:1],,{8},7,{4}7,3/4,2,5/6,7,4/5,6^3[4:1],,,
6h[4:1],5,4h[4:1],5,6^3[4:1],,{8},2,{4}2,5/6,7,3/4,2,4/5,3^6[4:1],,,
6,5,6,5/6,3,4,3,3/4,
{1}6qq3[4:3],,4h[4:11]/5h[4:11],,,

{4}
3b/6b,1b/8b,2b/7b,3b/6b,
4b-1[8:1]/3h[4:1],,5-8[8:1]/6h[4:1],,4<1[4:1]/3h[2:1],,,,
5/6,6/8,3/4,1/3,1^4[4:1]/8^5[4:1],,,2/7,
5-8[8:1]/6h[4:1],,4-1[8:1]/3h[4:1],,5>8[4:1]/6h[2:1],,,1/6,
{8}
4,4,3/5,,6,6,5/7,,
2,2,1/3,,8,8,1/7,,
2h[4:1]/3h[4:1],,,6/7,6h[4:1]/7h[4:1],,,2/3,{4}2h[4:1]/3h[4:1],,1/8,,
5/6,7/8,1/2,3/4,5/6,
{1}3-6[4:1]/4,,,,,E


MASTER

(145){1},,,,,,,{8}
4/5,,4/5,3/6,2/7,,1/8,,
{16}
2,1,,1,2,,7^4[8:1],8,,8,7,,1,,2,,3,4,,4,3,,6-1[8:1],5,,5,6,,2,,,,
7,8,,8,7,,2^5[8:1],1,,1,2,,8,,7,,6,5,,5,6,,3-8[8:1],4,,4,3,,7,,,,
6,5,,5,4,,4-8[8:1],3,,3,4,,1,,2,,3,4,,4,5,,5-1[8:1],6,,6,5,,8,,,,
2,1,,1,8,,8-4[8:1],7,,7,8,,5,,6,,7,8,,8,1,,1/8,,
{8}2-4[8:1]/7-5[8:1],,,,
3/5,6,3/5,,3h[4:1]/5,4,6h[4:1],5,2-6[8:1],,1/2,,8,7,6,5,
4/6,3,4/6,,6h[4:1]/4,5,3h[4:1],4,7V14[4:1],,,,,,7/8,,
{16}
5/6,,4/7,,3/8,,2,1,,7,8,,1/6,,,,
7/8,,1/6,,3/5,,3,4,,6,5,,4/7,,3>6[8:5]/8,,
{1},{16}6h[16:3],,,5h[16:3],,,4h[8:1],,
{8}3,,2/7,,
5h[2:1]/7,,,8,8,,3/5,,
4h[2:1]/2,,,1,1,,4/6,,
7/8,6,5,,1/2,3,4,,6b/7b,,2b/3b,,4b-1[8:1]/5b-8[8:1],,,,
1h[2:1]/3,,,4,4,,4/5,,
8h[2:1]/6,,,5,5,,4/5,,
1h[4:1]/2,3,4,,8h[4:1]/7,6,5,,
{1}2b/7b,
{4}
1-6[8:1]/2-5[8:1],1b/2b,7-4[8:1]/8-3[8:1],7b/8b,
{8}1/2,4,7/8,5,1^6[8:1]/2^5[8:1],,,,
7/8,6,4/5,3,1/2,,4/8,3/7,6-2[8:1]/2,,1-5[8:1]/6,,8-4[8:1]/1,,3/8,,
{16}1^4[8:1]/6,,,7,7,,8,,1^6[8:1]/5,,,3,3,,2,,1-5[8:1]/5,,,6,6,,7,,
{8}8w4[8:1]/4,,,,3h[2:1],4,5,6,7h[2:1],4,3,2,1-5[8:1],,8-4[8:1]/1,,2^7[8:1]/8,,2/7,,
{4}
5-2[8:1]/6-1[8:1],5b/6b,3-8[8:1]/4-7[8:1],3b/4b,
{8}5/6,1,3/4,8,5^2[8:1]/6^1[8:1],,,,
3/4,2,1/8,7,5/6,,4/8,3/7,2-6[8:1]/6,,8-4[8:1]/2,,1-5[8:1]/8,,1/6,,
{16}8^5[8:1]/3,,,2,2,,1,,8^3[8:1]/4,,,6,6,,7,,8-4[8:1]/4,,,3,3,,2,,
{8}1w5[8:1]/5,,,,6,1/2,3,7/8,6^3[8:1],,2,1,8w4[8:1],,8,,
{12}2b/7b,2b/7b,2b/7b,2b/7b,,,
{8}
3h[8:3],,,4h[8:3],,,5,,6h[8:3],,,5h[8:3],,,4,,
2h[8:3],,,4h[8:3],,,5,,7,7^4[4:1],,2h[8:3],,,3,,
{4}4h[4:1]/3,5,5h[4:1]/6,4,3/5,4/6,{8}5/7,8,8,,1^6[4:1]/2,,,3,3,,4/5,,8^3[4:1]/7,,,6,6,,4/5,,
{4}5h[4:1]/6,4,4h[4:1]/3,5,4/6,3/5,{8}2/4,1,1,,8^3[4:1]/7,,,6,6,,4/5,,1/2,,3,,4,,5,,
5h[2:1]/4,,,6,6,,4/6,,4h[2:1]/5,,,3,3,,3/5,,
{4}
5h[4:1]/6h[4:1],,3h[4:1]/4h[4:1],,4/5,,,,4h[1:1],,,,5h[1:1],,,,4,3,2,1,
8-4[8:1],8b^3[8:1]*^5[8:1],8bw4[8:1],8b,
{16}
5b^8[8:1]/2b,,,3,3,,4,,5^2[8:1]/1,,,7,7,,6,,5-1[8:1]/1,,,2,2,,3,,
{8}
4w8[8:1]/8,,,,1,2/8,3/7,4/6,5,4/6,3/7,2/8,
{4}
1-5[8:1],1b^4[8:1]*^6[8:1],1bw5[8:1],1b,
4w8[8:1],4b,5w1[8:1],5b,
{8}3/4,8,5/6,1,3/4,,7b/8b,7bqq4[8:5]/8bpp3[8:5],{1},
{8}5/6,8,3/4,1,4/6,{16}3,5,3b,,,,
4^1[8:1]/7,,,6,6,,5,,4^7[8:1]/8,,,2,2,,3,,4-8[8:1]/8,,,7,7,,6,,
{8}5w1[8:1]/1,,,,
1/7,6,2/8,3,4/7,6,2/5,3,
{1}4h[2:1]/5h[2:1],,,,,E


Re:MASTER


名前:
コメント:

タグ:

+ タグ編集
  • タグ:

このサイトはreCAPTCHAによって保護されており、Googleの プライバシーポリシー利用規約 が適用されます。

最終更新:2020年04月30日 09:29