フリィダム ロリィタ

BPM EASY BASIC ADVANCED EXPERT MASTER Re:MASTER
150 2 4 6 9 11+ -

EXPERT MASTER Re:MASTER
譜面制作者 LabiLabi 玉子豆腐 -

EASY

(150){1},,,,6,6,5,5,4,4,4/5,{2}
5,5,,,6,6,,,7,7,,,8,8,8,,1,1,,,2,2,,,3,3,,,4,4,4,,
{1}3h[1:1],,4h[1:1],,5h[1:1],,6,4/5,
{4}
4,4,,,3,3,,,2,2,,,1/8,,,,8,8,,,7,7,,,6,6,,,4/5,,,,
5,5,,,6,6,,,7,7,,,1/8,,,,1,1,,,2,2,,,3,3,,,4/5,,,,
{1}6-3[4:3],,2-7[4:3],,7-3[4:3],,2,1b,,{4}8,,8,,8b,,,,
7,7,7,,6,6,6,,5,5,5,,4/5,,,,4,4,4,,3,3,3,,2,2,2,,1b,,,,
8,8,8,,7,7,7,,6,6,{2}6,4/5,,4-1[4:3],,,,
1,1,2,2,3,3,4,,5,5,6,6,7,
{1}7-3[4:3],,,,,,E


BASIC

(150){1}1h[1:1],,8h[1:1],,
{2}1,1,2,2,3,3,{4}4,4,{2}4/5,5,5,6,6,7/8,7b/8b,
{4}
8,,8,,8,8,8,,7,,7,,7,7,7,,6,,6,,6,6,6,,5/6,,3/4,,4h[2:1]/5h[2:1],,,,
4,,4,,4,4,4,,3,,3,,3,3,3,,2,,2,,2,2,2,,1/2,,7/8,,1h[2:1]/8h[2:1],,,,
{1}2-5[4:3],,7-4[4:3],,1-5[4:3],,8-4[4:3],,
{4}
3/4,,5/6,,4,5,4,,5,5,6,6,7/8,7/8,7/8,,1/2,,7/8,,1,8,1,,8,8,7,7,5h[2:1]/6h[2:1],,,,
5/6,,3/4,,5,4,5,,4,4,3,3,1/2,1/2,1/2,,7/8,,7/8,,8,1,8,,1,1,2,2,3h[2:1]/4h[2:1],,,,
{2}5,5,6,6,7,7,{4}8,1,8,,{2}1,1,2,2,3,3,4/5,,4/5,,4,5,4b/5b,,
{4}
5/6,,3/4,,5,4,5,,4,4,3,3,1h[2:1]/2h[2:1],,,,
7/8,,1/2,,8,1,8,,1,1,2,2,3/4,3/4,3b/4b,,
5/6,,3/4,,5,4,5,,4,4,5,5,4h[2:1],,,,5,5,4,4,4/5,,,,
4,4,4,,3,3,3,,2,2,2,,1,8,1,,8,8,8,,7,7,7,,6,6,
{1}6-3[4:3],,,,,,E


ADVANCED

(150){1}1-4[2:1],5-8[2:1],2q7[2:1],{4}8,1,2/7,,
2,3,4/5,,7,6,4/5,,5,6,7,8s4[4:3],,,,,3,2,1/8,,6,7,1/8,,6-3[2:1],,,,
1,2,3/8,,8,7,1/6,,4,3,2/5,,5,6,4/7,,3,3,4,4,5,5,6,6,5/6,,3/4,,1-4[2:1]/8-5[2:1],,,,
5,6,4/7,4/7,4,3,2/5,,8,7,1/6,1/6,1,2,3/8,,6,6,5,5,4,4,3,3,7/8,,1/2,,8p4[2:1],,,,
3h[2:1],,4,3/4,6h[2:1],,5,5/6,4h[4:1]/5h[4:1],,3/6,2/7,1b/2b,1b/2b,7b/8b,,
6h[2:1],,5,5/6,3h[2:1],,4,3/4,1/5,,4/7,,2-6[2:1]/7-3[2:1],,,,
2,1/2,7,7/8,1/8,1/8,2/7,,2,1/2,7,7/8,7b/8b,1b/2b,7b/8b,,
3,3/4,6,5/6,3,6,4/5,4/5,4-1[2:1]/5-8[2:1],,,,1q5[2:1],,,,
7,7/8,2,1/2,1/8,1/8,2/7,,7,7/8,2,1/2,1b/2b,7b/8b,1b/2b,,
6,5/6,3,3/4,6,3,4/5,4/5,4^1[2:1]/5^8[2:1],,,,8p4[2:1],,,,
3,2/4,1/5,,6,5/7,4/7,,1,2,3,4s8[4:3],,,,,
7,6/8,1/5,,2,1/3,4/8,,{1}2^7[2:1],
1h[4:3]/7h[4:3],2h[4:3]/8h[4:3],{4}2/8,2/8,1/7,1/7,7>3[2:1],,,,
3/4,2/5,5/6,4/7,6,3,2/7,2/7,1-5[2:1]/8-4[2:1],,,,4-1[2:1]/5-8[2:1],,,,
1/2,3/8,7/8,1/6,2,7,1/8,1/8,1/2,3/8,7/8,1/6,1b/6b,3b/8b,1b/6b,,
3/4,2/5,5/6,4/7,6,5,5/6,5/6,
{2}5-2[2:1]/6-1[2:1],,1^6[2:1]/2^5[2:1],,7/8,1/2,1-4[2:1]/8-5[2:1],,
{4}2,3,4/5,,7,6,4/5,,5,6,7,8s4[4:3],,,,,3,2,1/8,,6,7,1/8,,1/8,,,{8},
{4}2/7,3/6,{1}4b/5b,,,,,,E


EXPERT

(150){4}
5h[4:1]/6h[4:1],,,,4,4,5/7,,
3h[4:1]/4h[4:1],,,,5,5,2/4,,
4,5/6,5,3/4,4,5/7,5,2/4,3,1/2,6,7/8,3,1/8,1-4[8:1]/8,,
5,3/4,4,5/6,5,2/4,4,5/7,6,1^4[4:1]/8^5[4:1],,,

6h[4:3]/4,,5,5,3h[4:3]/5,,4,4,7h[4:3]/5,,6,6,3^8[4:1]/4^7[4:1],,,,
3h[4:3]/5,,4,4,6h[4:3]/4,,5,5,3h[4:1]/4h[4:1],,5h[4:1]/6h[4:1],,3^8[4:1]/4^7[4:1],,,,
5h[2:3]/1^4[4:1],,,,3,3,1,,
4h[2:3]/5^8[4:1],,,,6,6,8,,
{2}
1^4[4:1]/7^4[4:1],,4v1[4:1]*v7[4:1],,1h[4:1]/2h[4:1],7h[4:1]/8h[4:1],1^6[4:1]/2^5[4:1],,
{1}4h[2:1]/3p7[4:1],5h[2:1]/6q2[4:1],7h[2:1]/8q4[4:1],{4}4/5,7b/8b,1b/8b,1b/2b,
{1}8h[2:1]/7p3[4:1],1h[2:1]/2q6[4:1],3h[2:1]/4q8[4:1],{4}1h[2:1]/8h[2:1],,,2b/7b,

2-7[8:1]/5,,6-3[8:1]/1,,1/2,3/4^7[4:1],,,7-2[8:1]/4,,3-6[8:1]/8,,5/7,3/4,2b/7b,,
3-6[8:1]/8,,7-2[8:1]/4,,3/4,2/1^6[4:1],,,5/6,7/8,1/2,3/4,4h[2:1]/5h[2:1],,{8},3/6,{4}3/6,
7-2[8:1]/4,,3-6[8:1]/8,,7/8,6/5^2[4:1],,,2-7[8:1]/5,,6-3[8:1]/1,,2/4,5/6,2b/7b,,
6-3[8:1]/1,,2-7[8:1]/5,,5/6,7/8^3[4:1],,,3/4,1/2,7/8,5/6,4h[2:1]/5h[2:1],,{8},2/7,2/7,,
3,,5,,7,8,7,,6,,4,,2,1,2,,4,,6,,1,8,1,,3>6[4:1]/6,,,,,,2/7,,
6,,4,,2,1,2,,3,,5,,7,8,7,,5,,3,,1/8,1/8,,,
3h[4:3]/6h[4:3],,,,,,,,4/5,,,,,7/8,7/8,,
{2}
2h[4:1]/7h[4:1],3h[4:1]/6h[4:1],4h[2:1]/5h[2:1],{4},1b/8b,
6^3[8:1]/2,,2^7[8:1]/6,,3/4,1^6[4:1]/2p5[4:1],,,4/5,2/4,1/8,5/7,1^4[4:1]*^6[4:1],,{8},2/7,{4}2/7,
3^6[8:1]/7,,7^2[8:1]/3,,5/6,7q4[4:1]/8^3[4:1],,,6^3[8:1]/2,,2^7[8:1]/6,,5/6,3/4,2b/7b,,
2^7[8:1]/6,,6^3[8:1]/2,,4/5,3q8[4:1]/6p1[4:1],,,4/5,6/7,1/8,2/3,4/5,2p5[4:1]/7q4[4:1],,,
3/8,,1/6,,4/5,,,2/7,
4h[4:1]/5,3,5h[4:1]/4,6,3h[4:1]/4,2,6h[4:1]/5,7,2h[4:1]/1,3,7h[4:1]/8,6,1/5,3/7,1/5,3/7,
6h[4:1]/5,7,3h[4:1]/4,2,7h[4:1]/8,6,2h[4:1]/1,3,4^1[4:1]/8^5[4:1],,,
{8},2b/7b,,4b/5b,,
{1}1b/8b,,,,E


MASTER

(150){2}
3^6[4:1],8qq8[4:1],4w8[4:1],,
2p6[8:1]/6-3[8:1],2^5[8:1]/6^1[8:1],2^5[8:1]/6^1[8:1],3b/7b,
{16}2h[16:3],,,3h[16:3],,,{4}4,5^7[8:1]/2,8,8^2[8:1]/7,3,{8}4,5,6,
{16}7h[16:3],,,8h[16:3],,,{4}1,2^4[8:1]/7,5,5^7[8:1]/4,8,{8}1,2,3,
{16}4h[16:3],,,5h[16:3],,,{4}6,7^1[8:1]/4,2,2^4[8:1]/1,5,{8}6,7,8,
{16}1h[16:3],,,2h[16:3],{8},3,4,3/4,,,
5,,3/4,,6,5,7h[4:5]/4,,6v8[8:1],,,,8v6[8:1],,,,
6,,7/8,,2,1,3/8,,1^4[8:1]/4,,,,1^4[8:1]/4,,,,
1h[4:1],,2,,4,3,2/5,,
5h[4:1],,6,,8,7,1/6,,
{2}5-3[8:1]/6,5-2[8:1]/6,5q8[2:1]*qq1[2:1]/6,,
{8}4,,5/6,,3,4,{4}2/5,2/3,2/4,2/3,2/4,
{8}3,,1/2,,7,8,{4}6h[1:1]/1,7,5,7,5,
6>2[4:1],2<6[4:1],6,2,2-7[8:1],6,6-3[8:1],2,
1v4[8:1]/8v5[8:1],,
1-4[8:1]/8-5[8:1],,
1^4[8:1]/8^5[8:1],,3/6,1/8,
{16}
4h[16:3],,,5h[16:3],,,6,,
5h[16:3],,,6h[16:3],,,7,,
6h[16:3],,,7h[16:3],,,8,,{2}8^3[8:1],{16}
4h[16:3],,,3h[16:3],,,2,,
3h[16:3],,,2h[16:3],,,1,,{2}1w5[8:1],2-6[8:1]/8-4[8:1],{16}
5h[16:3],,,4h[16:3],,,3,,
4h[16:3],,,3h[16:3],,,2,,
3h[16:3],,,2h[16:3],,,1,,{2}1^6[8:1],{16}
3h[16:3],,,4h[16:3],,,2,,6h[16:3]/2,,,5h[16:3],,,{8}7,4/7,3,2/5,6,3/7,,,,
{16}2^5[8:1]/1,,,6,,,8,,2^5[8:1]/1,,,6,{8},8,1/2,3,4/5,3,1-5[8:1]/2^5[8:1],,,,
{16}7^4[8:1]/8,,,3,,,2,,2^5[8:1]/1,,,6,{8},7,4/7,6,2/5,3,4-1[8:1]/7,,,,
{16}7^4[8:1]/8,,,3,,,1,,7^4[8:1]/8,,,3,{8},1,7/8,6,4/5,6,7/8,,
8-3[8:1]/6,1,2/8,,
8-4[8:1]/6,1,2/8,,
8-5[8:1]/6,1,2/8>4[16:3],,,,5,5/6,4/7,,
{16}7^4[8:1]/8,,,3,,,1,,7^4[8:1]/8,,,3,{8},1,7/8,6,4/5,6,7^4[8:1]/8-4[8:1],,,,
{16}2^5[8:1]/1,,,6,,,7,,7^4[8:1]/8,,,3,{8},2,2/5,3,4/7,6,2/5,,,,
{16}2^5[8:1]/1,,,6,,,8,,2^5[8:1]/1,,,6,{8},8,1/2,3,4/5,3,1/2,,
1-6[8:1]/3,8,7/1,,
1-5[8:1]/3,8,7/1,,
1-4[8:1]/3,8,7/1<5[16:3],,,,2,1b/8b,2b/7b,,
{16}3h[16:3],,,4h[16:3],,,{4}5,6^1[8:1]/3,2,2^5[8:1]/1,6,{8}8,7,6,
{16}6h[16:3],,,5h[16:3],,,{4}4,3^8[8:1]/6,7,7^4[8:1]/8,3,{8}1,2,3,
{16}3h[16:3],,,4h[16:3],,,{4}5,6^1[8:1]/3,2,2^5[8:1]/1,6,{8}8,7,6,
{16}6h[16:3],,,5h[16:3],{8},4,3,3/4,,,1/8,,,,2/5,
{16}3,4,,4,{8}3,2/5,,,,,5/6,{4}4/7,6/7,1/8,2/3,4/5,3/6,,
{16}4,5,4,5,{4}3/6,
{16}7^4[8:1]/8,,,3,,,1,,7^4[8:1]/8,,,3,{8},1,7/8,6,4/5,6,7/8,,
8^3[8:1]/6,1,2/8,,
8q4[8:1]/6,1,2/8,,
8v5[8:1]/6,1,2/8>4[16:3],,,,6,5/6,4/7,,
{16}7V51[8:1]/8,,,4,,,2,,7V51[8:1]/8,,,4,{8},2,6/8,5,2/4,5,6-3[8:1]/8^3[8:1],,,,
{16}2V48[8:1]/1,,,5,,,7,,7V51[8:1]/8,,,4,{8},2,2/5,3,4/8,7,2/6,,,,
{16}2V48[8:1]/1,,,5,,,7,,2V48[8:1]/1,,,5,{8},7,1/3,4,5/7,4,1/3,,
1^6[8:1]/3,8,1/7,,
1p5[8:1]/3,8,1/7,,
1v4[8:1]/3,8,{4}7/1<5[16:3],,,
8v5[8:1]/6,2/8,
8q4[8:1]/6,2/8,
8-2[8:1]/6,2/8<3[2:1],,,,
{16}4h[16:3],,,5h[16:3],,,{4}6,7^2[8:1]/4,3,3^6[8:1]/4,7,{8}8,7,6,
{16}5h[16:3],,,4h[16:3],,,{4}3,2^7[8:1]/5,6,6^3[8:1]/5,2,{8}1,2,3,
{16}4h[16:3],,,5h[16:3],,,{4}6,7^2[8:1]/4,3,3^6[8:1]/4,7,{8}8,7,6,
{16}5h[16:3],,,4h[16:3],,,3,,2,,
{4}
2-6[8:1],8b-3[8:1]/2b,1b>6[8:2]/8b,
{1}1b/6b,,,,,E


Re:MASTER



  • MAS:52行目のスライド7^3としてたものを7^4に修正しました。 -- Sea (2018-06-11 15:42:47)
名前:
コメント:

タグ:

+ タグ編集
  • タグ:

このサイトはreCAPTCHAによって保護されており、Googleの プライバシーポリシー利用規約 が適用されます。

最終更新:2020年05月05日 21:13