ダンスロボットダンス

BPM EASY BASIC ADVANCED EXPERT MASTER Re:MASTER
190 3 5 7 10 12+ -

EXPERT MASTER Re:MASTER
譜面制作者 ロシェ@ペンギン LabiLabi

EASY

(190){1},,,,
5,5,4,4,5,6,7,8,1,2,3,4,
4,3,2,1,8,7,6,5,5-8[4:5],,,1/8,
8,7,6,4/5,4,3,2,1/8,
7h[1:1],,8h[1:1],,1h[1:1],,2h[1:1],,
{2}
1,1,1,,2,2,2,,3,3,3,,4,4,4,,
5,5,5,,6,6,6,,7,7,7,,8,8,8,,
1/8,,7,7,6,,4/5,4/5,
4/5,,3,3,2,,1/8,1/8,
{1}1/8,2,3,4/5,
7-3[2:1],,2-6[2:1],,
6-3[2:1],,2-7[2:1],,
{2}
8,8,8,,7,7,7,,6,6,6,,5,5,5,,
4,4,4,,3,3,3,,2,2,2,,1,1,1b,,
2,2,3,,4/5,4/5,4/5,,
6,6,7,,1/8,1/8,1/8,,
{1}8,7,6,5,4,3,2,{2}1,1,
{1}1-5[4:3],,,,E


BASIC

(190){4},
1,,1,,2,,2,,3,,3,,4,4,4,,
5,,5,,6,,6,,7,,7,,7,7,,
8,8,8,,7,7,7,,6,6,6,,5,4,5,,
4,4,4,,3,3,3,,2,2,2,,1,1,1,,
{1}8h[2:1],1h[2:1],2h[2:1],{4}3,3,3/4,,
{1}4h[2:1],5h[2:1],6h[2:1],{4}7,7,7/8,,
8,8,8,,7,7,7,,6,6,6,,5,5,5,,
{1}4h[2:1],3h[2:1],2h[2:1],{4}1/8,1/8,1/8,,
{1}8h[2:1],7h[2:1],6h[2:1],{4}4/5,4/5,4/5,,
{1}4-1[4:3],,5-8[4:3],,1-4[4:3],,8-5[4:3],,
{4}
1,1,1,,2,2,1/2,,3,3,3,,4,4,4/5,,
5,5,5,,6,6,5/6,,7,7,7,,8,8,1/8,,
1,1,1,,8,8,1/8,,7,7,7,,6,6,5/6,,
5,5,5,,4,4,4/5,,3,3,3,,2,2,1/2,,
4,,4,,3/5,3/5,3/5,,4,,4,,3/5,3/5,3/5,,
5,,5,,4/6,4/6,4/6,,5,,5,,4/6,4/6,4/6,,
7,7,7,,8,8,1/8,,1,1,1,,2,2,1/2,,
1b,,1,,1,1,1,,2b,,2,,2,2,2,,
3b,,3,,3,3,3,,4b,,4,,4,4,4,,
5,5,6,6,7,7,7/8,,1,1,2,2,3,3,3/4,,
5,5,4,4,3,3,3/4,,2,2,1,1,8,8,1/8,,
2,2,3,3,4/5,4/5,4/5,,6,6,7,7,1/8,1/8,1/8,,
1/2,1/2,1/2,,7/8,7/8,7/8,,1,1,2,2,3,3,3/4,,
1,1,1,,2/8,2/8,2/8,,1,1,1,,2/8,2/8,2/8,,
8,8,8,,1/7,1/7,1/7,,8,8,8,,1/7,1/7,1/7,,
6,6,6,,7,7,7,,8,8,8,,1/2,1/2,1/2,,
2,2,2,,3,3,3,,4,4,4,,4/5,4/5,4/5,
{1}4h[4:5]/5h[4:5],,,,E


ADVANCED

(190){1}4h[2:7]/5h[2:7],,,,{4}
4/5,4/5,4/5,,3/6,3/6,3/6,,2/7,2/7,2/7,,1h[4:1]/8h[4:1],,1/8,,
8,8,7,7,6,6,5/6,,1,1,2,2,3,3,3/4,,
5,5,6,6,7,7,7/8,,3,3,2,2,1,8,1/8,,
6h[2:1],,5,,4,5,4/5,,2,2,1,1-4[8:3],,,,,
3h[2:1],,4,,5,4,4/5,,7,7,8,8,1h[4:1]/8h[4:1],,2/7,,
4,4,3,3,2,2,1/2,,6,6,7,7,8,1,1/8,,
2h[2:1],,1,,8,1,2/7,,6,6,5,5-8[8:3],,,,,
7h[2:1],,8,,1,8,2/7,,3,3,4,4,5,4/5,3/6,,
1/8,,2/7,,1/8,2,3/4,,8,7,5/6,,1,2,3/4,,
5/6,,3/4,,6,5,3/4,,4/5,4/5,3/6,,1/8,1/8,2/7,,
6,6,5/6,4/7,3,3,2/4,,6h[4:1],5,3h[4:1],4,4-1[8:3]/5-8[8:3],,,,
2,2,1/2,3/8,7,7,6/8,,2h[4:1],1,7h[4:1],8,1-4[8:3]/8-5[8:3],,,,
4,4,3/5,3/5,4,3/5,2/6,,
5,5,4/6,4/6,5,4/6,3/7-4[8:3],,,,2-5[8:3],,,,
6,6,7,8,1,2,3h[2:1]/8h[2:1],,,,
1/7,1/7,2/8,2/8,3,4,5/6,,2/8,2/8,1/7,1/7,6,5,4/5,,
1/7,1/7,2/8,2/8,3,4,5/6,,2/8,2/8,1/7,1/7,6,5,4,3b/6b,
5,5,6,6,7,7,6/8,,3,3,2,2,1/8,1/8,2/7,,
3h[2:1],,4,,2,3,4/5,,6h[2:1],,5,,7,6,4/5,,
2h[2:1],,1,,3,2,1/8,,7h[2:1],,8,,1/8,1/8,2/7,,
6,5,4/6,4/6,3,4,2/5,,6h[4:1],5,3h[4:1],4,4^1[8:3]/5^8[8:3],,,,
2,1,2/8,2/8,7,8,1/6,,2h[4:1],1,7h[4:1],8,1^4[8:3]/8^5[8:3],,,,
5/6,5/6,4/7,4/7,5/6,4/7,3/8,,
3/4,3/4,2/5,2/5,3/4,2/5,1V35[8:3]/6,,,,8V64[8:3],,,,
3,3,2,1,8,7,1h[2:1]/6h[2:1],,,,
2/8,2/8,1/7,1/7,6,5,4/6,,1/7,1/7,2/8,2/8,3,4,4/5,,
2/8,2/8,1/7,1/7,6,5,4,3/6,1/7,1/7,2/8,2/8,3/4,5/6,3/4,5b/6b,
4,3,2,1,7/8,7/8,1/6,,
5,6,7,8,1/2,1/2,3/8,,
3/4,3/4,1/2,1/2,7/8,7/8,1/6,,
5/6,5/6,7/8,7/8,1/2,1/2,3/8,
{1}8-4[4:3]/3,,,,E


EXPERT

(190){8}
5h[4:1],,4,,5,5,4,,5h[4:1],,4,,5,5,4,,
5h[4:1],,4,,5,5,4,,5h[4:3],,4,,4,,4,,
6h[4:1],,3,,6,6,3,,6h[4:1],,3,,6,6,3,,
6h[4:1],,3,,6,6,3,,5,5,3/6,,4,5,4,5,
{4}
2,1/2,4/5,4/5,7,7/8,4/5,4/5,2,1/2,4/5,4/5,7,7/8,4/5,4/5,
2,1/3,4/5,4/5,7,6/8,4/5,4/5,2,1/3,4/5,4/5,7,6/8,4/5,4/5,
3b/8b,,1,2,3h[4:3],5,4,5,6h[4:3],4,5,{8}4,4/5,,2/4,,5/7,,4,{4}5,
1b/6b,,8,7,6h[4:3],3,5,4,2h[4:1],1,7h[4:1],8,4/5,4v2[4:1]/5v7[4:1],,,
3,2/8,4/5,4/5,6,1/7,4/5,4/5,
3,2/8,4/5,4/5,6,1/7,4/5,4/5,
2b/8b,,1,2,3h[4:3],2,4,4,6h[4:3],7,5,{8}5,5/6,,2/4,,5/7,,4,{4}5,
1b/7b,,8,7,6h[4:3],7,5,4,3h[4:1],1,6h[4:1],8,3/4,5/6,2b/7b,,
1h[4:1]/8h[4:1],,2h[4:1]/7h[4:1],,1/8,2/7,
4h[4:1]/5h[4:1],,1/8,2/7,4/5,3/6,1/8,1-4[8:1]/8-5[8:1],,,
6h[4:1]/7h[4:1],,2h[4:1]/7h[4:1],,6/7,2/7,
2h[4:1]/3h[4:1],,6/7,2/3,1/8,4/5,2v5[8:1]/8v5[8:1],,1/6,,
1b-5[8:1]/2b-4[8:1],,6,7,7-5[8:1]/8-4[8:1],,3,2,
1h[4:1],8h[4:1],7h[4:1],6h[4:1],5<4[2:1],,,,
5h[4:1],4,1/6,1/6,4h[4:1],5,3/8,3/8,4/5,3/6,1h[4:1]/8h[4:1],,1/5,3/7,{8}4,5,{4}4,
1b-5[8:1]/2b-4[8:1],,6,7,7-5[8:1]/8-4[8:1],,3,2,
1h[4:1],8h[4:1],7h[4:1],6h[4:1],5,2/7,
{8}
7/8,7h[8:5]/8>5[8:3],,,,,,,
1/2,2h[8:5]/1<4[8:3],,,,,,,
{4}4/5,2/8,1/7,1/7,4h[4:1]/5h[4:1],,2V41[2:1]/8V61[2:1],,,,
3/7,2/6,3/7,2/6,8h[2:1]/4,1,5,1/8,
3/7,2/6,3/7,2/6,4h[2:1]/8,5,1,4/5,
3/7,2/6,3/7,2/6,8h[2:1]/4,1,5,1/8,
3/7,2/6,3/7,2/6,4h[4:1]/8,5,1b/3b,,
1/6,1/6,4/5,4/5,3/8,3/8,4/5,4/5,
1/6,1/6,4/5,4/5,3/8,3/8,4/5,4/5,
6h[1:1]/1b,,4,4,5,7-3[8:1]/8-2[8:1],,,
7h[1:1]/2b,,5,5,6,1-3[8:1]/8-4[8:1],,,
8h[1:1]/3b,,6,6,7,1-5[8:1]/2-4[8:1],,,
1h[1:1]/4b,,7,7,8,8w4[4:1],,,
2b-5[8:1]/8b-5[8:1],,3,2,1-4[8:1]/7-4[8:1],,6,7,
8h[4:1],1h[4:1],2h[4:1],3h[4:1],4>5[2:1],,,,
1h[4:1]/8h[4:1],,2/5,2/5,4h[4:1]/5h[4:1],,1/6,
1h[4:1]/6h[4:1],,4^1[8:1]/5^8[8:1],,,1/5,3/7,{8}4,5,{4}4,
1b-4[8:1]/7b-4[8:1],,6,7,2-5[8:1]/8-5[8:1],,3,2,
1h[4:1],8h[4:1],7h[4:1],6h[4:1],5,2/7,
{8}
7/8,7<3[8:3]/8h[8:5],,,,,,,
1/2,2>6[8:3]/1h[8:5],,,,,,,
{4}4/5,1/7,2/8,2/8,4h[4:1]/5h[4:1],,1V38[2:1]/7V58[2:1],,,,
3/7,2/6,3/7,2/6,4h[2:1]/8,3,8,5/6,
3/7,2/6,3/7,2/6,8h[2:1]/4,7,4,1/2,
3/7,2/6,3/7,2/6,4h[2:1]/8,3,8,5/6,
3/7,2/6,3/7,2/6,8h[4:1]/4,7,1b/3b,,
1/3,2/8,4/5,4/5,6/8,1/7,4/5,4/5,
1/3,2/8,4/5,4/5,6/8,1/7,4/5,4/5,
{8}
1/3,,2/8,,5,4,5,,6/8,,1/7,,4,5,4,,
1/3,,2/8,,5,4,5,,6/8,,1/7,,4,5,3h[1:1],
{1}7h[8:7],2b/6b,,,,E


MASTER

(190){4}
6h[1:2],5,,5,,5,,5,
3h[1:2],4,,4,,4,4,4,
7h[1:1],4,5,6,2h[1:1],5,4,3,
8h[1:1],5,6,7,3,3/6,{16}4,5,4,5,4,5,4,5,
{4}
4-8[8:1],5-7[8:1],4-8[8:1],5-7[8:1],
4-2[8:1],5-1[8:1],4-2[8:1],5-1[8:1],
4-8[8:1],5^7[8:1],4-8[8:1],5^7[8:1],4q7[4:1],,,1/6,
5-1[8:1],4-2[8:1],5-1[8:1],4-2[8:1],
5-7[8:1],4-8[8:1],5-7[8:1],4-8[8:1],
5-1[8:1],4^2[8:1],5-1[8:1],4^2[8:1],5p2[4:1],,,8-5[8:1]*>5[8:1]/1,
{8}
8b,,,3,3/4,,2,2-7[8:1],,6-3[8:1],,2b,,1,1,1,
6,6,2,2,1h[4:1]/8h[4:1],,,6/8,,1/3,,2/7,,2/8,2v5[8:1]/8v5[8:1],,
2b/8b,,,6,5/6,,7,7-2[8:1],,3-6[8:1],,7b,,8,8,8,
3,3,7,7,1/8,1/8,1/8,1h[4:1]/8h[4:1],,,,1/8,1-6[8:1]/8-3[8:1],,1b/8b,,
{4}
3-1[8:1],4-8[8:1],3-1[8:1],4-8[8:1],
3-7[8:1],4-6[8:1],3-7[8:1],4-6[8:1],
3-1[8:1],4-8[8:1],3-1[8:1],4-8[8:1],3qq7[4:1],,,8V63[8:1]/1,
{8}
8b,,,1,1/8,,2,2-5[8:1],,6-1[8:1],,2b,,4,4,4,
5,5,2,2,1h[4:1]/8h[4:1],,,6/8,,1/3,,2/7,,1/8,1-5[8:1]/8,,
1b,,,8,1/8,,7,7-4[8:1],,3-8[8:1],,7b,,5,5,5,4,4,7,7,1/8,1/8,{4}1/8,2/7,3/6,4/5,4-1[8:1],
8,8,6/7,4-1[8:1],,8-5[8:1]/2,,4-1[8:1],,8-5[8:1]/2,,4-1[8:1]/6,,8-5[8:1]/2,,2-7[8:1],
5,4,2/3,2-7[8:1],,6-3[8:1]/8,,2-7[8:1],6-3[8:1],4-1[8:1],8-5[8:1],
4bv1[8:1]*v7[8:1],,4bV25[8:1]/6bV85[8:1],,,
2-7[8:1]/8,6,6-3[8:1]/4,2,8p3[8:1]/6h[4:1],,1/2,
1>5[4:1],5<1[4:1],1>5[4:1],5<1[4:1],1>8[2:1]*q8[2:1],,,,2/7,
2-7[8:1]/8,6,6-3[8:1]/4,2,1-5[8:1],8-4[8:1],1-6[8:1],
8<4[4:1],4>8[4:1],8,4,5p2[4:3]/6pp1[4:3],,,,,
{2}
3-6[8:1]*-8[8:1],2-5[8:1]/7-2[8:1],
6-3[8:1]*-1[8:1],7-4[8:1]/2-7[8:1],
{4}6<2[4:1],2>6[4:1],6<2[4:1],2,6,1/5,
{8}
7/8,7q4[4:1]/8^3[4:1],,,,,,,
1/2,1^6[4:1]/2p5[4:1],,,,,
{4}4/7,
1/8,5/6,6-2[8:1]/7-1[8:1],,2-8[8:1]/3-7[8:1],,6q3[4:1]/7^2[4:1],,,
1^4[8:1]/8,8^5[8:1]/1,1^4[8:1]/8,8^5[8:1]/1,1b/8,3/4,4/7,2/5,
1^4[8:1]/8,8^5[8:1]/1,1^4[8:1]/8,8^5[8:1]/1,1b/8,3/4,5/6,{8}1,1,
{4}
1^4[8:1]/8,8^5[8:1]/1,1^4[8:1]/8,8^5[8:1]/1,1b/8,3/4,4/7,2/5,
1^4[8:1]/8,8^5[8:1]/1,1^4[8:1]/8,8^5[8:1]/1,1b/8,3/4,5/6,1/8,3b/6b,
6-8[8:1],5-1[8:1],6-8[8:1],5-1[8:1],
6-2[8:1],5-3[8:1],6-2[8:1],5-3[8:1],
6-8[8:1],5-1[8:1],6-8[8:1],5-1[8:1],6pp2[4:1],,,3/8,
{8}
1b,,,2/8,2/8,,4/5,,1-5[8:1]/7-3[8:1],,,,4,1/7,,1/7,
2b,,,5/7,5/7,,1s5[4:1]/8,,,,,,4,1/6,,1/6,
3b,,,4/5,4qq1[2:1]/5pp8[2:1],,,,,,,,6,5/7,,5/7,
4b,,,2/6,3/7,2/6,3/7,2-7[8:1],2,6-3[8:1],6,1,1w5[8:1],,1b,,
{4}
7-3[8:1]/3,1,2-6[8:1]/6,8,3q8[8:1]/6h[4:1],,1/2,
8<4[4:1],4>8[4:1],8<4[4:1],4>8[4:1],8<1[2:1]*p1[2:1],,,,2/7,
2-6[8:1]/6,8,7-3[8:1]/3,1,1-5[8:1],8-4[8:1],1-6[8:1],8-3[8:1],1,
4-1[8:1]/5-8[8:1],4b/5b,4q7[4:3]/3qq8[4:3],,,,,
7-3[8:1]*-1[8:1],,2-5[8:1]/5-8[8:1],,
2-6[8:1]*-8[8:1],,7-4[8:1]/4-1[8:1],,
{4}6<2[4:1],2>6[4:1],6<2[4:1],2,6,4/5,
{8}
3b/8b,1b-6[8:1]/2b-5[4:1],,1b/2b,,,4/5,,
1b/6b,7b-4[8:1]/8b-3[4:1],,7b/8b,,,
{4}2/6,1b-4[8:1]/8b-5[8:1],1b/8b,
3-7[8:1]/2-8[8:1],,7-1[8:1]/6-2[8:1],,3p6[4:1]/2^7[4:1],,,
5^8[8:1]/1,4^1[8:1]/5,5^8[8:1]/4,4^1[8:1]/5,5b/4,7/8,8/3,6/1,
5^8[8:1]/4,4^1[8:1]/5,5^8[8:1]/4,4^1[8:1]/5,5b/4,7/8,1/2,{8}5,5,
{4}
5^8[8:1]/1,4^1[8:1]/5,5^8[8:1]/4,4^1[8:1]/5,5b/4,7/8,8/3,6/1,
5^8[8:1]/4,4^1[8:1]/5,5^8[8:1]/4,4^1[8:1]/5,5b/4,7/8,4/5,1/8,3b/6b,
6-1[8:1],5-2[8:1],6-1[8:1],4-1[8:1],5-8[8:1],4-1[8:1],5-8[8:1],
3-8[8:1],4-7[8:1],3-8[8:1],4-7[8:1],2-7[8:1],3pp6[4:1],,,2/7,
3-8[8:1],4-7[8:1],3-8[8:1],5-8[8:1],4-1[8:1],5-8[8:1],4-1[8:1],
6-1[8:1],5-2[8:1],6-1[8:1],5-2[8:1],7-2[8:1],{8}5,5,,4/8,,1/5,,
{1}3h[8:7]/7h[8:7],1/5,,,,E



Re:MASTER


名前:
コメント:

タグ:

+ タグ編集
  • タグ:

このサイトはreCAPTCHAによって保護されており、Googleの プライバシーポリシー利用規約 が適用されます。

最終更新:2021年04月22日 20:05