FestivaLight

BPM EASY BASIC ADVANCED EXPERT MASTER Re:MASTER
125 2 4 7 9 13 -

EXPERT MASTER Re:MASTER
譜面制作者 はっぴー ぴちネコ -

EASY

(125){1},,{2}4,4,5,5,
4/5,,3,2,1/8,,7,6,
5,5,6,6,7,7,8,8,
1,1,2,2,3,3,4,4,
5h[2:1],,4h[2:1],,
4,4,3,3,2,2,1,1,
8,8,7,7,6,6,5,5,
5,6,7,8,1,2,3,4/5,
6-3[4:3],,,2,
2-7[4:3],,,7,
8,7,6,5,4,3,2,1b,
{4}
1,1,1,,2,2,2,,3,3,3,,4/5,,4/5,,6,6,6,,7,7,7,,1/8,,1/8,,
8,8,8,,7,7,7,,6,6,6,,4/5,,4/5,,3,3,3,,2,2,2,,1/2,,1/2,,
1/8,,1/8,,7/8,,7/8,,
{1}1b,8-4[4:3],,,,,E


BASIC

(125){1},,{2}1,1/2,8,7/8,{4}
1,1,1,,2,2,2,,3,3,3,,4,4,4/5,,
5,5,5,,6,6,6,,7,7,7,,8,8,1/8,,
{2}1-6[2:1],,,7,8-3[2:1],,,2,
{4}1,1,1,,8,8,8,,
1,1,1,,2h[4:1],,2,,3,3,3,,4h[4:1],,4,,
5,5,5,,6h[4:1],,6,,7,7,7,,1h[4:1]/8h[4:1],,1/8,,
8,8,7,7,6,6,5,,4,4,3,3,2,2,1,,
{2}1-5[4:3],,,5,5-1[4:3],,,1,
{4}
8h[2:1],,,,7,7,7/8,,
1h[2:1],,,,2,2,1/2,,
{4}
8b,8,7,7,6,6,5/6,,4,4,3,3,2,2,1/2,,3,,2,,1,,8,,7,,6,,
5,5,6,6,7,7,7/8,,1,1,2,2,3,3,3/4,,
4,4,3,3,2,2,1/2,,8,8,7,7,6,6,5/6,,4/5,,3/6,,2/7,,1/8,,
{1}1-4[2:1]/8-5[2:1],,,,,E


ADVANCED

(125){1}6<3[2:1],4q5[2:1],
{4}6,5/6,6,5/7,3,3/4,3,2/4,
6h[2:1],,5,4/7,8,1/7,2,1/2,
3h[2:1],,4,2/5,1,2/8,3/7,4/6,
5,3/4,5,3/4,2,1,3/8,,
4,5/6,4,5/6,7,8,1/6,,
2h[4:1],1,3/8,2/7,6h[4:1],5,4/7,,
6h[4:1],5,4/7,3/6,4/5,3/6,2/7,1p2[1:1]/8<3[1:1],,,,,,,1b/8b,,
4/5,6,4/5,3,5/6,4/7,1/8,,4/5,3,4/5,6V84[2:1],,,,3/6,
2,1/3,7,6/8,3,2/4,6,5/7,3,1/2,6,7/8,1h[2:1],,8b,,
3h[4:1],4,6h[4:1],5,2h[4:1],4,1/8,,
5h[4:1],6,4h[4:1],3,6h[4:1],7,1/8,,
{1}5-2[8:3]/6-1[8:3],3-8[8:3]/4-7[8:3],4-1[8:3]/5-8[8:3],{4}1/8,1/8,{2}2/7,
1v4[8:3]/8v5[8:3],,3h[4:1]/6h[4:1],4h[4:1]/5h[4:1],
4^1[8:3]/5^8[8:3],,1h[4:1]/8h[4:1],2b/7b,
{4}
3/6,4/7,3/6,2/5,3/6,4/7,5/6,,5h[4:1],3h[4:1],2h[4:1],1-4[2:1]*-6[2:1],,,,5,
3/6,2/5,3/6,4/7,3/6,2/5,3/4,,4h[4:1]/5h[4:1],,3/6,1b/8b,
2/7,1/6,2/7,3/8,2/7,1/6,7/8,,8h[4:1],2h[4:1],3h[4:1],4-1[2:1]*-7[2:1],,,,8,
2/7,3/8,2/7,1>6[4:3]/6,,,,,7/8,6,4/5,3,1/2,3,4/5,6,1b/7b,,2b/8b,,4/5,3/6,2/7,
{1}1>8[2:5]/8,,,,,,,,E


EXPERT

(125){4}1^4[4:1]/8^5[4:1],,,4/5,
{12}6h[6:1],,8h[6:1],,1h[6:1],,3,,,4/5,,,
6,,6,5/6,,,3,,3,3/4,,,6,,6,5/6,,,3,,3,3/4,,,
{4}2/5,,4/5,{12}1/8,,2,2,3,4,5,,7,7,6,5,4,,,
{4}3/8,,3/4,{12}2/5,,7,7,6,5,4,,2,2,3,4,5,,,
3,,3,3/4,,,5^2[8:1]/6,,,,,,8,,8,1/7,,1,1,,1,2/8,,,
6,,6,5/6,,,4^7[8:1]/3,,,,,,1,,1,2/8,,8,8,,8,1/7,,,
{12}4h[4:1],,,3h[4:1],,,2h[4:1],,1,1,,,{2}6^1[8:1]/4,3^8[8:1]/5,
{12}5h[4:1],,,6h[4:1],,,7h[4:1],,8,8,,,{2}3^8[8:1]/5,6^1[8:1]/4,
{4}2h[6:1]/4h[6:1],2/4,3h[6:1]/5h[6:1],3/5,4h[6:1]/6h[6:1],4/6,5h[6:1]/7h[6:1],5/7,
7/8,6-3[4:1]/7-2[4:1],,,2^4[8:1]/6^4[8:1],,1/7,2/8,
1/2,2-7[4:1]/3-6[4:1],,,4-1[4:1]/5,,5-8[4:1]/4,,
{12}
4,,4,5,,5,2,,2,4,,,5,,5,4,,4,7,,7,5,,,
4,,4,5,,5,2,,2,7,,7,4,,4,6,,6,2,,2,8b,,,
2^5[8:1],,,,,,7p3[8:1],,,,,1,1,2,3,4,,8,8,7,6,5,,,
6q2[8:1],,,,,,4^1[8:1],,,,,8,8,7,6,5,,1,1,2,3,4,,,
5/6,,5h[4:1]/6h[4:1],,,,,6/7,,7/8,,,
3/4,,3h[4:1]/4h[4:1],,,,,2/3,,1/2,,,
4/6,,4h[4:1]/6h[4:1],,,,,5/7,,6/8,,,
3/5,,3h[4:1]/5h[4:1],,,,,2/4,,1/3,,,
{6}2h[6:1],4h[6:1],5h[6:1],7h[6:1],5h[6:1],4h[6:1],{1}2qq7[2:1],
{6}7h[6:1],5h[6:1],4h[6:1],2h[6:1],4h[6:1],5h[6:1],{4}7,4/5,2b/7b,,

{2}4^1[8:1]/3,5^8[8:1]/6,4^1[8:1]/3,{12}5/6,,,4/7,,,2h[2:1]/7,,3,3,,,7h[2:1],,6,6,,,2,,,4/5,,,7/8,7/8,1/6,2/5,,,
{2}5^8[8:1]/6,4^1[8:1]/3,5^8[8:1]/6,{12}3/4,,,2/5,,,1/8,,,4/5,,4/5,4/5,,,1b/8b,,,
{2}2^7[8:1]/6,7^2[8:1]/3,2^7[8:1]/6,{12}1/8,,,2/7,,,6h[2:1]/3,,8,8,,,3h[2:1],,1,1,,,6,,,4/5,,,1/2,1/2,3/8,4/7,,,
{2}7^2[8:1]/3,2^7[8:1]/6,{6}5/6,6/7,7/8,3/4,2/3,1/2,
{4}
4^7[8:1]/3h[4:1],,5/6,2/5,
5^2[8:1]/6h[4:1],,3/4,5/7,
{6}5,6,7,8h[2:1]/4,3,2,{1}1>8[2:1],
{24}7/8,,,,1/6,,,,,1/2,,,,3/8,,,,,
{1}5>6[2:3]/4h[4:7],,,,,,E


MASTER

(125){1}4>5[2:1]/5<4[2:1],
{12}5/7,,3/6,,2/4,,1-4[8:1]/8-5[8:1],,,1b/8b,,,
7^4[8:1]/2,,7,8,,,2^5[8:1]/7,,2,1,,,
7^4[8:1]/2,,7,8,,,2^5[8:1]/7,,2,1,,,
{4}4/8,,3h[6:1]/7h[6:1],1h[6:1]/5h[6:1],{12}8pp2[8:1]/7,,5,5,,,4pp6[8:1]/3,,1,1,,,
{4}1/5,,2h[6:1]/6h[6:1],4h[6:1]/8h[6:1],{12}5qq3[8:1]/6,,8,8,,,1qq7[8:1]/2,,4,4,,,
4/8,,6,5,7,4,8^5[8:1],1,2,3,,,1-5[8:1]/6,2,3,1/4,,,8-4[8:1]/3,7,6,5/8,,,
1/5,,3,4,2,5,1^4[8:1],8,7,6,,,8-4[8:1]/3,7,6,5/8,,,1-5[8:1]/6,2,3,1/4,,,
4^1[8:1],,6,6^1[8:1],,5,5w1[8:1],,,5b,,,{24}7h[8:1],,,8,7,,1/6,,,,2,,2h[8:1],,,1,{12}2,3/8,,,
5^8[8:1],,3,3^8[8:1],,4,4w8[8:1],,,4b,,,{24}2h[8:1],,,1,{12}2,3/8,,7,3/7,2/6,1/5,4/8,,,
3h[4:1],,4,4h[4:1],,5,5h[4:1],,6,6h[4:1],,7,7h[4:1],,8,{4}8pp4[8:3]*qq4[8:3],,,

{12}
2/5,,6,4/7,,3,2-7[8:1]/6-3[8:1],,,,,,
1/6,,2,3/8,,7,6-3[8:1]*^3[8:1]/1,,,,,,
1/3,,7,6/8,,2,1/3,8,1,{4}1^4[4:1]/8,4z8[4:1],8^5[4:1],5,1b,
{12}
6-4[8:1],,6,7-3[8:1],,7,8-4[8:1],,8,1-5[8:1],,1,2-6[8:1],,2,3-5[8:1],,3,8w4[8:1],,,8b,,,
2-4[8:1],,2,1-5[8:1],,1,8-4[8:1],,8,7-5[8:1],,7,1,2,3,4h[4:1]/1,,,8,7,6,5/8,,,
4h[6:1]/6,,5,4h[6:1]/2,,3,4h[6:1]/7,,5,4h[6:1]/1,,3,4>8[8:1]/8,7,6,5,,5,5<1[8:1]/1,2,3,4,,,
5h[6:1]/3,,4,5h[6:1]/7,,6,5h[6:1]/2,,4,5h[6:1]/8,,6,5<1[8:1]/1,2,3,4,,4,4>8[8:1]/8,7,6,5,,,

2/6,,2h[4:1]/6h[4:1],,,,1/3,1/3,,5/6,,,
3/7,,3h[4:1]/7h[4:1],,,,6/8,6/8,,3/4,,,
7/8,,2h[4:1]/3h[4:1],,,,1/4,1/4,,5/6,,,
1/2,,6h[4:1]/7h[4:1],,,,5/8,5/8,,3/4,,,
{6}8b/6,5/7,4/6,3b/5,2/4,1/3,{12}8h[4:1]/1,,6,6h[4:1],,3,3h[4:1],,1,1,,,
{6}4b/2,1/3,2/8,7b/1,6/8,5/7,{4}4^1[8:1]/5^8[8:1],,3b-8[8:1]/7b-4[8:1],3/7,

{12}
1>5[4:1],,5,5<1[4:1],,1,1>5[4:1],,5,5<1[4:1],,1,1,,5,5,6,7,
{4}4-8[8:1]/8,4/5,2^5[8:1]/5^8[8:1],2/5,4^1[8:1]/7^4[8:1],4/7,
{12}6h[4:1],5,5,3h[4:1],4,4,5,4,5,2b/7b,,,
8<4[4:1],,4,4>8[4:1],,8,8<4[4:1],,4,4>8[4:1],,8,8,,4,4,3,2,5-1[8:1]/1,,,4/5,,,
7^4[8:1],8,8,7b/1,,,2^5[8:1],1,1,2b/8,,,
8^3[8:1]/4,,4,8^5[8:1]/4,,4,8^3[8:1]/4,,4,8^5[8:1]/4,,4,8pp3[8:3]/4,,,7,6,5,4h[4:1],,,8b,,,
1^6[8:1]/5,,5,1^4[8:1]/5,,5,1^6[8:1]/5,,5,1^4[8:1]/5,,5,1qq6[8:3]/5,,,2,3,4,{4}5h[4:1],1b,
4^2[8:1]/5p1[8:1],4q8[8:1]/5^7[8:1],4^2[8:1]/5p1[8:1],4/5,
{12}7b/8b,,1/3,,6/8,5,3b/4b,,5/7,,2/4,1,

7qq4[8:3]/8,,,8,1,2,3h[4:1],,,2,,,
2pp5[8:3]/1,,,1,8,7,6h[4:1],,,8w4[8:1],,,8b,,,,,,
2b/6b,,7/8,,1/2,,{1}4bq5[2:1]/5b<4[2:1],
{12}
6/8,5,4/6,3,2,1/3,4,3/5,6,
7,6bpp4[24:38]/1,,,{24},1,2,
{1}3qq5[24:29],,,,,,E


Re:MASTER


  • 修正箇所等ありましたら修正・加筆をおねがいします。 -- Sea (2018-06-28 11:40:00)
名前:
コメント:

タグ:

+ タグ編集
  • タグ:

このサイトはreCAPTCHAによって保護されており、Googleの プライバシーポリシー利用規約 が適用されます。

最終更新:2020年09月29日 21:13