アンチクロックワイズ

アーティスト

BPM EASY BASIC ADVANCED EXPERT MASTER Re:MASTER
186 3 6 7 10 11+ 13

EXPERT MASTER Re:MASTER
譜面制作者 はっぴー 緑風 犬三郎 はっぴー

EASY


BASIC

(186.0){1},,,,,
{8},,,,,,,1h[1:1]/8h[1:1],{1},,
{4},1,1,1,
{4},2,2,2,
{4},3,3,3,
{4},4/5,,4/5,
{4},5,5,5,
{4},6,6,6,
{4},7,7,7,
{4},1/8,,1/8,
{4}1/8,2/7,2/7,3/6,
{4}3/6,4/5,4b/5b,,
{1}3-8[4:3],,
{1}1-6[4:3],,
{1}7-4[4:3],,
{1}5-2[4:3],,
{4},1,1,1,
{4},2,2,2,
{4},3,3,3,
{4},4/5,,4/5,
{4},5,5,5,
{4},6,6,6,
{4},7,7,7,
{4},8,8,1,
{1}1/8,
{1}1h[1:1]/2h[1:1],,
{1}7h[1:1]/8h[1:1],,
{4}6,6,5/6,,
{4}4/5,4/5,4/5,,
{4}3,3,{2}4-1[4:3],{1},
{4},1,1,1,
{4},2,2,2,
{4},3,3,4,
{4}4,4/5,,,
{4},5,5,5,
{4},6,6,6,
{4},7,7,8,
{4}8,1,1/8,,
{4},8,8,8,
{4},7,7,7,
{4},6,6,5,
{4}5,4/5,,,
{4},4,4,4,
{4},3,3,3,
{4},2,2,1,
{4}1,8,1/8,,
{4},7/8,,1/8,
{4},1/2,,1-4[4:3]/8-5[4:3],{1},,
{1}4h[1:1],,
{1}5h[1:1],,
{4}4h[4:7]/5h[4:7],,,{1},,
E

ADVANCED

(186.0){1},,,,,
{8},,,,,,,5,
{8},5,,4,,4^1[2:1]/5^8[2:1],,,
{8},,,,,,,1h[8:3]/8h[8:3],
{4},,1,1,
{4}2,2,3/4,3/4,
{4}5,5,6,6,
{4}7,7,7/8,,
{4}6,6,5,5,
{4}3/4,3/4,2,2,
{4}1,1,8,8,
{4}1/8,2/7,3/6,4qq1[4:5]/5pp8[4:5],{1},,
{2}6h[2:1],5,
{4}4,5,4,,
{2}3h[2:1],4,
{4}5,4,5,,
{2}7h[2:1],8,
{4}1,8,1,,
{2}1/8,1v3[4:3]/8v6[4:3],{1},
{4}3,3,4,4,
{4}6,6,5,5,
{4}4,3,1/2,,
{4}1/8,1/8,2/7,,
{4}6,6,5,5,
{4}3,3,4,4,
{4}4/5,4/5,{2}6/3s7[8:7],{1},
{2}1/8,2/7,
{1}6/5^2[4:3],
{2},1/8,
{1}3/4^7[4:3],
{2},1/8,
{4}7,8,1/6,,
{4}2,1,3/8,,
{4}5,4,3/6,3/6,
{4}4/5,4h[2:1]/5h[2:1],,,
{4}2,1,8,7,
{8}5/6,5/6,5/6,,3/4,3/4,3/4,,
{4}5,4/6,3/7>4[8:5],,
{4},,,5/6,
{8}3,,2/4,,3,3,3,,
{8}6,,5/7,,6,6,6,,
{4}4/5,4/5,3/6,2/7,
{8}1/8,1/8,1/8,,2b/7b,,,,
{4}7,8,1,2,
{8}3/4,3/4,3/4,,5/6,5/6,5/6,,
{4}4,3/5,6/2V85[8:5],,
{4},,,3/4,
{8}2,,1/3,,2,2,2,,
{8}7,,6/8,,7,7,7,,
{4}6,5,3/4,2/5,
{4}3,4/5,3/6,2V41[1:1]/7V58[1:1],{1},
{2},2/7,
{2}3h[2:1],4,
{2}6h[2:1],5<3[4:7],{1},,
{8}4>6[8:13],,,,,,,{1},,
E

EXPERT

(186.0){1},,,,,
{8},,,,,,,2/6,
{8},8,8-4[8:1],,,,,3/7,
{8},1,1-5[8:1],,,,,2/5,
{8},3,3,4,,5/6,,4/7,
{8},6,6,5,,3/4,,2/5,
{8},3,3,4,,5/6,,4/7,
{8},4/5,4/5,,1/8,1/8,,4/7,
{8},6,6,5,,3/4,,2/5,
{8},3,3,4,,5/6,,4/7,
{8},6,6,5,,3/4,,2/5,
{8},4/5,4/5,,2/7,,,6h[8:9],
{4},5,5,5,
{8}5-1[8:3],,,,,,,6h[1:1],
{8},,,,,,,5h[1:1],
{8},,,,,,,4h[1:1],
{8},,,,,,,3h[1:1],
{8},,,,,,,4h[1:1],
{8},,,,,,,5,
{4},,1/8,1h[4:3]/8h[4:3],
{8},,,,,,2/7,2^4[4:1]/7^5[4:1],
{8},,,,2b/7b,,,6h[8:3],
{8},5,5,,4/7,,3,3h[4:1],
{8},2h[4:1],,1,,4/6,,3h[8:3],
{8},4,4,,5/2qq6[8:5],,,,
{8},,,,,4/5,,4/5,
{8},3/6,3/6h[4:1],,8h[4:1],,1h[4:1],,
{4}3h[4:1],4,2/5,5/6,
{8}4/7,,1/8,1/8,,5/4>5[8:7],,,{1},
{8}4,5,4,,3/6,,1/8,,
{1}7/2h[1:1],
{1}4h[1:1],
{1}6h[1:1],
{4}8h[4:3],,,1,
{8}2/7,,3,2/4,,5/6,,4/7,
{8},4/5,4/5,,4b>5[4:3],,,,
{8},,,,,,,4/5,
{8},3/7,3/7,,1b,,,2/6,
{8},7/8,7-4[4:1]/8-3[4:1],,,,,3/4,
{8},1/8,,3/6,,1-6[4:1]/2-5[4:1],,,
{8},,5/6,,3/7,,1,1,
{8},2b/8b,,,,6^3[4:1],,,
{8},1,1,,3/7h[8:3],,6,6,
{8},1/2,,4/7,,3^6[4:1],,,
{8},8,8,,6/2h[4:1],,3,3q6[2:1],
{8},,,,,,,3/7,
{8},1/2,1-6[4:1]/2-5[4:1],,,,,5/6,
{8},1/8,,3/6,,7-4[4:1]/8-3[4:1],,,
{8},,3/4,,2/6,,8,8,
{8},1b/7b,,,,3/4,,2/5,
{8},1,1-5[8:1],,,,8,8,
{8},3/4,,1/5,,5/6,,4/8h[2:1],
{8},,,1,1-5[4:1],,,,
{8},,6,,7,,8,8,
{8},3/6,3/6,,2/7,,1/8,1h[2:1]/8h[2:1],
{8},,,,,4^1[4:3]/5^8[4:3],,,{1},
{1}2/7,
{1}8h[1:1],
{1}7h[1:1],
{1}6h[1:1],
{1}5h[1:1],
{1}4h[1:1],
{4}3>6[2:1],,,,
E

MASTER

(186){8}2/5,,4,4,5,5,,4/7,4/7,,5,5,4,4,,2/5,2/5,,
3,3,5,4,6,,4-2[8:1]/7,,6,6,4,5,3,,5-7[8:1]/2,,
3,3,5,4,6,,4/7,,4/5,4-1[8:1]/5,,6,6,,4-2[8:1]/7,,
6,6,4,5,3,,5-8[8:1]/2,,3,3,5,4,6,,4-2[8:1]/7,,
6,6,4,5,3,,2/5,,4/5,5-8[8:1]/4,,3,3,2,
2h[8:11],,,4,4,5,5,6,6,7,7,8-4[8:1],,1,1,,

5^8[2:1],,,,,4,,,4^1[2:1],,,,,5,,,
5^8[2:1],,,,,4,,,4^1[2:1],,,,,5,,,
6^1[2:1],,,,,5,,,3^8[2:1],,,,,4,,,
6h[8:5],,,2h[4:1],,,,3/7,3/7,,1/8,2/7,3/6,4b/5b,,4/7,
5^2[8:1]/6,,8,8,7,1,2,3/6,6-1[8:1]/3,,2-5[8:1],,8-4[8:1],,3,,
4^7[8:1]/3,,1,1,2,8,7,2/6,2^7[4:1]/6^3[4:1],,,,,,4/5,,
3/6,,4/5,5-8[8:1]/4,,2,,4/5,4-1[8:1]/5,,8,7,6,,6,8,
1,3-6[8:1],,8,8-4[8:1],,6<3[4:3],,,,,,,,,,,

4/5,4/5,3/6,3/6,2/7,2/7,1/8,1/8,
{1}1h[1:2]/8-5[4:5],,5<4[1:1],{8},,,,,,2/7,,
1h[4:1]/6,,8,8h[4:1]/3,,1,1/8,2/7,,4/5,,3b,3b,4b,5b,6b<3[2:1],,,,,,,,
4/5,,2/6,2b-5[8:1]/6b-1[8:1],,,,,

4/8,,7,7^4[8:1],,1-5[8:1],,4,
4-8[8:1],,2-6[8:1],,7^2[8:1],,4,,
3h[4:1],,4,4-7[8:1],2,1-5[8:1],,8,8,,2b/6b,,,,

5^2[8:1]/6,,8,,7,7-3[8:1],1,
1^4[8:1],,8,8p4[8:1],,3,3,2q6[8:1],,7,7,8p4[8:1],,
3,3,2,1^4[8:1],8,7,6-2[8:1],,
1-5[8:1],,8h[4:1],,6,,2/6,,3/7,3-6[8:1]/7-2[8:1],,,,
5,5-1[8:1],,7-3[8:1],,2,,2^5[8:1]/6^1[8:1],,,,
5,5-2[8:1],7,8-4[8:1],1,1,,,3b/7b,,,,

4^7[8:1]/3,,1,,2,2-6[8:1],8,8^5[8:1],,1,1q5[8:1],,5,
6,7-4[8:1],,1-5[8:1],,8h[2:1],,,,
1,7,5,3,1h[8:3],,,2,,3,,4,4,,4/5,4-1[2:1]/5,,
5,,5,,5,,2/6,,4/8,4v2[4:1]/8v6[4:1],,,,,,
2/6,2V46[2:1]/6V82[2:1],,,,,,,,4/5,4>5[8:15]/5,,,
{1},,6h[1:1],5h[1:1],4h[1:1],3>6[2:1],,,,,E


Re:MASTER

(186){16}
2/5,,3,4,3-8[8:1],,3,,7-4[8:1],,7,,2,,3,,
4/7,,6,5,6-1[8:1],,6,,2-5[8:1],,2,,7,,8,,
2/7,,,,3-8[8:1],4,3,,7-4[8:1],,7,,1,,2,,
3/8,,,,6-1[8:1],5,6,,2-5[8:1],,2,,8,,7,,
1/6,,,,3-8[8:1],4,3,,7-4[8:1],,7,,1,,2,,
3/8,,,,6h[8:1],,8h[8:1],,1h[8:1],,3h[8:1],,5h[8:1],,4,,
3/6,,,,2-5[8:1],1,2,,6-1[8:1],,6,,4,,3,,
2/5,,,,7-4[8:1],8,7,,3-8[8:1],,3,,5,,6,,
4/7,,,,2-5[8:1],1,2,,6-1[8:1],,6,,4,,3,,
2/5,,,,7-4[8:1],8,7,,3-8[8:1],,3,,5,,6,,
4/7,,
{4},1-4[8:1]/5,7-3[8:1]/1,2-6[8:1]/7,5s1[8:3]/2,4h[8:5]/5,,{8},
{1}5-8[2:1],8-5[2:1],4^1[2:1],1^4[2:1],7h[8:21],4^1[2:1],
{8}2h[8:5],,,,,,2/7,,1/8,,1/8,2/7,3/6,4/5,,

1,2-5[8:1]/8,,2,6,6,2,8-5[8:1],
1,2-6[8:1]/8,,5-8[8:1]/2,,1-4[8:1]/5,,7^2[8:1]/1,,5/7,,5,7,8,1,3,
5,4>7[4:1],,6h[4:1],,,,4^1[8:1]/5^8[8:1],,4/5,,7,5,4,2,2>7[4:1],
8,8,,1,8,2/7,,4,5^2[8:1]*^8[8:1],4,5,,3/7,1-5[8:1]/8-4[8:1],,1/8,,2/7,,
4/5,4/5,4/5,3/6,3/6,3/6,3/6,4/5,4/5,2/7,2/7,3/6,3/6,1>8[1:1]/8,,{1}8b,,
1^4[4:3]/8^5[4:3],{8},,,,,,
4^1[8:1]/5,6,4/7,8^5[8:1],2,2/8,,4^1[8:1],7,8h[4:1]/4,,1,,
8b,1b/7b,2b/6b,3b/5b,4b,,

6,5/7,3,2/4,3/6,4/5,4/5,,
2/6,2/6,3/7,4/8,1^6[8:1]/5^2[8:1],,1b/5b,,
8,8-4[8:1]/1,,3/8,2-6[8:1],4,5-8[8:1]/2,,1-5[8:1]/5,,7>4[4:1]/1,,7,,
1h[4:1],,7,1-5[8:1]/7-4[8:1],,1/7,,2/6,4/5,,2b/7b,,,,
7/8,1/6,2/5,,2,1^4[8:1],8,1/7,8^5[8:1],3,3/8,,1^4[8:1],8,1/7,,

5/6,3/5,1h[4:1]/4,,3,5^8[8:1],4,3/5,4^1[8:1],7,4/7,,5<4[8:3],4,3/5,,,,
2b/7b,,1,1-5[8:1]/8,,1/6,7-3[8:1],5,4-1[8:1]/7,,8-4[8:1]/4,,2<5[4:1]/8,,2,,
8h[4:1],,2,2-5[8:1]/8-4[8:1],,2/8,,3/7,4/5,,2b/7b,,,,

3/4,4/6,8h[4:1]/5,,6,8^5[8:1],2,3/8,1^4[8:1],6,1/6,,
8^5[8:1]/3,1,2-7[8:1]/8,,6-3[8:1]/2,,4h[1:1]/6,,,,8,8,7,6,5,,,
6-2[8:1]/3,,1-4[8:1]/6,,1/5,5h[4:1],,4,3/6,7,6/8,2,1/3,1/8,,
2/7,2/7,3/6,4/5,4^1[8:1]/5^8[8:1],,4/5,,,,,,,
{16},4,5,3b/6b,{1},1h[8:43]/8-3[1:1],,2-5[1:1],,5-8[1:1],
{2},{1}1-5[8:1],,,,,E


  • 修正箇所等ありましたら修正・加筆をおねがいします。 -- Sea (2018-06-30 00:05:00)
名前:
コメント:

タグ:

+ タグ編集
  • タグ:

このサイトはreCAPTCHAによって保護されており、Googleの プライバシーポリシー利用規約 が適用されます。

最終更新:2022年06月18日 15:40