うまるん体操

BPM EASY BASIC ADVANCED EXPERT MASTER Re:MASTER
170 2 4 6 8+ 10+ 11

EXPERT MASTER Re:MASTER
譜面制作者 某S氏 緑風 犬三郎 チャン@DP皆伝

EASY


BASIC


ADVANCED


EXPERT


MASTER

(170){4},{2}4/5,4/5,4/5,4/5,4/5,4/5,4/5,{4}4/5,
7^5[8:1]/4,3,2^4[8:1]/5,6,7>4[4:1]/4,5,5,4/5,
2^4[8:1]/5,6,7^5[8:1]/4,3,2<5[4:1]/5,4,4,4/5,
7^5[8:1]/4,3,2^4[8:1]/5,6,7>4[4:1]/4,5,6,4/5,
2^4[8:1]/5,6,7^5[8:1]/4,3,2/5,1/4,4/5,2b/7b,
{8}
2,1,8,7^4[8:1],,2,2,1-5[8:1],,7,6-1[8:1],,2-5[8:1],,8,,
7,8,1,2^5[8:1],,7,7,8-4[8:1],,2,3-8[8:1],,7-4[8:1],,1,,
3,4,5,6-1[8:1],,4,4,3-6[8:1],,8,8^5[8:1],,4^1[8:1],,6,,
6,5,4,3-8[8:1],,5,5,6-3[8:1],,1,{4}1^4[8:1],5,3/7,

1-3[8:1]/8-6[8:1],,1/8,1/8,
1-3[8:1]/8-6[8:1],,1/8,1/8,
7-5[8:1]/8-2[8:1],,1-7[8:1]/2-4[8:1],,
7-5[8:1]/8-2[8:1],,1-7[8:1]/2-4[8:1],,
2h[4:1]/6h[4:1],,3h[4:1]/7h[4:1],,
4/5,2/7,5/6,3-8[8:1]/4-7[8:1],,5-2[8:1]/6-1[8:1],,4-8[8:1]/5,
6-1[8:1],3-8[8:1],5,4/5,
{8}
5>1[4:1]/6,,,8,8,,1/6,,4<8[4:1]/5,,,1,1,,3/8,,
5>1[4:1]/6,,,8,8,,1/6,,4<8[4:1]/5,,,1,1,,3/8,,
{4}
2-5[8:1],6-1[8:1],2-5[8:1],6-1[8:1],2-5[8:1],6-1[8:1],2,2/6,
7^4[8:1],3^8[8:1],7^4[8:1],3^8[8:1],7^4[8:1],3^8[8:1],7,3/7,
1h[2:1],,8h[2:1],,2h[4:1],7h[4:1],2h[4:1],7h[4:1],
{8}3h[8:1],6h[8:1],3h[8:1],6h[8:1],4h[8:1],5h[8:1],
{4}4-2[8:1]*-8[8:1],,,2b/7b,2b/7b,

{8}2/4,1,2/4,1,2/4,,5/7,8,5/7,8,{4}5/7,6-3[8:1]/7q3[8:1],,
2bp6[8:1]/3b-6[8:1],,2-5[8:1]/7-4[8:1],,3/6,4/5,3/6,2b/7b,
{8}2/4,1,2/4,1,2/4,,5/7,8,5/7,8,{4}5/7,6-3[8:1]/7q3[8:1],,
2p6[8:1]/3-6[8:1],,2-5[8:1]/7-4[8:1],,3/6,4/5,2/7,3qq2[4:1]/6pp7[4:1],,,
{8}4/5,4^1[4:1]/5^8[4:1],,,,,4/5,,7-3[8:1],,2,2,1^4[8:1],,7,8^5[8:1],,
{1}4>5[8:5],{8},
{4}5/7,6/8,5/7,6/8,4/5,5h[4:1],3h[4:1],7h[4:1],8>5[2:1],,,,,

{8}1/8,2/7,{4}3/6,1/8,3,
7^5[8:1]/4,3,2^4[8:1]/5,6,7>4[4:1]/4,5,6,4/5,
2^4[8:1]/5,6,7^5[8:1]/4,3,2/5,1/4,
{8}4/5,3,{1}2b/6b,,,E


Re:MASTER

(170){4},{2}4/5,4/5,4/5,4/5,4/5,4/5,{4}4/5,4/5,{2}
4^7[8:1]/5^7[8:1],6^3[8:1]/7<3[8:1],2>1[8:3]/3<1[8:3],,
4^2[8:1]/5^2[8:1],2>6[8:1]/3^6[8:1],6>8[8:3]/7<8[8:3],,
4^7[8:1]/5^7[8:1],6^3[8:1]/7<3[8:1],2>1[8:3]/3<1[8:3],,
4^2[8:1]/5^2[8:1],2>6[8:1]/3^6[8:1],6>8[8:3]/7<8[8:3],
{8},,5w1[8:1],,5b,,
7,8-4[8:1],7,8,,1,2qq6[8:3],2,,,,,8^5[8:1],,,,
2,1-5[8:1],2,1,,8,7pp3[8:3],7,,,,,1^4[8:1],,,,
7,8-4[8:1],7,8,,8,1pp5[8:3]*qq5[8:3],1,,,,,4v1[8:1]/6v1[8:1],,,,
8,1-5[8:1],8,1,,3/6,4qq1[8:3]/5pp8[8:3],4/5,,,,,,1,1,8,
1,,7/8,,1,1,7/8,1,,1,7/8,,1,1,7/8,,{2}3V17[8:1],6V82[8:1],3V17[8:1]/4v6[8:1],5v3[8:1]/6V82[8:1],{8}
8,,1/2,,8,8,1/2,8,,8,1/2,,8,1/2,1/2,1/2,{2}3-5[8:1]/7-1[8:1],2-8[8:1]/6-4[8:1],3qq7[8:3]/7qq3[8:3],,
{8}
6p1[4:1],,,3,3,,2/7,,
3q8[4:1],,,6,6,,2/7,,
6p1[4:1],,,3,3,,2/7,,
{4}4/5,3/6,2/7,
2^5[8:1],1^6[8:1],2-5[8:1],1-6[8:1],
8^3[8:1],7^4[8:1],8-3[8:1],7-4[8:1],1,
1<5[4:1],5>1[4:1],1<5[4:1],5^2[4:1],
2^7[4:1],7^4[4:1],4^1[4:1],{1}1bs5[4:9]*>5[4:9],,,
{4}5w1[8:1],5b,,3b/6b,1b-4[8:1]/8b,1b-6[8:1]/2b,1bw5[8:1]/8b,1b,
{8}6,6h[4:1],,8h[4:1],,1h[4:1],,3,,
6>2[8:1]*V42[8:1],6,,,3<7[8:1]*V57[8:1],3,,,3^6[8:1]/6-3[8:1],
{4},,2/7,1b-4[8:1]/8b,1b-6[8:1]/2b,1bw5[8:1]/8b,1b,
{8}6,6h[4:1],,8h[4:1],,1,1,,,
5>1[8:1]*V31[8:1],5,,,4<8[8:1]*V68[8:1],4,,,2h[4:1],,1,
8<4[4:1],,4q8[4:1],,8>4[4:1]*^5[4:1],,,,,,
8,1,2v3[4:1]/7v6[4:1],2/7,,,,,
1/2,,7/8,,2q6[8:1],,2,7p3[8:1],,7,,1>7[4:1],,,,,,,
1v6[8:1]/6-1[8:1],,1/6,,,1/8,3/6,,
4qq8[2:1]/3,,3/4,,,,1,,
7h[4:3]/8>5[2:1],,8,,,,,,,,,1,1-4[8:1],,,,
{2}4^7[8:1]/5^7[8:1],6^3[8:1]/7<3[8:1],2>1[8:3]/3<1[8:3],{8},,,4b/5b,
{2}4b^2[8:1]/5b^2[8:1],2>6[8:1]/3^6[8:1],6>8[8:3]/7<8[8:3],
{4},4v2[8:1]/8v6[8:1],{1}4b/8b,,,,E


  • 修正箇所等ありましたら修正・加筆をおねがいします。 -- Sea (2018-06-30 00:10:00)
名前:
コメント:

タグ:

+ タグ編集
  • タグ:

このサイトはreCAPTCHAによって保護されており、Googleの プライバシーポリシー利用規約 が適用されます。

最終更新:2020年05月10日 18:00