Seyana. ~何でも言うことを聞いてくれるアカネチャン~

BPM EASY BASIC ADVANCED EXPERT MASTER Re:MASTER
144 3 4 6 9+ 12+ -

EXPERT MASTER Re:MASTER
譜面制作者 Moon Strix 玉子豆腐 -

EASY

(144){1}8,8,8,,8-4[4:3],,,4/5,
4-8[4:3],,8-4[4:3],,4,3,2,1,
{2}
1,1,1,,2,2,2,,3,3,3,,4,4,4,,
5,5,5,,6,6,6,,7,7,7,,8,8,8,,
1-5[4:3],,,,{4},6,,7,,8,,8,
{1}8,7h[1:1],,6h[1:1],,5h[1:1],,4h[1:1],,
{4}
5,5,5,,6,6,6,,7,7,7,,8b,,,,1,1,1,,2,2,2,,3,3,3,,4/5,,,,
4,4,4,,3,3,3,,2,2,2,,1b,,,,8,8,8,,7,7,7,,6,6,6,,
{1}5-8[4:3],,1b,{4}8,8,,,7,7,,,6,6,,,
{1}4/5,4,3,2,1,1-4[4:3],,,,,,E


BASIC

(144){1},,,,1-4[4:3],,8-5[4:3],,
{2}1,1,1,,2,2,2,,3/4,3/4,3/4,,5/6,5/6,5/6,,
8,8,7,7,6,6,{4}5,5,{2}4/5,4,4,3,3,2,2,{4}1,1,1/8,,
{1}2h[2:1],3h[2:1],4h[2:1],{4}5,5,4/5,,
{1}6h[2:1],7h[2:1],8h[2:1],{4}1,1,1/8,,
{1}8-5[4:3],,1-4[4:3],,4/5,
6h[2:3],5h[2:1],3h[2:3],4h[2:1],
2h[2:3],1h[2:1],7h[2:3],8h[2:1],
{4}
1b,1,1,,2,2,2,,3,3,3,,4,4,4/5,,
5,5,5,,6,6,6,,7,7,7,,8,8,1/8,,
7,7,6,6,5,5,4/5,,3,3,2,2,1,1,1/8,,
2,2,3,3,4,4,4/5,,5,5,6,6,7,7,7/8,,
2,2,1/2,,1b/8b,,,,
2,2,1/2,,3,3,3/4,,6,6,5/6,,7,7,7/8,,
1/2,1/2,1/2,,7/8,7/8,7/8,,1/2,1/2,1/2,,
{1}1h[1:2]/8h[1:2],,,,,,,E


ADVANCED

(144){2}3,3/4,6,5/6,3,3/4,5,3/6,{1}2^5[8:3],7^4[8:3],
{4}3,3,4,4/5,4h[2:1]/5h[2:1],,,4/5<3[2:3],{1},,
{4}2,3,4,5/6,7,6,4/5,,4,4,3,3,2,2,1/2,,6,6,7,7,1b/8b,,2/7,,
6h[2:1],5,5,,3h[2:1],4,4,,5h[2:1],4,4,,4/5,4/5,4/5,,
3h[2:1],4,4,,6h[2:1],5,5,,4h[2:1],5,5,,4/5,4/5,3/6,,
2h[2:1],1,1,,7h[2:1],8,8,,1h[2:1],8,8,,1/8,1/8,2/7,,
7h[2:1],8,8,,2h[2:1],1,1,,4h[2:1],5,5,,4/5,3/6,2/7,
{1}1/8^5[4:1],4^1[4:1],8^5[4:1],4^1[4:1],{4}1/8,2b/7b,,,,
6,6,5,5,4,3,2/5,,3,3,4,4,5,6,4/7,,
3,3,2/4,,6,6,5/7,,4,4,5,5,4,5,4,3/6,
2b,1/2,7,7/8,2,1/2,3/8,,6,5/6,3,3-8[8:3]/4-7[8:3],,,,1/6,
7,7/8,2,1/2,7,7/8,1/6,,3,3/4,6,5-2[8:3]/6-1[8:3],,,,3/8,
4,3/5,6,5/7,3,2/4,1/5,,5,4/6,3,2<5[2:1]/4,,,,3/4,
5,4/6,3,2/4,6,5/7,4/8,,4,3/5,6,5/7,4,3/5,2/6,1-4[2:1]*-6[2:1]/6,,,,,
4h[4:1]/5h[4:1],,4/5,4>6[2:3]/5,{1},,{4}
7,7/8,2,1/2,8,1,2/7,,4/5,6,4/5,3,5/6,7,3/4,2,
1,2/8,3/7,4/6,5,4,3,2/5,3,4,4/5,
{1}4h[4:1]/5h[4:1],,,,E


EXPERT

(144){2},{16},,,3b,,{4},,,,4b,
6h[4:1],5,3h[4:1],4,5h[4:1]/6,4h[4:1],{8}3h[4:1],6,6,,2/7,,
{16}
2h[16:3],,,4,,,,,7h[16:3],,,5,,,,,
3h[16:3],,,1,,,,,6h[16:3],,,8h[16:13],{4},5,6,7,1/6,
{8}2,3,4,,3/6,2/7,{1}1p8[2:3]/8<1[2:3],,

{4}2h[4:1]/1,5,7h[4:1]/8,4,2h[4:1]/1,5,{16}8,,8,,1/8,,,
{2}2-4[8:1],1-5[8:1]/3,2-4[8:1]/8,1-5[8:1]/3,2-4[8:1]/8,1-5[8:1]/3,
{16}2b/7b,{8},2,1/3,,6,5/7,,,
1/7,,2/4,,3,4,3,,2h[4:1],,8h[4:1],,1b,,4/5,,
2/8,,5/7,,6,5,6,,7h[4:1],,1h[4:1],,8,8,1,1b,
{4}7h[4:1],5,2h[4:1],4,6<2[4:1]/2v4[4:1],,,4b,
5h[4:1]/4,7,4h[4:1]/5,{16}8,,1,,,,2/8,,,5/7,{8},2b/4b,,

4/5,,1/2,,
2^4[8:1]/7,,8,,2,2b,1,,
2^5[8:1]/7,,8,,2,2b,8,,
1^4[8:1]/6,,7,,1,1b,7,,
8^3[8:1]/5,,6,,1,1b,7,,
6h[4:1]/8,,4h[4:1],,2,2b,3,,
5h[4:1]/4,,7h[4:1],,1,1b,2,,
6,5,4,,2,1b,8,{16}2/8,,,2/4,,,5/7,,,,
{2}
7-2[8:1]/6,3-6[8:1]/2,5-8[8:1]/4,
1-4[8:1]/8,8^5[8:1]/2,4^1[8:1]/7,
{16}1/8,,,2h[16:17]/7h[16:17],,,,,{1},
{8}1b/8b,2b/7b,3b/6b,4b/5b,,,
{1}1>7[2:1]/8h[4:3],5<3[2:1]/4h[4:3],8<2[2:1]/1h[4:3],4>6[2:1]/5h[4:3],
{2}4-1[8:1]/2,4-8[8:1]/2,4-7[8:1]/2,4-6[8:1]/2,2h[4:1]/4h[4:1],
{8}8b,7b,6b,5b,4b,3b,2b,1b,8b,,

6,7,{4}1/8,2-4[8:1]/1,1,2-5[8:1]/8,8,2-6[8:1]/7,7,{8}
3,2,{4}1h[4:3]/7,8<3[4:1],,,{16}2/4,,,5/7,{8},1/8,,,
3,2,{4}1/8,7-5[8:1]/8,8,7-4[8:1]/1,1,7-3[8:1]/2,2,{8}
6,7,{4}8h[4:3]/2,1>6[4:1],,,{16}2/4,,,5/7,,,4h[4:1]/5h[4:1],,{4},
2-5[8:1]/6,8,7-4[8:1]/3,1,2-5[8:1]/6,8,7-4[8:1]/3,1,
{8}2,3,{4}4/8,3^8[4:1]/7^4[4:1],,,{16}1/3,,,6/8,,,2/7,,{4},
6^1[8:1]/5,2,3^8[8:1]/4,7,6^1[8:1]/5,2,3^8[8:1]/4,7,
{8}7,6,{4}1/5,2^5[8:1]/6^1[8:1],,,{16}
2/4,,,5/7,,,2/5,,,4h[4:1]/7h[4:1],,,,,,,,
5/7,,,2/4,,,4/7,{8},2h[4:1]/5h[4:1],,,1b/8b,,,1,8,1,2/7,,

{4}4>8[4:3]/5,5,5,5,5,{8}3/6,4,5,4,3/6,,
{4}5<1[4:3]/4,4,4,4,4,3/5,{8}8,8,1/8,
{2}2-4[8:1],1-5[8:1]/3,2-4[8:1]/8,1-5[8:1]/3,2-4[8:1]/8,1-5[8:1]/3,
{8}2b/7b,,2,1/3,,7,6/8,,3/6,4/5,,2/7,1/8,
{16}1h[16:5]/8h[16:5],,,,,,,{1}2/7,,,,,E


MASTER

(144){16}6b,,4,4,6,5,6,5,,,,,,,,,6b,,
4,4,6,5,6,5,7,5,7,,,,,,{12}6b,6,6,{16},,,,,
5h[8:1],,3h[8:1],,6h[8:1],,4,6,5,6,5,7,4,,,,,,6b,,6b,,,,1/8,,,,4,5,,
2h[16:3]/7h[16:3],,,,,4,5,,3h[16:3]/6h[16:3],,,,,4,5,,
2h[16:3]/7h[16:3],,,,,4,5,,{1}1>8[2:1]/8,{16},
{2}1b^4[4:1]/8b^5[4:1],{8},,4/5,3/6,
{1}4qq1[2:3]/5pp8[2:3],,

{16}
1/2,,3,,4,,5/7,,6,,6,5,,6,5,,
7/8,,6,,5,,2/4,,3,,3,4,,4,3,
{2}4-7[8:1],5-2[8:1]/6,4-8[8:1]/3,5-1[8:1]/6,
3-8[8:1]/4-8[8:1],5-1[8:1]/6-1[8:1],
{16}3/7,,,1/6,,7,8,,,3/8,,2,1,{8},,

1/8,2,3h[4:1],4,6h[4:1],5,3h[4:1],4,{16}1,2,{8}1,3/8,,6,7/8,3,1/2,
{16}3,4,3,,6,5,6,,4/7,,,,1/2,,,,7,5,7,,2,4,{8}2,2/5,7/8,2/5,,4/6,3,1/2,8,
{4}1-5[8:1]/7-3[8:1],1/7,1-4[8:1]/7-2[8:1],1v6[8:1]/7,1,1b,
{16}7,8,7,,{4}1-7[8:1]/2-6[8:1],1-5[8:1]/2-4[8:1],1/2,
{16}5/6,,3/4,,4,5,4,,2b/7b,,,,

2,1,2,,3/4,,2/5,,3/4,,3,4,3,5,2,5,,,7/8,,5/6,,3/8,,5/6,,
6,5,6,4,7,4,,,1/2,,3/4,,1/2,,2,1,2,8,3,7,4,6,5,,1/7,,4/6,,1/7,,
7,8,7,8,6,1,5,2,4,3,,,6,5,6,5,
{8}6^1[8:1],4,2,,3^8[8:1],5,7,,1s5[4:1]/8s4[4:1],,,,,,
{16}1/8,1/8,,5,4,6,3,7,2-5[8:1]*-6[8:1],,,,,,,,
7,8,6,1,5,2,4,3,,6,5,6,2b,,,,2/5,,2/5,,6,5,,
4h[8:1]/7h[8:1],,,4/7,,3,4,,2h[8:1]/5h[8:1],,,2/5,,7,8,,
1h[8:1]/6h[8:1],,,1/6,,2,1,,3h[8:1]/8h[8:1],,,3/8,,8,1,,
2h[8:1]/7h[8:1],,,2/7,,4,5,,2bqq5[2:1]/7bpp4[2:1],{1},2b/7b,

8<1[2:5]/1,,8<1[8:13],,{2}8<1[2:1],8<1[8:3],
{8}8,7,6,5,4,3,2,1,{16}8,7,6,5,4,3,2,1,
{32}8,7,6,5,4,3,2,1,8,7,6,5,4,3,2,1,
{8}4b/8b,,,,,,

6-1[8:1],5/7,,,{16}
3-8[8:1]/4,3h[8:1]/4,,5,,,,,
6-1[8:1]/5,6h[8:1]/5,,4,,,,,3-8[8:1]/4,3h[8:1]/4,,5,{8},,
6-1[8:1],5/7,,,{16}3/4,3/4,,1/6,,,7,8,7,,1/6,,7b/8b,,,3b/4b,{8},1b/6b,,,
3-7[8:1],2/4,,,{16}
5-1[8:1]/6,5h[8:1]/6,,8,,,,,
4-8[8:1]/3,4h[8:1]/3,,1,,,,,5-1[8:1]/6,5h[8:1]/6,,8,{8},,
3-7[8:1],2/4,,,{16}5/6,5/6,,3/8,,,2,1,2,,4/7,,4/7,,,3/6,,,
2h[8:3]/5h[8:3],,,,,,,,,,2b/5b,,,,
7q4[8:1]/8,7h[8:1]/8,,3,,,,,
2V84[8:1]/1,2h[8:1]/1,,5,,,,,
7V53[8:1]/8,7h[8:1]/8,,2,,,,,
1-6[8:1]/2-6[8:1],,3/8,,,,,,
5/6,5/6,,3/8,,,2,1,3,,5/6,,1b/2b,,,5b/6b,,,3b/8b,,,,,,
7-3[8:1]/8-3[8:1],,1/6,,,,,,
2p5[8:1]/1,2h[8:1]/1,,6,,,,,
7V15[8:1]/8,7h[8:1]/8,,4,,,,,
2V46[8:1]/1,2h[8:1]/1,,7,,,,,
7-3[8:1]/8-3[8:1],,1/6,,,,,,
3/4,3/4,,1/6,,,7,8,6,,2/4,,4/7,,,2/5,,,4/8,,,1/5,,,5,4,5,4,,
2/6,,,4/8,,,3/7,,,1/8,,1,8,1,,{1}2b/7b,

{16}
1/8,,7,,5,,3,4,,6,5,,3,,2/4,,
1/8,,2,,4,,6,5,,3,4,,6,,5/7,,
1/8,,7,,5,,3,4,,6,5,,3,,2/4,,
1/8,,2,,4,,6,5,,3,4,,6,,5/6,
{2}
5-1[8:1]/6-1[8:1],3-8[8:1]/4-8[8:1],
4-1[8:1]/6-1[8:1],3-8[8:1]/5-8[8:1],
5w1[8:1],4w8[8:1],
{16}2b/6b,,,
1/6,,7,8,,,3/8,,2,1,,,4/7,,6,5,,,
2/5,,3,4,,,4/7,,1,8,1,
{1}2b/7b,,,,,E


Re:MASTER


  • 修正箇所等ありましたら修正・加筆をおねがいします。 -- Sea (2018-06-30 22:05:00)
  • エラー28 -- 匿名 (2018-07-27 16:50:39)
  • 98ノート目(13行) -- 名無しさん (2018-07-27 16:51:10)
  • Eachのボタンが重複していますと出てきます -- 名無しさん (2018-07-27 16:51:42)
  • ↑環境はmaipadですか?もしそうであるなら&title、&wholebpm、&freemsg、&lv_5、&seek、&wait、&inote~で考えると譜面自体の7行目付近、つまりはPiNK以降の書式pp/qqが含まれた行でエラーがでています。maipadはPiNK以降のスライドのsimai書式には非対応なので自分用に書き換えるなどしてください。また、似たような症状が他の譜面でも見受けられると思われますのであらかじめ検証の上、以降はQ&Aを参照して下さい。 -- 名無しさん (2018-07-27 19:26:04)
名前:
コメント:

タグ:

+ タグ編集
  • タグ:

このサイトはreCAPTCHAによって保護されており、Googleの プライバシーポリシー利用規約 が適用されます。

最終更新:2020年09月27日 19:44