LOVE EAST

BPM EASY BASIC ADVANCED EXPERT MASTER Re:MASTER
168 2 4 6 9+ 12 -

EXPERT MASTER Re:MASTER
譜面制作者 サファ太 LabiLabi -

EASY

(168){1},,,,,,,,7,7,8,8,1,1,2,2,
{2}1,1,1,,2,2,2,,3,3,3,,4,4,4,,5,5,5,,6,6,6,,7,7,7,,8,8,8b,,
{1}7h[1:1],,8h[1:1],,1h[1:1],,2h[1:1],,3-6[4:3],,7-2[4:3],,1/8,1/8,
{4}8,8,,,7,7,,,6,6,,,5,5,,,4,4,,,3,3,,,2,2,,,1,1,,,
{1}1-4[4:3],,5-8[4:3],,
{4}1,1,,,2,2,,,3,3,,,4,4,,,5,5,,,6,6,,,7,7,,,8,8,,,
{1}1h[1:1],,8b,7,6,5,4,3,2,1,{2}2,2,2,,3,3,3,,4,4,4,,5,5,5,,6,6,
{1}6-3[4:3],,2b,,,,,,E


BASIC

(168){1}1,,8,,1,1,8,8,
{4}1,,1,,2,,2,,3,,3,,4,4,4/5,,5,,5,,6,,6,,7,,7,,8,8,1/8,,
{2}7h[2:1],,6,6,5h[2:1],,4,4,3h[2:1],,2,2,1h[2:1],,8,8,
{4}1,1,1,,2h[2:1],,,,3,3,3,,4h[2:1],,,,5,5,5,,6h[2:1],,,,7,7,7,,{1}8h[2:1],
1-5[4:3],,8-4[4:3],,1-6[4:3],,8-3[4:3],,1-5[4:3],,
{2}8,8,7/8,7/8,1,1,1/2,1/2,
{4}
8b,8,8,,7,7,7,,6,6,6,,5,4,4/5,,
4,4,4,,3,3,3,,2,2,2,,1,8,1/8,,
2,2,2,,3,3,3/4,,5,5,5,,6,6,5/6,,
7h[2:1]/8h[2:1],,,,6,6,6,,4h[2:1]/5h[2:1],,,,3,3,3,,
1h[2:1]/2h[2:1],,,,8,8,8,,7h[2:1]/8h[2:1],,,,1,1,1,,
8,8,8,,1,1,1b/8b,,
2,2,2,,3,3,3,,4,4,4,,4/5,4/5,4/5,,
6,6,6,,7,7,7,,8,8,8,,1/8,1/8,1/8,,
7,7,7,,6,6,6,,5,5,5,,4/5,4/5,4/5,,
3,3,3,,2,2,2,,1,1,1,,1/8,1/8,1/8,,
7/8,7/8,7/8,,1/2,1/2,1/2,,1/8,1/8,1/8,,
{1}1b/8b,,,,,,E


ADVANCED

(168){2}6h[2:1],5,3h[2:1],4,6h[2:1],5,3h[2:1],4,
7h[2:1],8,2h[2:1],1,8h[2:1],1,1-4[2:1]/8-5[2:1],,
{4}6b,6,5,5,6,6,5/6,,3,3,4,4,3,4,3/4,,
7,7,8,8,7,8,7/8,,1,1,8,8,1h[4:1]/8h[4:1],,2/7,,
6,6,5,,3,3,4,,6,6,5,,4/5,4/5,3/6,,
2,2,1,,7,7,8,,2,2,1,1,8,1,2/7,,
6,6,5/6,,3,3,3/4,,6,6,5,5,6,5,5/6,,
2,2,1/2,,7,7,7/8,,1,8,1/8,1^4[2:1]/8^5[2:1],{2},,
6,5/6,3,3/4,6,5/7,3,2/4,2h[2:1]/7h[2:1],,{4}1/8,1/8,2/7,,
6,5,4/7,,3,4,2/5,,7,6,5,3/4,2,3,4/5,4>5[2:3]/5,{1},,
{4}3,3,2,2,1,8,2b/7b,,
6h[4:1],5,4/7,,7,8,1,2,3h[4:1],4,6h[4:1],5,4h[4:1],5,3b/6b,,
3h[4:1],4,2/5,,2,1,8,7,6h[4:1],5,3h[4:1],4,5h[4:1],4,2/7,,
4,3/5,6,7>4[2:1]/5,,,,,
5,4/6,3,2<5[2:1]/4,,,,,
3h[4:1]/4h[4:1],,5h[4:1]/6h[4:1],,3/4,2/5,2/6,,
5h[4:1]/6h[4:1],,3h[4:1]/4h[4:1],,5/6,4/7,3/8,,
1h[4:1]/2h[4:1],,7h[4:1]/8h[4:1],,1/2,3/8,4/7,,
7h[4:1]/8h[4:1],,1h[4:1]/2h[4:1],,7/8,1/6,2/5,,
2,1,7/8,7/8,6,7,1/8,1b/8b,
2/7,2/7,3/6,3/6,4/5,4/5,4/5,,
3,4,2/5,,6,5,4/7,,2,1,3/8,,7,8,1/6,,7/8,7/8,1/2,1^6[2:1]/2^5[2:1],,,,,
4,3,1/2,,5,6,7/8,,4,4,3,3,2,1,3/8,,
5,6,7/8,,4,3,1/2,,5/6,5/6,3/4,3^8[2:1]/4^7[2:1],,,,,
1,2,3,4,5,6,7,1^4[2:1]/8^5[2:1],
{1},2b/7b,,,,,,E


EXPERT

(168){2}
3h[2:1]/6b,4h[2:1],5h[2:1],6,7h[2:1]/4b,6h[2:1],5h[2:1],4,
2h[2:1]/7b,1h[2:1],8h[2:1],7,6h[2:1]/1b,7h[2:1],8h[2:1],1,
{4}3,4,3,2/5,6,5,6,4/7,2,1,2,3>6[2:1]/8,,,,1/8,
5h[4:1]/7h[4:1],,2h[4:1]/4h[4:1],,5/7,4/5,2b/4b,,
3,2/4,5,6<2[2:1]*q3[2:1]/4,,,,4/5,
3,3/4,6,5/6,3h[4:3],4,2,4,6,5/6,3,3/4,7h[8:3],{8}8,8,,1/6,{4}1/6,
7,7/8,2,1/2,7h[4:3],8,6,8,6,5/6,3,3/4,6h[8:3],{8}5,5,,4b/7b,{4},
3,2/4,6,5/7,2h[4:3],1,3,1,6,5/7,3,2/4,7h[8:3],{8}8,8,,1/6,{4}1/6,
2/7,4/5,3,2/4,6h[8:3],{8}5,5,,4/7,{4}4/7,1/8,1/8,2/7,2v3[2:1]/7v6[2:1],,,,4/5,
{2}6h[2:1],5h[2:1],4^7[2:1],,3h[2:1],4h[2:1],5^2[2:1],,8h[2:1],1h[2:1],{4}8,1/7,2b/6b,,
{8}
3h[8:5],,4,4h[4:1],,,2/5,,6h[8:5],,5,5h[4:1],,,4/7,,
2h[8:5],,1,1h[4:1],,,3/8,,7h[8:5],,8,8h[4:1],,,6<4[2:3]/1,,{1},,
{8}3,3,4,2,6,6,5,7,4,5,{4}4/5,2b/7b,7-4[8:1],
2-5[8:1],6<3[4:1],,,{8}6,6,5/7,,3,3,2/4,,
{2}1-4[8:1]/5-8[8:1],4-1[8:1]/8-5[8:1],1-4[8:1]/5-8[8:1],{4}3b/7b,2b-5[8:1]/6b,
7-4[8:1],3>6[4:1],,,{8}3,3,2/4,,6,6,5/7,,
{2}4-1[8:1]/8-5[8:1],1-4[8:1]/5-8[8:1],4bqq1[2:1]/8bqq5[2:1],,
{8}
3,4,2/5,,6,5,7-4[8:1]/4,,1-5[8:1],,8,,2/7,,,,
6,5,4/7,,3,4,{4}2-5[8:1]/5,8-4[8:1],1,2/7,,
5/6,2/8,5-2[8:1]*-8[8:1]/6,,1,3/4,7,5/6,
3/4,1/7,4-1[8:1]*-7[8:1]/3,,8,5/6,1,3/4,
5/6,1/8,5-2[8:1]/6-1[8:1],,3/8,4/5,1/6,4/5,
3/4,1/8,3-8[8:1]/4-7[8:1],,1/6,4/5,3/8,1-5[8:1],
7-4[8:1],2<5[4:1],,,{8}3,3,2/4,,6,6,5<4[2:3]/7,,{1},,
{4}1/2,3/8,7/8,1/6,2h[4:1]/7h[4:1],,
{8}4/5,4/5,{4}4/5,6h[4:3],5,7,1,3h[4:3],4,2,8,7h[2:1]/2,1,8,4/5,2h[2:1]/7,8,1,4/5,
6,5/7,3,2/4,6,7h[4:1]/5,8,1/6,3/4,2/5,5/6,4/7,3h[4:1]/6h[4:1],,
{8}1/8,1/8,{4}1/8,2h[4:3],1,3,5,7h[4:3],8,6,4,6h[2:1]/3,4,5,1/8,3h[2:1]/6,5,4,1/8-4[8:1],
2-5[8:1],7>4[4:1],,,5/6,3/4,5/7,4pp4[2:1]*qq4[2:1]/2,
{1},2b/7b,,,,,,E


MASTER

(168){2}6h[2:3]/2b,4,4,4,3h[2:3]/7b,5,5,5,
{4}7h[4:7]/4b,4,3,3,2,2,1,1,2h[4:7]/5b,5,6,6,7,7,8-4[8:1],,3-7[8:1]*-8[8:1],,
{16}2h[16:3],,,4h[16:3],,,5,,8h[16:3],,,6h[16:3],,,5,,{2}4-2[8:1]*-8[8:1],6-1[8:1]*-2[8:1],
{16}7h[16:3],,,5h[16:3],{8},4<8[4:1],1h[4:1],,,,1/2,,8,7,
1-4[8:1]/6-3[8:1],,,,5/6,4,3,2,1^4[8:1],,1^6[8:1],,1,,3,4,
{2}5-1[8:1]/6-1[8:1],3-8[8:1]/4-8[8:1],1pp4[2:1]/8qq5[2:1],,

{8}
6-3[8:1]/1,,,,2,2,1/2,,8^5[4:1],,5^2[4:1],,2,,8,,
3-6[8:1]/8,,,,7,7,7/8,,1^4[4:1],,4^7[4:1],,7,,1,,
5-8[8:1]/2,,,,3,3,3/4,,7^4[4:1],,4^1[4:1],,1,,6,,
4-1[8:1]/7,,,,6,6,5/6,,3s7[4:1]/5,,,,,,2/6,,
1-5[8:1]/8h[4:1],,1,,3/4,3,3/4,,2-6[8:1],6-2[8:1],,,7-2[8:1]*-4[8:1],,,,
8-4[8:1]/1h[4:1],,8,,5/6,6,5/6,,7-3[8:1],3-7[8:1],,,1-4[8:1]*-6[8:1],,,,
2-6[8:1]/5h[4:1],,2,,7/8,7,7/8,,1-5[8:1],5-1[8:1],,,7-2[8:1]*-4[8:1],,,,
1-6[8:1],1,8-3[8:1],8,2-5[8:1],2,6<3[2:1]*q3[2:1],,{1},
7>4[2:1]/1h[4:3],6>1[2:1]/4h[4:3],2<5[2:1]/8h[4:3],3<8[2:1]/5h[4:3],
{2}2h[4:3]/7h[4:1],4h[1:1],{8}5,5,5,5,5,,3/6,,
2,1,8,7,6-1[8:1]/1,,,,7,8,1,2,{2}3-8[8:1]/8,
5-1[8:1]/6,4-8[8:1]/3,5q4[2:1]/6<3[2:1],,
{4}
4h[8:1]/5h[8:1],3h[8:1]/4h[8:1],4h[8:1]/5h[8:1],5h[8:1]/6h[8:1],
4h[8:1]/5h[8:1],2h[8:1]/4h[8:1],4h[8:1]/5h[8:1],5h[8:1]/7h[8:1],

{16}
4/5,,3,4,2,,6,5,7,,3,4,2,,6,5,7,,4,5,3,6,2,7,1-5[8:1],8,1,8,1b,,,,
7b/8b,,7/8,,3,4,3,,{4}4-8[8:1]/7-5[8:1],,2h[8:1]/4h[8:1],5h[8:1]/7h[8:1],
{16}4/5,,,2/7,,,1/4,,{2}5-1[8:1]*-7[8:1],4-2[8:1]*-8[8:1],
{16}3/4,,,6/7,,,1/2,,7b-4[8:1],8b,7b,8b,7b,,,,
1/2,,1/2,,6,5,6,,{4}2-4[8:1]/5-1[8:1],,5h[8:1]/7h[8:1],2h[8:1]/4h[8:1],
{16}3/5,,,2/7,,,5/8,,{2}4-2[8:1]*-8[8:1],5-1[8:1]*-7[8:1],
{16}5/6,,,2/3,,,7/8,,2b-5[8:1],1b,2b,1b,2b,,,,
7-4[8:1],8,6,1,7,,,,2-5[8:1],1,3,8,2,,,,7/8,,5,,7/8,,1,,4-1[8:1]/5-8[8:1],,,,,,,,
2-5[8:1],1,3,8,2,,,,7-4[8:1],8,6,1,7,,,,2h[8:1],,8,1,7,2,6,3,{8}5,,2b/7b,,
1-5[8:1]/2-4[8:1],,1/2,,7-5[8:1]/8-4[8:1],,7/8,,3h[4:1],1,4h[4:1],1,3h[4:1],1,5,1,
7-5[8:1]/8-4[8:1],,7/8,,1-5[8:1]/2-4[8:1],,1/2,,6h[4:1],8,5h[4:1],8,6h[4:1],8,4,8,
1b-6[8:1]/2b-5[8:1],,1b/2b,,7b-4[8:1]/8b-3[8:1],,7b/8b,,3h[4:1],1,5h[4:1],1,4h[4:1],1,6,1,
7b-4[8:1]/8b-3[8:1],,7b/8b,,1b-6[8:1]/2b-5[8:1],,1b/2b,,6h[4:1],8,4h[4:1],8,5h[4:1],8,3,8,
{16}5/6,,5/6,,3,4,3,,{2}2-5[8:1]/7-4[8:1],3qq5[4:1]/6pp4[4:1],{4},1b/8b,

{16}2,,2,,3/4,,4/5,,7h[16:3],,,5h[16:3],,,4,,1h[16:3],,,3h[16:3],,,4,,
{2}5-1[8:1]/6-2[8:1],3-7[8:1]*-8[8:1],{16}2h[16:3],,,4h[16:3],
{8},5>2[4:1],8h[4:1],,,,7/8,,1,2,
3-6[8:1]/8-5[8:1],,3/8,,3/4,5,6,7,8^5[8:1],,8^3[8:1],,8,,7,6,
4-8[8:1],4,5-7[8:1],5,4-2[8:1],4,5,,3-6[8:1]/7-2[8:1],,,,4-1[8:1]/8-5[8:1],,,,
{16}7,,7,,5/6,,4/5,,2h[16:3],,,4h[16:3],,,5,,8h[16:3],,,5h[16:3],,,4,,
{4}3-7[8:1]/4-8[8:1],,4-1[8:1]/5,8b,4-1[8:1]/5,8b,4-1[8:1]/5,8b,{8}8b/1,8b/2,8b/3,8b/4,
5-8[8:1]/6-3[8:1],,5/6,,1/2,8,7,6,4-2[8:1]/5-1[8:1],,4-8[8:1]/5-7[8:1],,4/5,,3,4,
5-1[8:1],5,4-2[8:1],4,5-7[8:1],5,4,,2-7[8:1]/6-3[8:1],,,,1-4[8:1]/5-8[8:1],,,,
{16}
1,,5,4,5,4,5,,2-5[8:1]/7-4[8:1],,,,2/7,,,,3,6,3,6,2,7,2,7,
1/8,,,5/6,,,2/3,,5pp8[2:1]/4,,,,,,,,,,1,,1,,1,,
{1}1b/8b,,,,,,E

Re:MASTER


  • 修正箇所等ありましたら修正・加筆をおねがいします。 -- Sea (2018-06-30 22:10:00)
名前:
コメント:

タグ:

+ タグ編集
  • タグ:

このサイトはreCAPTCHAによって保護されており、Googleの プライバシーポリシー利用規約 が適用されます。

最終更新:2021年05月02日 20:18