Fist Bump

BPM EASY BASIC ADVANCED EXPERT MASTER Re:MASTER
217 3 5 7+ 10 12 -

EXPERT MASTER Re:MASTER
譜面制作者 某S氏 玉子豆腐 -

EASY

(217){1},,,,,,
{4}1,1,,,,,,,2,2,,,,,,,3,3,,,,,,,4,4,{2},4/5,,
5,5,5,,6,6,6,,7,7,7,,8,8,8,,1,1,1,,2,2,2,,3,3,3,,4,4,4b,,
{1}3-6[4:3],,7-2[4:3],,2-6[4:3],,7-3[4:3],,3h[1:1],,4h[1:1],,5h[1:1],,6h[1:1],,4/5,
{4},{2}
5,5,5,,6,6,6,,7,7,7,,8,{4}8,8,{2},,
1,1,1,,2,2,2,,3,3,3,,4,{4}4,4,{2},,
4,4,3,3,2,2,1,1,8,8,7,7,6,6,{4}4/5,4/5,{2},
5,5,6,6,7,7,8,8,1,1,2,2,3,3,{4}4/5,4/5,,
{2}
4-1[4:3],,,,1,1,1,,8-5[4:3],,,,5,5,5,,
5-8[4:3],,,,8,8,8,,1-4[4:3],,,,4,4,{1}4,4/5,,
{4}5,5,,,6,6,,,7,7,,,8,8,,,1,1,,,2,2,,,3,3,,,4,4,,,5,5,,,4/5,,,,
{1}6-3[4:3],,2-7[4:3],,8-4[4:3],,,,,,,E


BASIC

(217){1},,,,,,{4}
1,1,,,2,2,,,3,3,,,4,4,,,5,5,,,6,6,,,7,7,{2},1/8,,
8h[2:1],,7,7,6h[2:1],,5,5,4h[2:1],,3,3,2h[2:1],,1/8,,
{4}1,,1,,1,1,1,,8,,8,,1/8,,,,7,,7,,7,7,7,,6,,6,,{1}5/6,
4-1[4:3],,{4}1,,1,,1,1,1,,{2}8-5[4:3],,,,5,5,4,4,
3h[2:1],,2,2,1h[2:1],,8,8,7h[2:1],,6,6,5h[2:1],,4/5,4/5,4b/5b,,
{4}
5,5,5,,6,6,6,,7,7,7,,8,8,1/8,,1,1,1,,2,2,2,,3,3,3,,4/5,,4/5,,
4,4,4,,3,3,3,,2,2,2,,1,1,1/2,,8,8,8,,7,7,7,,6,6,6,,5,5,5/6,,
{2}
7,7,6,6,4h[2:1]/5h[2:1],,4/5,,3,3,2,2,1h[2:1]/8h[2:1],,1/8,,
2,2,3,3,4h[2:1]/5h[2:1],,4/5,,6,6,7,7,1h[2:1]/8h[2:1],,1/8,,
{1}7-3[4:3],,{4}2,,2,,1,1,1,,{1}2-6[4:3],,{4}7,,7,,8,8,8,,
{1}7-3[4:3],,{4}2,,2,,1,1,{2}1,8,8,8,,7/8,7/8,7/8,,1h[1:1]/8h[1:1],,,,
{4}8,8,7,7,6,6,5,,4,4,3,3,2,2,1,,1,1,2,2,3,3,4,,5,5,6,6,7,7,8,,
1,1,1,,8,8,8,,1,1,2,2,3,3,4,4,5,5,6,6,7,7,8,8,1/8,
{1}1b/8b,,,,,,E


ADVANCED

(217){2}6h[1:1],,5,4/5,3h[1:1],,4,4/5,4-1[4:3]/5-8[4:3],,,2/7,
{4}3,3,3,,5,5,4,,6,6,6,,4,4,5,,2,2,2,,8,8,1,,7,7,8,8,1,1,1/8,,
6h[2:1],,5,,4,5,4,,3h[2:1],,4,,5,4,5,,7h[2:1],,8,,1,8,1,,1,1,8,8,1,8,2/7,,
3,3,4,,6,6,5,,3,3,4,,5,4,4/5,,2,2,1,,7,7,8,,1,1,8,8,1h[4:1]/8h[4:1],,2b/7b,,
3,3,4,4^1[4:2],,,,,7,7,8,,2,2,1,,7,7,8,8^5[4:2],{2},,
3h[4:1]/4h[4:1],5h[4:1]/6h[4:1],4h[4:1]/5h[4:1],3/6,
6h[2:1],5h[2:1],6,4/7,3h[2:1],4h[2:1],3,2/5,
7h[2:1],8,2h[2:1],1,1pp4[4:5]/8qq5[4:5],,,,4/5,,
{4}6,6,5/6,,3,3,3/4,,6,6,5,5,4,4,3/5,,
2,2,1/2,,7,7,7/8,,1-4[2:1]/8-5[2:1],,,,3/6,2/7,1b/8b,,
2,2,1/2,,7,7,7/8,,1,1,8,8,1,1,2/8,,
{2}7h[2:1],5h[2:1],6-1[2:1],,2h[2:1],4h[2:1],3-8[2:1],,
{4}
6h[2:1],,5,,4/5,4/5,4/5,,2h[2:1],,1,,1/8,1/8,2/7,,
3h[2:1],,4,,4/5,4/5,3/6,,7h[2:1],,8,,1/8,2/7,{2}3b/6b,
2h[2:1],3h[2:1],4h[2:1],5,6h[2:1],7h[2:1],8h[2:1],1,
{4}3,3,2/4,,6,6,5/7,,3/4,3/4,5/6,5/6,4/5,4/5,3b/6b,,
2h[2:1],,1,,8,7,1/6,,7/8,,7-4[2:1]/8-3[2:1],,,,2/4,,
6h[2:1],,5,,4,3,2/5,,3/4,,1-6[2:1]/2-5[2:1],,,,4/7,,
7h[2:1],,8,,1/8,1/8,{2}2/7,3>6[4:3]/4,,,4/5,7h[2:1],8,2h[2:1],1,
7/8,1/2,5/7,2/4,3V14[4:5]/6V85[4:5],,,,
{4}6,6,5,5,4,3,2/5,,3,3,4,4,5,6,4/7,,7,7,8,8,1/8,2/7,{2}3/6,
5-2[4:1]/6-1[4:1],,3/8,4/7,3-8[4:1]/4-7[4:1],,1/6,2/5,
{4}8,7,6,5,4,3,1/2,,4,5,6,7,8,1,2,3,4/5,
{1}3b/6b,,,,,E


EXPERT

(217){1}2-5[4:5],,8-4[4:5],,1>8[4:5],,
{8}6h[8:7]/5,,4,4,,5,,5-1[8:3],{1},
{8}3h[8:7]/4,,5,5,,4,,4-8[8:3],{1},
{8}6h[8:7]/5,,4,4,,5,,5w1[8:3],
{4},,,,8,8,7,7,6,6,5,5,
4h[4:7]/5,5,6,6,5,5,6,6,
6h[4:7]/5,5,4,4,5,5,4,4,
3h[4:7]/4,4,5,5,4,4,5,5,
4/6,6/7,3/5,2/3,3,4,5,6b,
6,5/6,6,4/6,3,3/4,3,3/5,
7,5/7,7,4/7,2,2/4,2,2/5,
7,7/8,7,1/7,2,1/2,2,2/8,
1/2,3/4,5/6,7/8,1h[4:1]/6h[4:1],,3h[4:1]/8h[4:1],,
3>6[8:5]/4p5[8:5],,,,,4,5,3/6,
6<3[8:5]/5q4[8:5],,,,,5,4,3/6,
3>6[8:5]/4p5[8:5],,,,,4,5,3/6,
5/6,5/6,3/8,3/8,3/4,3/4,1/6,1/6,
7h[2:1],,5h[2:1],,4,3,1/2,,
2h[2:1],,4h[2:1],,5,6,7/8,,8,7,6,5,4,3,2,1,
{1}1pp4[4:5]/5pp8[4:5],,2b/7b,
{4}
2/4,8,5/7,1,3/4,5/6,3/4,2/5,
5/7,1,2/4,8,5/6,3/4,5/6,4/7,
{2}2-5[8:1]/8,7-4[8:1],1-5[8:1],8-4[8:1],1>8[4:3],,,{8}1,8,{4}1,
5/7,1,2/4,8,5/6,3/4,5/6,4/7,
2/4,8,5/7,1,3/4,5/6,3/4,2/5,
7^4[8:1]/1,,2q6[8:1],,8,7,1/6,,
2^5[8:1]/8,,7p3[8:1],,1,2,3/8,,
6h[4:1],5,3h[4:1],4,6h[4:1],7,3h[4:1],2,2<3[4:3],,,,,,{8}5,4,{4}5,
3h[4:1],4,6h[4:1],5,3h[4:1],2,6h[4:1],7,7>6[4:3],,,,,,{8}1,8,{4}1,
7h[4:1],8,2h[4:1],1,7h[4:1],6,2h[4:1],3,3<2[4:3],,,,,,1/8,,
3/4,5,6/8,7,1/8,1/8,2/7,,
5/6,4,1/3,2,1/8,1/8,2/7,,
{8}3,4,3,,6,5,6,,2,1,2,,7,8,7,,{2}1^4[4:1],5^8[4:1],1w5[4:1],,
{8}6,5,6,,3,4,3,,7,8,7,,2,1,2,,{2}8^5[4:1],4^1[4:1],8w4[4:1],,
{8}2,1,2,,7,8,7,,3,4,3,,6,5,{4}6,3/7,2/6,1/5,2/6,3^8[4:1]/7^4[4:1],,,,
5h[2:1]/6,,4,,3,4,{2}2/5,1h[2:1],7h[2:1],5h[2:1],4,2b/7b,,,,
{8}2h[4:1]/1,,3,3,,3/4,,5^2[8:3]/6^1[8:3],{1},
{8}7h[4:1]/8,,6,6,,5/6,,3^8[8:3]/4^7[8:3],{1},
{8}2h[4:1]/1,,3,3,,3/4,,5qq2[2:1]/6pp1[2:1],{1},
{8}
7h[4:1]/8h[4:1],,,7h[4:1]/8h[4:1],,,1h[4:1]/6h[4:1],,,1h[4:1]/6h[4:1],,,7/8,,1/6,,
1h[4:1]/2h[4:1],,,1h[4:1]/2h[4:1],,,3h[4:1]/8h[4:1],,,3h[4:1]/8h[4:1],,,1/2,,3/8,,
{2}1-5[8:1]/7,8-4[8:1],2-5[8:1],7-4[8:1],1-5[8:1],8-4[8:1],3-8[8:1],6-1[8:1],
{4}4,{1}3qq2[4:5]/7qq6[4:5],,,,,E


MASTER

(217){8}
2h[8:3],,4,4h[8:9],,3,,3,,3,,3,3,,5/6,,
7h[8:3],,5,5h[8:9],,6,,6,,6,,6,6,,2/4,,
2h[8:3],,8,8h[8:9],,1,,2,,3,,4,4,,2/6,,
6b/8b,,3/4,3-8[8:1]/4,,7,,1/6,,2,1,,7,8,1/6,,
5/7,,1/2,2-5[8:1]/1,,6,,4/7,,5,4,3-8[8:1]/6-1[8:1],,,,,
2/4,,7/8,7-4[8:1]/8,,3,,2/5,,7,8,1/6,,2,1,2,
7,8,7,3,1,3,6,8,6,4,1,4,5,,3/7,,

6h[1:4],,2,,7,,1,,8,,5,5>8[8:3],,,,,,,7,,8,,1,,8,8,,5,,1,,,
3h[4:7],,1,,8,,7,,6,,7,7,,2,2,,1/2,1/2,,
5/7,,3/4,,2h[8:3]/5,,,1,,3/8,,1/6,,
5/7,,2/4,,4/6,,2/5,,4/8,,2/6,,5/7,,3/4,,
5/6,,2/4,,3/7,,2/5,,3,4,,7/8,,2/6,,,
1/3,,1/6,,2/8,,1/7,,4/8,,1/5,,1/3,,7/8,,
1/2,,6/8,,3/7,,6<2[4:1]/1,,4,,3>7[4:1],,5,,6,,
6,5,7,7h[4:1],,8>5[8:3]*q6[8:3],,,,,,,8,8,1/7,,
3,4,2,2h[4:1],,1,,2/8,,1-5[8:1]/7,2,1/3,,4/6,4/6,,
3,4,2,2h[4:1],,1<4[8:3]*p3[8:3],,,,,,,2/7,,8-4[8:1],8,
2,,1-5[8:1],,8,,7-4[8:1],,8,,2-5[8:1],,1,,1/8,,

2h[8:5],,1,1,,3pp7[8:5],,2,,1,1,,8,,8,,
7h[8:5]/1,,8,8,,6qq2[8:5],,7,,8,8,,1,,1,,
4h[8:5]/6,,5,5,,3pp7[8:5],,1,,8,8^3[4:1],,,,,,,
4/7,4/7,,2/5,2/5,,1/8,,4/5,3/6,,1/8,2h[8:1]/7h[8:1],,,1b/8b,,,,,,,

7b-4[8:1]/1b,,1-5[8:1],1,6-3[8:1],6,2-7[8:1],2,8,8,,3/4,2/5,,1/8,,
2-5[8:1]/7,,8-4[8:1],8,3-6[8:1],3,7-2[8:1],7,1,1,,4,3/5,,1/8,,
4/7,6,4,5,3,2/4,,4/7,,6-1[8:1]/1,,4,4-1[8:1],,5<4[8:3],,
3,,,,,1/2,,2/5,,5h[4:1]/6,,7h[4:1],,8,1/6,,

2b-5[8:1]/6b,,8-4[8:1],8,3-6[8:1],3,7-2[8:1],7,1,1,,5/6,4/7,,1/8,,
7-4[8:1]/2,,1-5[8:1],1,6-3[8:1],6,2,2,,3/8,1-5[8:1]/2-6[8:1],,1/2,,4/7,
4/7,,2^5[8:1],,8,8^5[8:1],,1,1,,7^4[8:1],,1,1^4[8:1],,8,8,,
2-5[8:1],,8,7-4[8:1],,1,2>6[4:1]*<6[4:1],,,,,,3/7,,5<1[8:1],,

3,,5q2[8:1],,7,,5<1[8:1],,3,,5q2[8:1],,7,7>6[2:1]*q6[2:1],,,,,,,
3/8,,2/5,,4/7,,3/4,2/5,,4/7,4>8[4:1]/7,,
6,,4p7[8:1],,2,,4>8[8:1],,6,,4p7[8:1],,2,2<3[2:1]*p3[2:1],,,,,,,
5/6,,4/7,,4h[4:1]/3,,2h[4:1],,1,3/8,8<4[4:1]/3,,

3,,8q4[8:1],,6,,8p4[8:1],,3,,1>5[8:1],,7,,1<5[8:1],,
3,,1q5[8:1],,7,,1pp5[2:1]*qq5[2:1],,,,,,,,4/6,,
2^5[8:1]/7,,8,8^5[8:1],,1,1,,3^8[8:1]/6,,5,5^8[8:1],,4,4,,
1/3,,6/8,,2/4,,5/7,,4,3,6,7,3/8,,2^5[8:1]/1,,

6,,8,,1/2,1q6[8:3]/2>6[8:3],,,,,,,2/7,,8h[4:1]/1,,
6h[4:1],,4h[4:1],,2,2<6[8:3]*p5[8:3],,,,,,,4/7,,7^4[8:1]/8,,
3,,2,,7/8,7<3[8:3]/8p3[8:3],,,,,,,2/7,,1h[4:1]/8,,
3h[4:1],,5h[4:1],,7,7>3[8:3]*q4[8:3],,,,,,,2/5,,2^5[8:1]/1,,
6,,8,,1/2,1q8[8:3]/2>8[8:3],,,,,,,1,,6h[4:1]/8,,
4h[4:1],,2,2,,1qq6[8:5]/2pp5[8:5],,,,,,,,,4/7,,
6^1[8:1],,3,,4p7[8:1],,6,,5q2[8:1],,4,,3^8[8:1],,5,,
6h[4:1],,5,,3h[4:1],,4,,7h[4:1],,6,,1h[4:1],,2,,
8b,,,,,,,,,,,,,,,,

3-8[8:1]/1,,7,7-4[8:1],,3,,2/5,,7,8,,2,1,3/8,,
2-5[8:1]/4,,6,6-1[8:1],,2,,3/8,,4,5,3-8[8:1]/6-1[8:1],,,,,
7-4[8:1]/5,,3,3-8[8:1],,7,,1/6,,1,8,2/7,,3,4,3,
6,5,6,2,4,2,7,5,7,1,4,1,8,4,2/6,,
3,4,3,7,5,7,2,4,2,7,5,7,1,5,3/7,,

6-4[8:1],4,6,2-5[8:1],5,2,7-4[8:1],4,7,1-5[8:1],5,1,8,4,6,6,
1-5[8:1],5,1,8-4[8:1],4,8,2-6[8:1],5,2,7-3[8:1],4,7,1,5,3/7,1/5,,,
{1}1b>8[8:9]/8b,,,,,E


Re:MASTER


  • 修正箇所等ありましたら修正・加筆をおねがいします。 -- Sea (2018-06-30 22:15:00)
名前:
コメント:

タグ:

+ タグ編集
  • タグ:

このサイトはreCAPTCHAによって保護されており、Googleの プライバシーポリシー利用規約 が適用されます。

最終更新:2021年08月21日 20:02