Lividi

BPM EASY BASIC ADVANCED EXPERT MASTER Re:MASTER
191 4 5 8+ 12+ 14 -

EXPERT MASTER Re:MASTER
譜面制作者 Jack Moon Strix

EASY


BASIC


ADVANCED


EXPERT


MASTER

(191)
{8}18,
{16}18,27,36,,
{8},1,8-5[16:1]*-3[16:1],1,8,,7,8,7,2-5[8:1],1h[8:1],2,,3,12,
{16}8,7,6,,
{8}8h[8:1],6h[8:1],4h[8:1],2,,2,1,2,7-4[8:1],8h[8:1],7,,6,78,
{16}1,2,3,,6,7,8-4[8:1],1,2,3,4,,
{8},7,8,7,2-5[8:1],1h[8:1],2,,3,12,
{16}8,7,6,,
{8}1h[8:1],3h[8:1],5h[8:1],7,,1-6[8:1],8,1,7-4[8:1],3,7,
{4}1h[4:3],,,
{32}8,27,36,45,
{8},,2^5[8:1],1,2,,,45,1h[4:1]/2h[4:1],,,7^4[8:1],8,7,,2,5,
{4}4-7[8:1]/3-8[8:1],43,
{8}1-5[8:1],6-2[8:1],1,6,,
{16}2,1,2,1,2,,
{4}8/7h[4:1],
{16}2,3,4,1,2,3,
{8}8^3[8:1],7,8,,,45,8h[4:1]/7h[4:1],,,1^4[8:1],8,1,,7,4,
{4}5-2[8:1]/6-1[8:1],56,1-4[8:1]/2-7[8:1],21,
{8},35,
{16}4,35,26,,
{8}8b,,
{16}7,6,5,8,7,6,
{8}1^6[8:1],2,1,,,45,1h[4:1]/2h[4:1],,,7^4[8:1],1,7,,1,2,
{4}4-7[8:1]/3-8[8:1],43,
{8}1-5[8:1],6-2[8:1],1,6,,
{16}7,8,7,8,7,,
{4}2/1h[4:1],
{16}2,3,4,1,2,3,
{8}8^3[8:1],7,8,,,45,8h[4:1]/7h[4:1],,,2^5[8:1],8,2,,8-4[8:1],1-5[8:1],8,1,,
{8}4,6,3,7,2,8,
{32}1w5[8:1],2,3,4,5,6,7,8,1,,,,
{4},1,
{8}38,
2-5[8:1],1,2,7-4[8:1],8,7,2-5[8:1],1,2,7,2,8-4[8:1]/3-1[8:1],38,,,,
7-4[8:1],1,7,2-5[8:1],8,2,7-4[8:1],1,7,2,7,6-8[8:1]/1-5[8:1],61,,,,
1-5[8:1],7,1,8-4[8:1],2,8,1-5[8:1],7,1,8,1,7-1[8:1]/2-6[8:1],27,,,,
8-4[8:1],3,8,1-5[8:1],6,1,8-4[8:1],3,8,2,6,2,3h[8:1],4h[8:1],5h[8:1],6h[8:1],
3-8[8:1],5,3,6-1[8:1],4,6,3-8[8:1],5,3,6,2,7,4w8[8:1]b/5,,,,
6-1[8:1],2,6,3-8[8:1],7,3,6-1[8:1],2,6,3,8,1-6[8:1]/5-2[8:1],15,,,,
4-8[8:1],6,4,5-1[8:1],3,5,4-8[8:1],6,4,7,3,7,6h[8:1],5h[8:1],4h[8:1],3h[8:1],
6,6,6,3,3,3,46,46,46,35,35,35,27,1-4[8:1]/8-5[8:1],18,18,,
27,12,12,
{16}8,7,6,,
{8}2,2,
{16}6,5,6,,
4h[8:1],6,,3h[8:1],5,,2h[8:1],4,
{16},,7,8,7,,
{8}26,78,78,1,7,5,5h[4:1],,7,46,46,
{16}3,2,1-5[8:1],8,7,6,5,,
{8},83,12,12,8,2,7,7,
{16}3,4,3,,
5h[8:1],3,,6h[8:1],4,,7h[8:1],5,
{16},,2,1,2,,
{8}16,78,78,1,7,2,8,,
{6}45,25,
{8}47,36,
{12}4-1[8:1]/5-8[8:1],45,45,45,,
{8},,18,
{16}2,1,2,,
{8}7,7,
{16}3,4,3,,
5h[8:1],3,,6h[8:1],4,,7h[8:1],5,
{16},,2,1,2,,
{8}37,12,12,8,2,4,4h[4:1],,2,35,35,
{16}6,7,8-4[8:1],1,2,3,4,,
{8},16,78,78,1,7,2,2,
{16}6,5,6,,
4h[8:1],6,,3h[8:1],5,,2h[8:1],4,
{16},,7,8,7,,
{8}38,12,12,3,7,1,8,2-5[8:1],7-4[8:1],2,7,3,,
{4}1b/8b,
{16}
25,,3,4,3,,7,8,7,8,7,,2,1,2,,
38,,6,5,6,,2,1,2,1,2,,7,8,7,,
16,,3,4,3,,6,5,6,5,6,,2,1,2,,
83,,6,3,6,,
{24}45,,,5,6,7,8,1,2,
{16}3,,12,,,,7,8,7,,3,4,3,4,3,,6,5,6,,
47,,2,1,2,,7,8,7,8,7,,3,4,3,,
25,,6,5,6,,2,1,2,1,2,,7,8,7,,
16,,3,4,3,,
{8}25,86,
{4}8-5[16:1]/6-3[16:1],
{1}8b/6b,,
{32}8b/4b,7,6,5,4,3,2,1,8,,
{16},,,
3,4,3,2,3,,
7,8,7,,16,,
2,1,2,,
{24}45,,,4,3,2,1,8,7,
{16}6,,78,,,,2,1,2,,6,5,6,7,6,,3,4,3,,
25,,6,5,6,,2,1,2,3,2,,7,8,7,,
1,8,2,7,1,8,2,7,1,8,2,7,18,,
{32}1,2,3,4,5,6,7,8,1,2,3,4,5,6,7,8,1,2,3,4,5,6,7,8,1,2,3,4,5,6,7,8,
{4}1-4[8:1]/5-8[8:1],15,
{8}4-8[8:1],7-3[8:1],4,7,,7^4[8:1],4^1[8:1],1^6[8:1],,,,8,
{4}8w4[8:1],8,
{8}2-6[8:1],5-1[8:1],2,5,,2^5[8:1],5^8[8:1],8^3[8:1],,,,1,
{4}1w5[8:1],1,
{8}4-8[8:1],7-3[8:1],4,7,,7^4[8:1],4^1[8:1],1^6[8:1],,,,8,8^5[8:1],,
{24}84,3,2,
{8}1,27,18,27,36,45,,
{6}34,24,
{8}56,57,
{12}18,18,18,
{4}2-5[8:1]/7-4[8:1],27,
{8}27,
{16}8,1,8^5[8:1],,,,
{24}4,3,2,
{8}1,
{16},
{8}7h[8:1],1h[8:1],3^6[8:1],,
{24}7,8,1,
{4}2-5[8:1],2,
{16}6,5,6,,4,5,4^1[8:1],,,,
{24}5,6,7,
{8}8,
{24}2,3,4,5,1,2,3,4,7,6,5,4,8,7,6,
{4}5w1[8:1],5,
{8}45,45,
{16}3,1,3^6[8:1],,,,
{24}7,8,1,
{8}2,4h[8:1],2h[8:1],8h[8:1],6h[8:1],4h[8:1],8h[8:1],1,36,
{16}1,8,2,7,1,8,2,7,
{8}18,2h[8:15]/7h[8:15],
{1},,
{8}1,8,
{24}1,2,3,
{8}4,
{24}8,7,6,5,4,3,2,1,8,
{1}7-2[8:1]/3-6[8:1],,,,E

Re:MASTER


  • 「{12}5h[8:1],3,6h[8:1],4,7h[8:1],5,」のようだったものを全て「{16}5h[8:1],3,,6h[8:1],4,,7h[8:1],5,」のように直しました。 -- 嵐雅 (2021-05-19 19:39:42)
名前:
コメント:

タグ:

+ タグ編集
  • タグ:

このサイトはreCAPTCHAによって保護されており、Googleの プライバシーポリシー利用規約 が適用されます。

最終更新:2021年05月19日 19:39