ねぇ、壊れタ人形ハ何処ヘ棄テらレるノ?

BPM EASY BASIC ADVANCED EXPERT MASTER Re:MASTER
188 4 6 8 12 14 -

EXPERT MASTER Re:MASTER
譜面制作者 rioN ぴちネコ -

EASY


BASIC

(188){2}1h[4:3],{1},
{1}2h[4:3],
{2},3h[4:3],{1},
{1}4h[4:3],
{2},5b,{1},,,
{4},,,4,
{4},4,4,,
{4}3,3,,3,
{4}3,2,2,1/2,
{4},1,1,,
{4}8,8,,8,
{4}8,7,7,7/8,
{4},6,6,,
{4}5,5,,5,
{4}5,4,4,4/5,
{4},3,3,,
{4}2,2,,1,
{4}1b/8b,,,1,
{4},2,2,,
{4}3,3,,3,
{4}3,4,4,4/5,
{4},5,5,,
{4}6,6,,6,
{4}6,7,7,7/8,
{4},8,8,,
{4}1,1,,1,
{4}1,2,2,1/2,
{4},3,3,,
{4}4,4,,4,
{4}4,5,5,4/5,
{2},4/5,
{4},3b/6b,,,
{4},,,4,
{4}4,,3,3,
{4},2,2,,
{4}1,1,,8,
{4}8,,7,7,
{4},6,6,,
{4}4/5,,,5,
{4}5,5,6,6,
{4}6,7,7,7,
{4}8,8,8,1,
{4}1,1,2,2,
{4}2,3,3,3,
{4}4,4,4,4/5,
{4}4/5,,5/6,5/6,
{4},4/5,4/5,,
{4}3/4,3/4,,5,
{4}5,5,6,6,
{4}6,7,7,7,
{4}8,8,8,1/8,
{4}1/8,,1/2,1/2,
{4},1/8,1/8,,
{4}7/8,7/8,,8-4[4:5],{1},,
{4},,,1b,{1},,,,,,,
{4},8,1,2/8,
{4},2,2,3,
{4}3,4,5,4/6,
{4},5,5,6,
{4}6,7,8,1/7,
{4},8,8,7,
{4}7,6,5,4/6,
{4},3,3,2,
{4}2b,1,8,1/7,
{4},7,7,6,
{4}6,5,4,3/5,
{4},4,4,3,
{4}3,2,1,2/8,
{4},1,1,2,
{4}2,3,4,3/5,
{4},6,6,7,
{4}7,8-4[4:3],,,
{4},,,1,
{4}1/8,1-5[4:3],,,
{4},,,7,
{4}7/8,7-3[4:3],,,
{4},,,2,
{4}1/2,2-6[4:3],,,
{4},,,8,
{4}1/8,1/8,,,
{4},2/7,,,
{4},3h[2:3]/6h[2:3],,,{1},
{4},3/6,,,{1},
{4},4/5,,,{1},
{4},4h[4:7]/5h[4:7],,,{1},
{4},,,4b/5b,
E

ADVANCED

(188){4}5,5,
{4}5,4,4,4,
{4}3,3,3,2,
{4}2,2,4,4,
{4}4,5,5,5,
{4}6,6,6,7,
{4}7,7<2[2:3],,,{1},
{4},,,1/8,
{4}1/8,1/8,2/7,2/7,
{4}2/7,4,5b,3,
{4}4,2/5,6,5,
{4}4/7,3,2,1/3,
{4}1/8,1/8,2/7,6,
{4}5,4/7,3,4,
{4}2/5,6,7,6/8,
{4}1/8,1/8,2/7,3h[4:1],
{4}4,3/4,6h[4:1],5,
{4}5/6,3,2,1,
{4}8,7,6,4h[2:1]/5h[2:1],
{2},2h[2:1]/4h[2:1],
{4},5h[2:1]/7h[2:1],,,
{4}1/8,1/8,2b/7b,6,
{4}5,4/7,3,4,
{4}2/5,6,7,6/8,
{4}1/8,1/8,2/7,3,
{4}4,2/5,6,5,
{4}4/7,3,2,1/3,
{4}1/8,1/8,2/7,6h[4:1],
{4}5,5/6,3h[4:1],4,
{4}3/4,6,7,8,
{4}1,2,3,4h[2:1]/5h[2:1],
{2},5h[2:1]/7h[2:1],
{4},2h[2:1]/4h[2:1],,,
{4}7h[2:1]/8h[2:1],,,1h[2:1]/2h[2:1],
{2},1h[2:1]/8h[2:1],
{4},2b/7b,,,
{4},,,5/4h[4:3],
{2},3h[4:3],
{4},2h[4:3],,,
{4}1,8,7,4/5h[4:3],
{2},6h[4:3],
{4},7h[4:3],,,
{4}8,,4/5,3,
{4}2/4,1/5,6,5/7,
{4}4/8,3,2/4,1/5,
{4}7-4[4:1]/8-3[4:1],,,6,
{4}5/7,4/8,3,2/4,
{4}1/5,6,5/7,4/8,
{4}1-6[4:1]/2-5[4:1],,,3/4,
{4}4/6,7/8,5/6,3/5,
{4}1/2,1pp4[4:3]/8qq5[4:3],,,
{4},,,3h[4:1],
{4}4,2/5,6h[4:1],5,
{4}4/7,3-8[4:1]/4-7[4:1],,,
{4}5-2[4:1]/6-1[4:1],,,5/6,
{4}3/5,1/2,3/4,4/6,
{4}7/8,2h[4:1],1,3/8,
{4}7h[4:1],8,1/6,3h[4:1],
{4}4,1/5,6h[4:1],5,
{4}4/8,1-6[4:1]/2-5[4:1],,,
{4}7-4[4:1]/8-3[4:1],,,2/7h[2:3],{1},
{4},5h[8:13],,,
{8},,,,,,,4h[8:5],
{2},3h[8:5],
{8},2h[8:5],,,,,{4}1h[4:9],{1},,
{4}8b,3,2/4,6,
{8}5/7,,3/4,,1/6,,7,7,
{4}8,6,5/7,3,
{8}2/4,,5/6,,3/8,,2,2,
{4}1,3/4,1/6,5/6,
{4}3/8,1/8,2/7,3/6,
{8}4/5,,3,4,3,4,3,4,
{8}3,,6,5,6,5,6,5,
{8}6,,3,3,4,,6,6,
{8}5,,2,2,4,,7,7,
{4}5,3/4,5/6,2/4,
{4}5/7,1-4[4:1]/8-5[4:1],,,
{8},,3,4,3,,6,5,
{8}6,,2,1,2,,7,8,
{4}7,1/2,7/8,1/3,
{4}6/8,2/4,5/7,1b/8b,
{8},,3,4,3,4,3h[4:1],,
{8}1,,6,5,6,5,6h[4:1],,
{8}8,,2,4,2,4,2h[4:1],,
{8}1,,7,5,7,5,7h[4:1],,
{8}8,,3,4,3,,7,8,
{8}7,,2,1,2,,6,5,
{8}6,,2/4,2/4,2/4,,5/7,5/7,
{8}5/7,,1/8,1/8,2/7,2/7,3/6,3/6,
{4}4/5,4/3h[1:1],,,
{4},2h[1:1],,,
{4},1h[1:2],,,{1},
{4},8h[1:2],,,{1},
{4},7h[1:2],,,{1},
{4},6h[2:5],,,{1},
{4},,,5h[1:2],{1},
{4},,,4b,
E

EXPERT

(188){4}3,4,
{4}2/5,6,5,4/7,
{4}3,2/4,1/5,6,
{4}5/7,4/8,2,1,
{4}3/8,7,8,1/6,
{8}4/5,,3/6,,2/7,,1,8,
{4}1,2b/7b,,,{1},
{8},,,,,,2/4,2/4,
{8},5/7,5/7,,3/6,,2/7,,
{4}1/8,1b,8b,2/5,
{8}3,4,3,,4/7,,6,5,
{4}6,2/5,3/4,5/7,
{8}1,2,3,4,5,6,7/8,,
{8}6,5,4,,1/2,,6/8,,
{4}2/5,4/7,5/6,2/4,
{8}8,7,6,5,4,3,2/1h[4:1],,
{4}7,4/6,7/1h[4:1],4,
{8}3/5,,4/7,,1/8,,3,4,
{8}5,6,7,8,1,8,7/3h[4:3],,
{8}5,5,6,6,7h[4:3],,5,5,
{8}3,3,2h[4:3],,1,1,8,8,
{8}7,5,4,2,1b/8b,,2/5,,
{8}3/4,3,3/4,,1/7,,5/6,6,
{4}4/6,2/5,4/8,1/2,
{8}8,7,6,5,4,3,1/2,,
{8}5/6,4/7,3/8,,1/5,,6/7,,
{4}2/4,1/7,6/8,1/2,
{8}3,4,5,6,7,8,1/2h[4:1],,
{4}3h[4:1],5,8/7h[4:1],5h[4:1],
{8}3,,2/3,,4/7,,8,1,
{8}2,3,4,5,4,5,3/6,,
{8}5/6,5/6,5/6,,2/4,2/4,2/4,,
{8}2/7,,1,1,8,8,1,1,
{16}7,,7,,2,,2,,7,,7,,1,8,1,8,
{16}1,8,1,8,1,8,1,8,1,8,1,8,1,8,1,8,
{16}1,8,1,8,1q4[2:1],,,,,,,,,,,,
{4},,,7h[4:3],
{12},,,5,,5,5h[4:3],,,,,,
{12}4,,4,4h[4:3],,,,,,3,,3,
{4}3,6,8,1/3h[4:3],
{12},,,4,,4,4h[4:3],,,,,,
{12}6,,6,6h[4:3],,,,,,7,,7,
{4}7,,8b,1^4[4:1],
{4}8,7,6^1[4:1],5,
{4}4,3^6[4:1],2,1pp5[2:1],
{4},,,8^5[4:1],
{4}1,2,3^8[4:1],4,
{4}5,6^3[4:1],7,8qq3[2:1],
{8},,,,,,1/7,2,
{8}1,2,1,2,3/8,2,1,7,
{8}8,7,4/6,5,4,3/5,4,3,
{8}2,1/3,1/3,2,3,4/5,4/5,6,
{8}7,8,1,2,3/5,4,5,6,
{8}7,8,1/8,1/8,1/8,1/8,1/8,2/7,
{8}3/6,3/6,3/6,3/6,3/6,,3/8,7,
{8}8,7,8,7,1/6,7,8,2,
{8}1,2,2/5,3,4,4/7,6,5,
{8}1/4,2,3,4/7,5,6,7/8,6,
{8}5,3/4,2,1,6/8,5,4,1/3,
{8}4,5,3/6,3/6,3/6,3/6,3/6,3/6,
{16}4,5,4,5,4,5,4,5,4,5,4,5,{4}4<2[4:5],{1},
{4},3>5[8:11],,,
{8},,,,,,,4v3[8:3],
{2},6v7[8:3],
{8},1v2[8:3],,,,,{4}8b,{1},,
{8}2/7,,2/4,3,4/7,6,1/5,,
{8}3/4,2,1/5,6,7/8,,1/5,2/6,
{8}3/7,4/8,5/7,6,3/5,4,5/8,,
{8}1b/6b,2b/7b,,6,2/5,3,4/7,3/6,
{8}2/5,1/4,5/8,6,7,2/8,3,4,
{8}5/8,7,8/6-3[8:1],,1-5[8:1],,7-4[8:1],,
{16}3,,,,2,1,2,1,2,1,2,1,2,1,2,1,
{16}2,,,,7,8,7,8,7,8,7,8,7,8,7,8,
{8}7,,3h[8:1],4,7h[8:1],6,1h[8:1],2,
{8}6h[8:1],7,4h[8:1],3,8h[8:1],7,3h[8:1],2,
{8}6h[8:1],5,4/8,3,2,1/5,6,7,
{8}8/5-1[8:1],,7-2[8:1],,5-8[8:1],,6b,6b,
{8},,1/5,2,3/8,7,6/8,5,
{8}1/4-8[8:1],,3-6[8:1],,4-1[4:1],,2,2,
{8}2,,4/8,7,3/6,2,1/5,6,
{8}3/7,2,1/5,6,4/7,8,1/5,8,
{8}2b/7b,,4/6,2,1/5,4,3/5,7,
{8}4/8,5,4/6,2,1/5,4,5/3-8[8:1],6,
{8}7,,1/5,7,4/8,5,4/7,2,
{8}1/5,4,2/5,7,3/8,4,6/5-1[8:1],7,
{8}6,,2/4,5,5/6,7,1/7,2,
{8}3,4,5/7,4,3/4,2,2/8,7,
{8}6,5,4/5,4/5,3/6,3/6,2/7,2/7,
{16}1/8,,1/8,,1,8,1,8,1,8,1,8,2,7,1,8,
{16}2,7,1,8,1<3[4:47],,,,,,,,,,,,
{4},2h[4:3],,,
{4},1h[4:7],,,{1},
{4},8h[4:7],,,{1},
{4},7h[4:7],,,{1},
{4},6h[4:9],,,{1},
{4},,,5h[4:5],{1},
{4},5s1[4:1],,{8}2-6[8:1],,,,
E

MASTER

(188){4}
6/5h[2:1],4,3,
3/4h[2:1],5,6,
7/5h[2:1],4,2,
2/4h[2:1],5,7,
6/8h[2:1],1,3,
3/1h[2:1],8,6,
5/8h[2:1],1,4,
4/1h[2:1],8,5,
{1},,{4},
{32}1,28,37,46,
{2}5s1[8:1]b,{8},
{4}2^5[8:1]/8^5[8:1],8-4[8:1]/2-6[8:1],28,
1b,1b,

{32}6,5,,,{8},74,3,28,,
{32}2,1,,,{8},83,7,46,,
{4}1-5[8:1]/5,4-8[8:1],1,
{8}6,5,4,3,26,1,
{32}7,8,,,{8},16,2,35,,
{32}3,4,,,{8},
{4}25,71,8-4[8:1]/4,5-1[8:1],8,
{8}3,4,5,6,7,8,
{4}
1-3[8:1],1-5[8:1]/4,6,
8-6[8:1],8-4[8:1]/5,3,
1h[4:1],8h[4:1],
{8}2,3,4,5,6,7,18,,36,,
{16}4,5,4,5,4,5,4,5,36,,
{16}3,4,3,4,3,4,2,5,1,6,8,7,8,7,8,7,8,7,8,7,8,7,
{8}1,34,56,78,
{4}1b/5b,2/8-4[8:1],8/1-3[8:1],1/7-5[8:1],{12}87,,
{12}8,8,
{6}17,{4}26,
{4}2-6[8:1]/4,2/1-7[8:1],1/3-5[8:1],
{8}31,1,8,7,62,5,
{4}6/4-8[8:1],4/5-7[8:1],5/3-1[8:1],34,5h[4:1]/3,7,
{4}6-2[8:1]/8,6/5-3[8:1],5/7-1[8:1],
{8}75,5,4,3,2,1,
{4}8-4[8:1],8/2-6[8:1],2/7h[4:1],
{4}3-7[8:1],5-1[8:1]/3,5/2h[4:1],
{4}6-2[8:1],6/4-8[8:1],
{8}45,6,7,8,1,2,36,,18,,
{16}5,4,5,4,5,4,5,4,36,,7,5,6,4,5,3,4,2,4,2,5,1,5,1,5,1,5,1,6,2,7,3,8,4,8,4,8,4,8,4,8,4,8,4,
{32}8b,7,6,5,4,3,2,1,8,7,6,5,4,3,2,1,8,7,6,5,4,3,2,1,
{32}5b,6,7,8,1,2,3,4,5,6,7,8,1,2,3,4,5,6,7,8,1,2,3,4,
{1}8b,

{12}
2,1,3,8,4,7,
5h[2:1],6,7,8,1,2,3,4,5,6,,,
7,1,6,2,5,3,
4h[2:1],3,2,1,8,7,6,5,4,3,,,
4,6,3,7,2,8,
1h[2:1],8,7,6,5,4,3,2,1,
8h[2:1],1,2,3,4,5,6,7,8,
1h[2:1],8,7,6,5,4,3,2,1,
{2}84,
{48}2,1b,
{24},,,,,
{4}6^1[4:1]/3,{12}1p5[4:1],2,3,4,,,
{4}3^8[4:1],{12}8q4[4:1],7,6,5,,,
{4}6<2[4:1],{12}2p5[4:1],3,4,5,,,
{4}3>7[4:1],{12}7q4[4:1],6,5,4,,,
{8}5,5,53,53,52,52,51,51,61,61,71,71,
{24}8,7,6,1,2,3,7-3[16:1],6,5,2,3,4,
{4}7,
{24}1,2,3,8,7,6,2-6[16:1],3,4,7,6,5,
{4}2,

{8}
7h[8:1],8h[8:1],1h[8:1],2h[8:1],3h[8:1],4,
2h[8:1],1h[8:1],8h[8:1],7h[8:1],6h[8:1],5,
7h[8:1],1h[8:1],3h[8:1],5h[8:1],7h[8:1],1,
2h[8:1],8h[8:1],6h[8:1],4h[8:1],2h[8:1],8,
6,5,48,3,25,1,3,4,15,6,47,8,
{16}3,4,3,4,3,4,3,4,2,5,1,6,8,7,8,7,8,7,8,7,8,7,8,7,
{8}
8-4[8:1],8,7-3[8:1],7,1-5[8:1],1,6-2[8:1],6,4-8[8:1],4,5-1[8:1],5,
2-6[8:1],2,2/7-3[8:1],7,7/1-5[8:1],1,1/8-4[8:1],8,8/3-7[8:1],3,3/6-2[8:1],6,
6/4,4,3,2,1,8,7,87,16,25,34,3,
{16}2,1,2,1,2,1,2,1,3,8,4,7,5,6,4,7,5,6,3,8,5,6,2,1,
{2}5<4[1:2],,,
{2}5<4[1:2],,,{8},
{2}5<4[4:3],{8},
{2}5<4[4:3],{8},
{2}5<4[4:3],{8},
{2}5<4[2:1],{8},
{2}5<4[2:1],{8},
{2}5<4[2:1],
{4},,1w5[8:1]b,1,

{8}7,16,1h[8:1]/6h[8:1],,83,8h[8:1]/3h[8:1],,
{16}17,26,35,,
{8}8,
{16}2,6,3,5,
{8}4h[8:1],6,35,3h[8:1]/5h[8:1],,86,8h[8:1]/6h[8:1],,13,1h[8:1]/3h[8:1],,
{16}28,37,46,,
{8}1,
{16}5,4,5,4,6,3,7,2,18,,
{16}2,3,4,,18,,
{16}7,6,5,,
{8}34,3,86,6,28,2,
{16}
5,4,6,3,7,2,8,1,
7,2,7,3,7,4,7,5,7,4,7,3,7,2,7,1,
6,2,6,3,6,4,6,5,6,4,6,3,6,2,6,1,
5,4,2,3,5,4,2,3,5,4,2,3,5,4,2,3,
7,6,4,5,7,6,4,5,7,6,4,5,7,6,4,5,
{8}8-4[8:1],,83,2,1,{16}7,8,6,,2,1,
{8}3,4,5,6,{16}8,1,8,1,
{16}27,,,,1,2,3,4,2,3,4,5,3,4,5,6,4,5,6,7,
{16}8,,3h[16:1]/7h[16:1],,,1h[16:1]/5h[16:1],,,
{16}8,1,8,1,8,1,8,1,8,7,6,5,7,6,5,4,6,5,4,3,5,4,3,2,
{8}1,26,7,48,
{24}7,6,5,1,2,3,
{4}8b/4b,
{8}25,{16}3,4,5,6,7,8,
{8}15,1,2,3,
{8}47,{16}6,5,4,3,2,1,
{8}84,8,7,6,
{8}25,
{16}6,1,7,2,8,3,1,4,8,3,7,2,6,1,5,8,6,1,7,2,
{4}8-4[8:1],
{16}18,,1,2,3,4,
{8}56,
{16}3,5,2,6,1,7,8,1,2,3,8,7,6,5,
{8}43,
{16}6,4,7,3,8,2,1,8,7,6,
{8}1h[8:1],8,27,
{16}1,8,27,,6,5,74,,3,4,25,,5,4,36,,
8,1,8,1,8,1,
{32}8,7,6,5,4,3,2,1,8,7,6,5,4,3,2,1,
{1}

8qq4[2:1]b,
1pp5[2:1],
7pp2[2:3]/3pp6[2:3],,
8qq5[2:3]/4qq1[2:3],,
8pp3[2:3]/4pp7[2:3],,
1qq6[1:2]/5qq2[1:2],,
{2},1h[16:31]/7h[16:31],,,{4},{16},,,
{32}26,35,
{1}4,,,,E

Re:MASTER



  • よろしく -- たいが (2021-03-01 16:55:13)
名前:
コメント:

タグ:

+ タグ編集
  • タグ:

このサイトはreCAPTCHAによって保護されており、Googleの プライバシーポリシー利用規約 が適用されます。

最終更新:2022年05月06日 03:56