初音ミクの激唱

アーティスト cosMo@暴走P

BPM EASY BASIC ADVANCED EXPERT MASTER Re:MASTER
200 3 7 8 12 14 -

EXPERT MASTER Re:MASTER
譜面制作者 華火職人 チャン@DP皆伝 -

EASY



ページ名またはURLページ名またはURLページ名またはURLページ名またはURL*BASIC
(200.0){1},,,
{1}4h[2:1],
{1}3h[2:1],
{1}2h[2:1],
{1}3h[2:1]/4h[2:1],
{1}5h[2:1],
{1}6h[2:1],
{1}7h[2:1],
{1}5h[2:1]/6h[2:1],
{4}4h[8:3],,,5h[8:3],
{2},4h[8:3],
{4},5h[8:3],,,
{1}4,
{1}4b/5b,
{2}4,4,
{1}4,
{2}3,3,
{1}3,
{2}2,2,
{1}2,
{2}1,1,
{2}8,8b,
{2}7,7,
{1}7,
{2}6,6,
{1}6,
{2}5,5,
{1}5,
{2}4,4,
{2}5,5b,
{1}4-1[4:5],,,
{1}5-8[4:5],,,
{4}1/8,,,1/8,
{2},1/2,
{4},1/2,,,
{4}1/8,,,1/8,
{2},7/8,
{4},7/8,,,
{1}1-4[4:3]/8-5[4:3],,
{1}4h[2:1],
{1}3h[2:1]/4h[2:1],
{1}2h[2:1],
{1}1h[2:1]/2h[2:1],
{1}1h[2:1],
{1}1h[2:1]/8h[2:1],
{1}8-4[4:3],,
{1}5h[2:1],
{1}5h[2:1]/6h[2:1],
{1}7h[2:1],
{1}7h[2:1]/8h[2:1],
{1}1h[2:1]/8h[2:1],
{1}2h[2:1]/7h[2:1],
{1}3h[2:1]/6h[2:1],
{1}4b/5b,
{4}4,4,3,3,
{4}2,2,1,1,
{4}8,8,7,7,
{4}6,6,5,5,
{1}4h[2:1],
{4}3/5,3/5,3/5,5h[2:1],
{4},,,4/6,
{4}4/6,4/6,4,4,
{4}3,3,2,2,
{4}1,1,8,7,
{4}6,5,4,3,
{4}2,1-4[4:3],,,{1},
{4},8-5[4:3],,,{1},
{4},4h[2:1]/5h[2:1],,,
{4},5,5,4/5,
{4}4/5,6,6,5/6,
{4}5/6,7,7,6/7,
{4}6/7,8,8,1/8,
{4}1/8,1,1,1/8,
{4}1/8,2,2,1/2,
{4}1/2,3,3,3/4,
{4}3/4,4,4,4/5,
{8}4/5,,5,5,5,,6,6,
{8}6,,7,7,7,,8,8,
{8}8,,1,1,1,,2,2,
{8}2,,3,3,3,,4,4,
{8}4,,5,5,5,,6,6,
{8}6,,7,7,7,,8,8,
{8}8,,1,1,1,1,1,1,
{8}1,,8,8,8,8,8,8,
{4}8,1h[1:1],,,
{4},,,1/8,
{4},8h[1:1],,,
{4},,,1/8,
{4},1-5[4:3],,,
{4},,,8,
{4},8-4[4:3],,,
{4},,,1b,
{4},1,1,2,
{4}2,3,3,4,
{4}4,5,5,4/5,
{4}4/5,6,6,5/6,
{8}5/6,,7,7,7,,8,8,
{8}8,,1,1,1,,2,2,
{8}2,,3,3,3,3,3,3,
{8}3,,4,4,4,4,4,4,
{4}4,5,6,7,
{4}8,1,2,3,
{4}4,5h[1:1],,,
{4},4,,,
{4},4h[1:1],,,
{4},5,,,
{4},5h[16:35],,,
{4},{16}4h[16:19],,,{1},,
E

ADVANCED

(200.0){1},,,
{1}6h[1:1],
{1}5h[1:1],
{1}4h[1:1],
{2}3h[2:1],4,
{1}7h[1:1],
{1}8h[1:1],
{1}1h[1:1],
{2}2h[2:1],1,
{4}1h[8:3]/2h[8:3],,,7h[8:3]/8h[8:3],
{2},3h[8:3]/4h[8:3],
{4},5h[8:3]/6h[8:3],,,
{1}4h[2:1]/5h[2:1],
{1}3h[2:1]/6h[2:1],
{4}5,5,4,4,
{4}3,3,3/4,,
{4}4,4,5,5,
{4}6,6,5/6,,
{2}7h[2:1],8,
{2}2h[2:1],1,
{2}3/4,5/6,
{2}4h[4:1]/5h[4:1],3b/6b,
{4}5,5,4,4,
{4}3,3,2/4,,
{4}4,4,5,5,
{4}6,6,5/7,,
{2}7h[2:1],8,
{2}2h[2:1],1,
{2}5/6,3/4,
{2}4h[4:1]/5h[4:1],3b/6b,
{4}5,5h[4:1],,4/6,
{4},,4,4h[4:1],
{4},3/5,,,
{4}6,5h[4:1]/6h[4:1],,3,
{4}3h[4:1]/4h[4:1],,4/5,4h[4:1]/5h[4:1],
{4},3/6,3h[4:1]/6h[4:1],,
{4}7,7,7,8,
{4}8,8,1,1,
{4}1,2h[2:1],,,
{4}3,3,4,6,
{4}6,5,3,3,
{4}3/4,6,6,5/6,
{1}5<4[2:3],,
{1}5h[1:1],
{1}4h[1:1],
{1}3h[1:1],
{1}2,
{1}4h[1:1],
{1}5h[1:1],
{1}6h[1:1],
{2}7,7,
{2}6h[2:3],5,
{2}4,5,
{2}3h[2:3],4,
{2}5,4,
{2}7h[2:3],8,
{2}1,8,
{1}1h[2:1]/8h[2:1],
{1}2b/7b,
{4}1,2,3,4,
{4}5,6,7,1/8,
{4}8,7,6,5,
{4}4,3,2,1/8,
{4}7,7/8,2,1/2,
{4}8,8,1/8,2,
{4}1/2,7,7/8,1,
{4}1,1/8,1,2,
{4}3,4,5,6,
{4}7,8b,7,6,
{4}5,4,3,2,
{4}1,2h[2:1],,3h[2:1],
{4},4h[2:1],,5,
{4},5h[4:1]/6h[4:1],,3h[4:1]/4h[4:1],
{4},4h[2:1]/5h[2:1],,,
{4},3b/6b,,2b/7b,
{4},2,1/2,7,
{4}7/8,3,3/4,6,
{4}5/6,3,2/4,6,
{4}5/7,8b,8b,1b,
{4}1b,7,7/8,2,
{4}1/2,6,5/6,3,
{4}3/4,6,5/7,3,
{4}2/4,1b,8b,7b,
{4}6b,5/6,5/6,3/4,
{4}3/4,7/8,7/8,1/2,
{4}1/2,7/8,1/6,1/2,
{4}3/8,7b,8b,1b,
{4}2b,3/4,3/4,5/6,
{4}5/6,1/2,1/2,7/8,
{4}7/8,1/2,3/8,7/8,
{4}1/6,1/8,2/7,3/6,
{4}4/5,5h[2:1],,,
{4},3h[2:1],,2h[2:1],
{4},1h[2:1],,8,
{4},7h[2:1],,6h[2:1],
{4},5h[2:1],,4,
{4},3h[2:1],,4,
{4},6h[2:1],,5,
{4},4/5,,3b/6b,
{4},2,3,4,
{4}5,6,7,1/8,
{4}1/8,7,6,5,
{4}4,3,2,1/8,
{4}1/8,2,1/2,7,
{4}7/8,3,3/4,6,
{8}5/6,,4,4,4,,6,6,
{8}6,,3,3,3,,5,5,
{8}5,,4/5,4/5,4/5,,3/6,3/6,
{8}3/6,,2/7,2/7,2/7,,1/8,1/8,
{4}1/8,2b/7b,
E

EXPERT

(200.0){12},,,,,,,,,,,3h[6:7],{1},
{12},6b,,,,,,,,,,,
{1}6h[1:1],
{1}5h[1:1],
{1}4h[1:1],
{4}3h[2:1],,6,4/5,
{1}2h[1:1],
{1}4h[1:1],
{1}5h[1:1],
{2}7h[2:1],2,
{8}5h[4:1]/6h[4:1],,,5/6,,,1h[4:1]/8h[4:1],,
{8},1/8,,,3h[4:1]/4h[4:1],,,3/4,
{8},,2h[4:1]/7h[4:1],,,2/7,,,
{1}7<2[16:9],
{2}1h[2:1],8b,
{4}6/3h[4:3],6,4,4,
{8}6,6,5,,4/7,,,,
{4}3/6h[4:3],3,5,5,
{8}3,3,4,,2/5,,3/4,,
{2}2h[2:1],1h[2:1],
{2}8h[2:1],7,
{2}2h[4:1]/4h[4:1],4h[4:1]/6h[4:1],
{4}4h[4:1]/5h[4:1],,3/6,4/5,
{4}3/6h[4:3],3,5,5,
{8}3,3,4,,2/5,,,,
{4}6/3h[4:3],6,4,4,
{8}6,6,5,,4/7,,5/6,,
{2}7h[2:1],8h[2:1],
{2}1h[2:1],2,
{2}5h[4:1]/7h[4:1],3h[4:1]/5h[4:1],
{4}4h[4:1]/5h[4:1],,3/4,5b/6b,
{4}6h[4:3],5,5,7-4[4:1],
{4},,3h[4:3],4,
{4}4,2-5[4:1],,,
{4}4/3h[2:1],5,6,5/6h[2:1],
{4}4,3,4/5,3/6,
{1}2p5[2:1]/7q4[2:1],
{4}3/4,5,6,7/8,
{4}1,2,3/4,2/5,
{4}1/6,7/8,,7,
{4}5/6,4,3,1/2,
{4}8,7,6,6,
{4}5/7,3,3,2/4,
{1}4>5[4:5]/5<4[4:5],,
{1}5h[1:1],
{4}4h[4:3],,,6,
{1}6h[1:1],
{4}3h[4:3],,,7,
{1}7h[1:1],
{4}2h[4:3],,,8,
{1}8h[1:1],
{4}1,,1,1/8,
{4}8h[1:1],1,2,3,
{4}4h[1:1],5,6,7,
{4}8h[1:1],4,3,2,
{4}1h[4:3],5,6,7,
{4}1/8,1/8,2/7,2/7,
{4}3/6,3/6,4/5,4/5,
{1}5w1[2:1],
{1}2b/8b,
{12}6,,6,5,,,7/8,,,7/8,,,
{12}3,,3,4,,,1/2,,,1/2,,,
{12}6,,6,4,,,1/7,,,1/8,,,
{12}3,,3,5,,,2/8,,,1/8,,,
{4}2h[4:1],8h[4:1],1h[4:1],4h[4:1],
{8}3,3,3,,5b,,7h[4:1],,
{8}1h[4:1],,8h[4:1],,5h[4:1],,6,6,
{12}6,,,4b,,,6,,6,5,,,
{12}7,,7,8,,,2,,2,1,,,
{12}3,,3,4h[4:1],,,3h[4:1],,,2h[4:1],,,
{4}1h[4:1],8h[4:1],7h[4:1],6h[4:1],
{4}5h[4:1],4h[4:3],3,2,
{4}1,8h[4:3],7,6,
{4}5,3/4,4/5,5/6,
{4}4/5,3h[4:3]/6h[4:3],,,
{4},1h[4:1]/8h[4:1],,3b/6b,
{8},,2,2,7,7,5,5,
{8}8,8,1,1,4,4,3,3,
{8}8,8,5,5,6,6,2,2,
{8}7,7,7/8,,1/2,,3/4,,
{8}5/6,,7,7,2,2,4,4,
{8}1,1,8,8,5,5,6,6,
{8}1,1,4,4,3,3,7,7,
{8}2,2,1/2,,3/4,,5/6,,
{8}7/8,,6,6,5,6,3,3,
{8}4,3,7,7,5,7,2,2,
{8}4,2,7,7,8,7,2,2,
{8}1,2,4/5,,6/7,,1/8,,
{8}2/3,,6,6,5,6,3,3,
{8}4,3,7,7,5,7,2,2,
{8}4,2,7,7,8,7,2,2,
{8}1,2,6,6,8,6,3,3,
{8}1,3,7h[4:3],,,,,,
{4}4,3h[4:1]/6h[4:1],,2/7,
{4},8h[2:1],,1,
{4}2,3h[4:3],4,5,
{4}6,7h[2:1],,8,
{4}1,2h[4:3],1,8,
{4}7,6h[4:3],5,4,
{4}3,2b/7b,,3b/6b,
{4},{12}5,{995}5,,,,,,,,,,,,,,,,,,,,,,,,,,,,,,,,,,,,,,,,,,,,,,,,,,,,,,,,,,,,,,,,,,,,,,,,,,,,,,,,,,,{12}4,5,,,3,{995}3,,,,,,,,,,,,,,,,,,,,,,,,,,,,,,,,,,,,,,,,,,,,,,,,,,,,,,,,,,,,,,,,,,,,,,,,,,,,,,,,,,,{12}4,
{12}3,,,6,{995}6,,,,,,,,,,,,,,,,,,,,,,,,,,,,,,,,,,,,,,,,,,,,,,,,,,,,,,,,,,,,,,,,,,,,,,,,,,,,,,,,,,,{12}5,6,,,4/5,,,
{12}1/8,,,3,{995}3,,,,,,,,,,,,,,,,,,,,,,,,,,,,,,,,,,,,,,,,,,,,,,,,,,,,,,,,,,,,,,,,,,,,,,,,,,,,,,,,,,,{12}4,3,,,7,{995}7,,,,,,,,,,,,,,,,,,,,,,,,,,,,,,,,,,,,,,,,,,,,,,,,,,,,,,,,,,,,,,,,,,,,,,,,,,,,,,,,,,,{12}6,
{12}7,,,2,{995}2,,,,,,,,,,,,,,,,,,,,,,,,,,,,,,,,,,,,,,,,,,,,,,,,,,,,,,,,,,,,,,,,,,,,,,,,,,,,,,,,,,,{12}1,2,,,1/8,,,
{12}4/5,,,2,{995}2,,,,,,,,,,,,,,,,,,,,,,,,,,,,,,,,,,,,,,,,,,,,,,,,,,,,,,,,,,,,,,,,,,,,,,,,,,,,,,,,,,,{12}4,2,,,7,{995}7,,,,,,,,,,,,,,,,,,,,,,,,,,,,,,,,,,,,,,,,,,,,,,,,,,,,,,,,,,,,,,,,,,,,,,,,,,,,,,,,,,,{12}5,
{12}7,,,3,{995}3,,,,,,,,,,,,,,,,,,,,,,,,,,,,,,,,,,,,,,,,,,,,,,,,,,,,,,,,,,,,,,,,,,,,,,,,,,,,,,,,,,,{12}1,3,,,6,{995}6,,,,,,,,,,,,,,,,,,,,,,,,,,,,,,,,,,,,,,,,,,,,,,,,,,,,,,,,,,,,,,,,,,,,,,,,,,,,,,,,,,,{12}8,
{8}6,,4,4,5,5,2,2,
{8}7,7,1/8,1/8,2/7,2/7,3/6,3/6,
{16}4/5,,4/5,,4,5,4,5,4,5,4,5,3,6,3,6,
{16}3,6,3,6,2,7,2,7,2,7,2,7,1,8,1,8,
{4}1,{6}2h[1247:6287]/7h[6:37],{1},,,,,,,
E

MASTER

(200){12}1b,5,{1}1,{16}4/5,3/6,2/7,1/8,,,,,,,,,,,{64},,,
{1}1h[1:1],3h[1:1],5h[1:1],{4}7h[2:1],,1,3,
{1}8h[1:1],6h[1:1],4h[1:1],{2}2h[2:1],8,
{8}
2,8-4[8:1],1,7b/8b,,,7,1-5[8:1],8,1b/2b,,,
2,8w4[8:1],1,8b,,,7,1w5[8:1],8,1b,,,
{1}1h[4:3]/2h[4:3],3h[4:3]/8h[4:3],

{8}
1>1[8:3]*<1[8:3],,,,,,,6h[4:1],,5,6,5,4^1[8:1]/7^4[8:1],,,,
5V38[4:1]*V72[4:1],,,,,,,7h[4:1],,8,7,8,{2}1-6[8:1]/2-5[8:1],
4h[1:1],{16}5,,,6,,,7,,{4}8h[2:1],,1h[2:1],,7,
{16},,1-5[8:1],1,1,,,,,,7-3[8:1],7,7,,,,,,8-4[8:1],8,{8}8,,5,,

8>8[8:3]*<8[8:3],,,,,,,3h[4:1],,4,3,4,2^5[8:1]/5^8[8:1],,,,
4V27[4:1]*V61[4:1],,,,,,,2h[4:1],,1,2,1,{2}7-4[8:1]/8-3[8:1],
5h[1:1],{16}4,,,3,,,2,,{4}1h[2:1],,8h[2:1],,2,
{16},,8-4[8:1],8,8,,,,,,2-6[8:1],2,2,,,,,,1-5[8:1],1,{4}1,4,

2h[4:3],,,1h[2:1],,8h[4:1],7h[4:1],8h[4:1],
1h[4:1],2h[4:1],1h[4:1],{12}2h[6:1],,3,{4}4h[4:3],,,6h[4:3],,,8h[8:5],,
{8},2h[8:1],1h[8:1],8h[8:1],7h[8:1],6h[8:1],5h[8:1],4h[8:1],
{4}6h[4:1],5h[4:1],7h[4:1],4h[4:1],8h[4:1],3h[4:1],1h[4:1],2h[4:1],
{12}8h[6:1],,1,2h[4:1],,,,,,1h[6:1],,8,
{4}
7h[4:1],8h[4:1],6h[4:1],1h[4:1],5h[4:1],2h[4:1],
6h[4:1],5h[4:1],7h[4:1],5h[4:1],8h[4:1],3h[4:1],
{2}1h[1:1],,,1b/2b,

8<1[1:1],,1pp4[1:1],{8},,4,4,{2}4>5[1:1],,5pp8[1:1],{8},,8,8,
{2}8<1[1:1],,1pp4[1:1],{8},,4,4,{2}4>5[1:1],,5-2[4:1],{8}3,,1,1,
{4}1>8[1:1],8,8,8,8qq5[1:1],5,5,{8}5,5,
{4}5<4[1:1],4,4,4,4qq1[1:1],1,1,{8}1,1,
{4}1>8[1:1],8,8,8,8qq5[1:1],5,5,{8}5,5,
{1}5p1[2:1]*q1[2:1],2b/8b,

{12}
3,4,3,6,5,6,3,4,3,6,5,6,
2,1,2,7,8,7,1,8,1,2,3,4,
6,5,6,3,4,3,6,5,6,3,4,3,
7,8,7,2,1,2,8,1,8,7,6,5,
{4}
3/4,1/2,5/6,7-4[8:1]/8,1-6[8:1]/7b,8-4[8:1]/1b,8b,
5/6,7/8,1/2,3-8[8:1]/4,5-1[8:1]/3b,4-8[8:1]/5b,{8}4b,7,
{12}
2,8,2,6,4,6,2,8,1,6,4,5,
3,1,3,7,5,7,3,1,2,6,8,6,
2,4,2,6,8,7,2,4,3,5,7,5,
1,3,1,6,5,7,2,1,3,
{2}6h[2:1],{16}2,,,2,,,1,,
{4}7h[4:1],5,2h[4:1],4,8h[4:1],6,1h[4:1],3,8h[1:1],,,,2h[2:1],,1b,,

{16}
2,1,2,1,2,1,2,1,3,8,3,8,3,8,3,8,
1,7,1,7,1,7,1,7,4,6,4,6,4,6,4,6,
5,7,5,7,5,7,5,7,1,8,1,8,1,8,1,8,
3,6,3,6,3,6,3,6,4,5,3,6,4,5,3,6,

8,7,8,7,8,7,8,7,1,8,1,8,1,8,1,8,
2,1,2,1,2,1,2,1,3,4,3,4,3,4,3,4,
2,5,2,5,2,5,2,5,1,8,1,8,1,8,1,8,
3,8,2,1,3,8,2,1,3,8,2,1,3,8,2,1,

5,6,5,6,3,7,3,7,2,8,2,8,1,7,1,7,
8,6,8,6,5,7,5,7,3,5,3,5,2,8,2,8,
1,6,1,6,8,7,8,7,3,1,3,1,4,5,4,5,
8,7,8,7,1,8,1,8,2,1,3,8,4,7,5,6,

1,8,2,7,1,8,2,7,2,1,3,8,2,1,3,8,
4,5,3,6,4,5,3,6,3,4,2,5,3,4,2,5,
1,6,3,8,2,5,4,7,2,5,4,7,1,6,3,8,
2,1,3,8,4,7,5,6,3,4,2,5,1,6,8,7,

{2}1p8[2:1],{8},,7,7,
{2}7p3[4:1],2q6[4:1],8V26[8:3],{8},,3,8,
{2}3>5[2:1],5^2[4:1],
{4}8,1-3[8:1],1-5[8:1],1-7[8:1],1-5[8:1],1-3[8:1],1-5[8:1],1<2[4:3],
{1},8w4[2:1],

{12}
7-4[8:1],7,8,7,,,2-5[8:1],2,1,2,,,
6-1[8:1],6,8,6,,,3-8[8:1],3,1,3,,,
7-4[8:1],7,7,7,,,2-5[8:1],2,2,2,,,
6-1[8:1],6,6,6,,,3-8[8:1],3,3,3,,,
7,7,4,7,7,3,7,7,2,7,7,1,
2,2,5,2,2,6,2,2,7,2,2,8,

{16}
1b,7,3,5,2,8,4,6,
3b,5,2,7,4,6,2,8,
5b,6,4,5,3,4,2,6,
8b,7,1,8,2,1,3,7,

1b,2,3/8b,7,6/1b,2,3/8b,7,
6/2b,3,4/8b,7,6/2b,3,4/8b,7,
6/2b,3,4/7b,6,5/2b,3,4/7b,6,
{32}
5/1b,2,3,4,5,6,7,8,
1b,2,3,4,5,6,7,8,
{1}1b/2b,,,,,

{16}1/8,2/7,3/6,{1}4/5,
{12}1,5,{1}1b,,,,,E


Re:MASTER


  • 修正箇所等ありましたら修正・加筆をおねがいします。 -- Sea (2018-08-09 19:44:00)
  • {12} 3,4,3,6,5,6,3,6,3,6,5,6, -- ちる (2019-01-14 14:17:56)
  • {12} 3,4,3,6,5,6,3,6,3,6,5,6,を{12} 3,4,3,6,5,6,3,4,3,6,5,6,に -- ちる (2019-01-14 14:18:58)
  • {12} 3,4,3,6,5,6,3,6,3,6,5,6,を {12} 3,4,3,6,5,6,3,4,3,6,5,6,に、 {12} 7-4[8:1],7,8,7,,,2-4[8:1],2,1,2,,,を {12} 7-4[8:1],7,8,7,,,2-5[8:1],2,1,2,,,に修正しました。 -- ちる (2019-01-14 14:21:38)
  • 修正ありがとうございますm(_ _)m -- Sea (2019-01-16 11:17:35)
  • レベル修正とともに、空白だった部分のノーツデザイナーさんの名前を追加! -- Y-AKTK;Σv. (2020-05-05 20:56:37)
  • 一筆書きのところの{8}4,,1,1,→{8}3,,1,1,に修正しました。 -- けもがみ (2021-02-03 08:09:01)
  • 最初の部分({16}のEACHの後)のタイミングを少し細かくして合わせておきました。 -- 嵐雅 (2021-05-22 16:58:22)
名前:
コメント:

タグ:

+ タグ編集
  • タグ:

このサイトはreCAPTCHAによって保護されており、Googleの プライバシーポリシー利用規約 が適用されます。

最終更新:2023年05月20日 14:39