CITRUS MONSTER

BPM EASY BASIC ADVANCED EXPERT MASTER Re:MASTER
220 3 6 8 11+ 14 -

EXPERT MASTER Re:MASTER
譜面制作者 ぴちネコ ロシェ@ペンギン -

EASY


BASIC

(220.0)
{1}1,
{1}2,
{1}3,
{1}4,
{1}5,
{1}6,
{1}7,
{1}8,
{2}8,8,
{1}7h[2:1]/8h[2:1],
{2}1,1,
{1}1h[2:1]/2h[2:1],
{4}8,8,1,1,
{4}8,8,1,1,
{1}1/8,,
{4}1,1,1,,
{4}2,2,1/2,,
{4}3,3,3,,
{4}4,4,4,,
{4}5,5,5,,
{4}6,6,5/6,,
{4}7,7,7,,
{4}8,1,8,1,
{4}8,8,8,,
{4}7,7,7/8,,
{4}6,6,6,,
{4}5,5,5,,
{4}4,4,4,,
{4}3,3,3/4,,
{2}1/2,1/2,
{4}1,8,1,8,
{1}1h[2:1],
{4}2,1,2,,
{1}8h[2:1],
{4}7,8,7,,
{1}5h[2:1],
{4}6,5,6,,
{1}4h[2:1],
{4}3,4,3,,
{2}2b/7b,2/7,
{4}2,1,2,,
{2}3/6,3/6,
{4}3,4,3,,
{2}2/7,2/7,
{4}7,8,7,,
{2}3/6,3/6,
{4}6,5,6,,
{1}4-1[4:7]/5-8[4:7],,,,,,,,
{1}1h[2:1],
{1}2h[2:1],
{1}3h[2:1],
{1}4h[2:1],
{1}5h[2:1],
{1}6h[2:1],
{1}7h[2:1],
{1}8h[2:1],
{4}8,8,8,8,
{4}7,7,7,7,
{4}6,6,6,6,
{4}5,5,4/5,,
{4}4,4,4,4,
{4}3,3,3,3,
{4}2,2,2,2,
{4}1,1,1/8,,
{4}1,1,2,2,
{4}3,3,4,4,
{4}5,5,6,6,
{4}7,7,8,8,
{4}1,2,3,4,
{4}5,6,7,8,
{1}1b,
{4}1,1,1,1b/8b,
{4}8,8,1/8,,
{4}7,7,7/8,,
{4}6,6,5/6,,
{4}4,5,4,5,
{4}4,4,4/5,,
{4}3,3,3/4,,
{4}2,2,1/2,,
{4}1,8,1,1/8,
{4}1,1,1,,
{4}2,2,1/2,,
{4}3,3,3/4,,
{4}5,4,5,4,
{4}5,5,4/5,,
{4}6,6,5/6,,
{4}7,7,7/8,,
{4}1,8,1,1/8,
{4}1,1,1,1,
{4}2,2,2,2,
{4}3,3,3,3,
{4}4,4,4,4/5,
{4}5,5,5,5,
{4}6,6,6,6,
{4}7,7,7,7,
{4}8,8,8,1/8,
{1}1h[1:1],
{2},1/2,
{1}8h[1:1],
{2},7/8,
{1}1-4[4:7]/8-5[4:7],,,
E

ADVANCED

(220.0)
{1}6h[2:3],
{2}5,5,
{1}3h[2:3],
{2}4,4,
{1}7h[2:3],
{2}6,6,
{1}2h[2:3],
{2}3,3,
{4}8,8,7,7,
{4}6,6,5/6,,
{4}1,1,2,2,
{4}3,3,3/4,,
{4}5,5,6,6,
{4}7,7,8,8,
{1}1>8[4:5],,
{4}8,8,7,7,
{4}7/8,1/6,2/5,,
{4}1,1,2,2,
{4}1/2,3/8,4/7,,
{4}5,5,6,6,
{4}5/6,4/7,3/8,,
{4}4,4,3,3,
{4}3/4,2/5,1/6,,
{4}6,5/6,3,3/4,
{4}1/2,3/8,4/7,5/6,
{4}3,3/4,6,5/6,
{4}7/8,1/6,2/5,3/4,
{4}6,5/6,3,3/4,
{4}1/2,3/8,4/7,5/6,
{4}3/4,3/4,5/6,5/6,
{1}1-4[8:3]/8-5[8:3],
{4}3h[1:1],,4,4,
{2}4,2/5,
{4}6h[1:1],,5,5,
{2}5,4/7,
{4}2h[1:1],,1,1,
{2}1,3/8,
{4}7h[1:1],,8,8,
{2}8,1/6,
{1}4qq1[4:5]/5pp8[4:5],,
{4}7h[1:1],,6,6,
{2}6,1/7,
{4}2h[1:1],,3,3,
{2}3,2/8,
{4}8h[1:1],,1,1,
{2}1,4/5,
{1}2b/7b,,,,
{1}6h[1:1],
{1}5h[1:1],
{1}4h[1:1],
{2}3,3,
{1}3h[1:1],
{1}4h[1:1],
{1}5h[1:1],
{2}6,6,
{1}7h[1:1],
{1}8h[1:1],
{1}1h[1:1],
{2}2,2,
{4}1,1,2,2,
{4}3,3,4,4,
{4}5,5,6,6,
{4}7,7,7/8,,
{4}8,8,7,7,
{4}6,6,5,5,
{4}4,4,3,3,
{4}2,2,1/2,,
{4}1,2,3,4,
{4}5,6,7,8,
{4}8,7,6,5,
{4}4,3,2,1,
{4}1/2,1/2,3/4,3/4,
{4}5/6,5/6,7/8,7/8,
{1}1-6[8:3]/2-5[8:3],
{4}4/5,4/5,4/5,3b/6b,
{4}7,7,6/8,6/8,
{4}2,2,1/3,1/3,
{4}6,5/6,3,3/4,
{4}1/2,3/8,4/7,5/6,
{4}2,2,1/3,1/3,
{4}7,7,6/8,6/8,
{4}3,3/4,6,5/6,
{4}7/8,1/6,2/5,3/4,
{4}7,5/6,2,3/4,
{4}7,5/6,4,3/5,
{4}2,3/4,7,5/6,
{4}2,3/4,5,4/6,
{4}3,1/2,6,7/8,
{4}3,1/2,8,1/7,
{4}6,7/8,3,1/2,
{4}7/8,7/8,1/2,1/2,
{4}8,5/7,1,2/4,
{4}8,5/7,3/4,2/5,
{4}1,2/4,8,5/7,
{4}1,2/4,7/8,1/6,
{4}4,1/3,5,6/8,
{4}4,1/3,7/8,1/6,
{4}5,6/8,4,1/3,
{1}7-4[8:3]/8-3[8:3],
{2}6h[2:1],5,
{2}3h[2:1],4,
{2}2h[2:1],1h[2:1],
{2}8h[2:1],7,
{1}3/6,
E

EXPERT

(220.0)
{4}4b-1[8:1]/5b-8[8:1],,,2/7,
{8}1h[4:1],,,2h[8:3]/8h[8:3],,,,,
{4}7^4[16:3]/8^3[16:3],,,1/6,
{8}3h[4:1]/4h[4:1],,,,7,8,7,,
{4}4b-1[8:1]/5b-8[8:1],,,2/7,
{8}8h[4:1],,,1h[8:3]/7h[8:3],,,,,
{4}1^6[16:3]/2^5[16:3],,,3/8,
{8}5h[4:1]/6h[4:1],,,,2,1,2,,
{4}5,5,2/8,2/8,
{4}4,4,1/7,1/7,
{4}6,6,1/4,1/4,
{4}3,3,5/8,5/8,
{8}6,6,3,3,5,5,4,4,
{8}6,6,3,3,7,7,2,2,
{1}8<1[1:1],
{2},4b-8[8:1],
{4}2/6,7/8,4,1/7,
{8}2,1,2,1,2-5[8:1],,,,
{4}6,7/8,4,1/7,
{8}2,1,2,1,2h[4:1],,8,,
{4}3/7,1/2,5,2/8,
{8}7,8,7,8,7-4[8:1],,,,
{4}3,1/2,5,2/8,
{8}7,8,7,8,7h[4:1],,1,,
{8}5b,5,,1/3,,6/8,,2/4,
{8},5/7,,1,1-5[8:1],,,,
{8}6,6,,1/3,,6/8,,2/4,
{8},5/7,,1/3,,6,6,,
{8}4,4,,6/8,,1/3,,5/7,
{8},2/4,,8,8h[4:1],,2b,,
{2}7/1-4[8:1],3/5-8[8:1],
{1}7/1s5[8:3],
{4}2/7h[2:1],8,2h[2:1],1,
{4}8h[4:1],7h[4:1],6h[4:1],5,
{4}6/3h[2:1],4,6h[2:1],5,
{4}4h[4:1],3h[4:1],2h[4:1],1,
{4}2/1h[2:1],4,8h[2:1],5,
{4}6h[4:1],8h[4:1],1h[4:1],3,
{4}6/5h[2:1],8,4h[2:1],1,
{4}2h[4:1],4h[4:1],5h[4:1],7,
{8}4/5,4qq1[8:5]/5pp8[8:5],,,,,,,
{4},3/6,1/8,,
{8}4/5,4/5,,2/7,,3/6,,1/8,
{8},3/6,3/6,,1h[4:1]/8h[4:1],,,,
{8}1/8,1/8,,3/6,,2/7,,4/5,
{8},2/7,2/7,,4h[4:1]/5h[4:1],,,,
{8}4/5,4/5,,2/7,,3/6,,1/8,
{8},8,1,7,2,6,3,,
{1}4bq5[4:7]/5b<4[4:7],,,,
{1}2h[2:3],
{1}1h[2:3],
{1}8h[2:3],
{1}7h[2:1],
{8}3b/4b,,5/6,,1/8,1p4[4:1]/8^5[4:1],,,
{8},,3,,1/8,1^4[4:1]/8q5[4:1],,,
{8},,6,,1/8,1p4[4:1]/8^5[4:1],,,
{4},3h[4:1],2h[4:1],1,
{8}7/8,,1/2,,4/5,4^1[4:1]/5p8[4:1],,,
{8},,7,,4/5,4q1[4:1]/5^8[4:1],,,
{8},,2,,4/5,4^1[4:1]/5p8[4:1],,,
{4},7h[4:1],6h[4:1],5,
{4}3/4,2/5,1/6,7/8,
{4}1h[4:1],8h[4:1],7h[4:1],6,
{4}5/6,4/7,3/8,1/2,
{4}8h[4:1],1h[4:1],2h[4:1],3,
{4}3/4,7/8,5/6,1/2,
{4}3/5,7/8,4/6,1/2,
{4}5,2/6,3/7,4/8,
{4}3/7,2/6,1/5b-8[8:1],,
{4}1h[4:1],2h[4:1],3h[4:1],4h[4:1],
{4}5h[4:1],6h[4:1],7h[4:1],8h[4:1],
{4}1h[4:1],2h[4:1],3h[4:1],4h[4:1],
{4}5h[4:1],6h[4:1],7h[4:1],8h[4:1],
{8}1,1,2,2,3,3,4,4,
{8}5,5,6,6,7,7,8,8,
{1}1>8[2:1],
{4}2/7,3/6,4-1[8:1]/5-8[8:1],,
{8}2b/7b,,3/4,,2/5,5/2^5[16:3],,7h[8:3],
{8},,8,,1/6,1/6^1[16:3],,3h[8:3],
{8},,4,,2/5,5/2^5[16:3],,7h[8:3],
{8},,8,,1,6,2,,
{8}3/4,,5/6,,4/7,4/7^4[16:3],,2h[8:3],
{8},,1,,3/8,8/3^8[16:3],,6h[8:3],
{8},,5,,4/7,4/7^4[16:3],,2h[8:3],
{4},1s5[8:3],,,
{8}2,2,,2/8,,2/3,,2/7,
{8},2/4,,2/6,6/2-6[8:1],,,,
{8}7,7,,1/7,,6/7,,2/7,
{8},5/7,,3/7,3/7-3[8:1],,,,
{8}2,2,,2/8,,2/3,,2/7,
{8},2/4,,2/6,6/2-6[8:1],,,,
{8}7,7,,1/7,,6/7,,2/7<2[8:3],
{4},,,1b/8b,
{8}2,2,2,2,2,2,2,2,
{8}1/2,1/2,1/2,1/2,1/2-5[8:1],,8b,,
{8}7,7,7,7,7,7,7,7,
{8}7/8,7/8,7/8,7/8,8/7-4[8:1],,1b,,
{8}1,1,1,1b,8,8,8,8b,
{8}2,2,2,2b,7,7,7,7b,
{16}1,8,1,8,1,8,1,8,1,8,1,8,1,8,1,8,
{1}1b>8[2:1],
{8}7,7,,3/4,,5/6,,3/4,
{8},8,2,6,4-8[8:1],,,,
{8}6,6,,7/8,,1/2,,7/8,
{8},3,5,1,7,4,8,,
{1}8bw4[4:7],,,
E

MASTER

(220){8}
26,,48,,4,5,4,5,
34,3q8[4:1]/4^7[4:1],,34,,,1,,
28,,37,,5,4,5,4,
7,7qq6[8:3],,8,1,2,3,,
37,,15,,5,4,5,4,
56,5^2[4:1]/6p1[4:1],,56,,,8,,
24,,57,,4,5,4,5,
2,2pp3[8:3],,1,8,7,6,,
1-3[8:1]/7,,1-5[8:1]/6,,15,,18,18,
2/8-6[8:1],,3/8-4[8:1],,48,,36,,
1^3[8:1]/7,,1-6[8:1]/6,,15,,18,18,
2/8^6[8:1],,3/8-3[8:1],,48,,45,,
1,8,2,7,3,6,4,5,
{16}3,6,3,6,2,7,2,7,1,8,1,8,{32}1,2,3,4,5,6,7,8,
{2}1q4[1:1],{16},,,8h[256:1],{4},
,,{16}5,4,5,4,3b/7b,,,,

18,,1/8h[4:1],,2,3,4,,17,,1/7h[4:1],,2,3,4,,
6,,6,,3-8[8:1],,3,,7q4[8:1],,7,,,,,,
18,,1/8h[4:1],,2,3,4,,17,,1/7h[4:1],,2,3,4,,
6,,6,,3,,3,,24,,15,,68,,7,,
18,,1h[4:1]/8,,7,6,5,,28,,2h[4:1]/8,,7,6,5,,
3,,3,,6,,6,,27,,27,,4,5,4,5,
1,,1h[4:1],,7,6,5,,28,,2h[4:1]/8,,7,6,5,,
3-8[8:1],,3,,6-1[8:1],,6,,3,,3,,5b/7b,,,,
6^1[8:1],,6,,2,3,4h[8:1],,1,8,7h[8:1],,2,3,4h[8:1],,
1,8,7h[8:1],,2,3,4h[8:1],,1-5[8:1],8,7,6,1b/5,,,,
8^5[8:1],,8,,4,3,2h[8:1],,5,6,7h[8:1],,4,3,2h[8:1],,
5,6,7h[8:1],,4,3,2h[8:1],,1,,28,,37,,46,,
3^8[8:1],,3,,7,6,5h[8:1],,8,1,2h[8:1],,7,6,5h[8:1],,
8,1,2h[8:1],,7,6,5h[8:1],,8-4[8:1],1,2,3,4/8b,,,,
{8}5-1[8:1]/6-1[8:1],56,,,3-8[8:1]/4-8[8:1],34,,,
7,7,4-1[8:1],4,8-5[8:1],,,,

2h[2:1],,5,6,7,5-2[8:1]/7-4[8:1],,57,
,3,5,3,2v8[8:1]/4-8[8:1],,,,
7h[2:1],,2,3,4,4qq2[8:1]/5pp7[8:1],,45,
,3,7,3-7[8:1],7>3[4:1],6,5,,
7h[2:1],,4,3,2,2-5[8:1]/4-7[8:1],,24,
,6,4,6,5-1[8:1]/7^4[8:1],,,,
2h[2:1],,7,6,5,4qq2[8:1]/5pp7[8:1],,45,
,2,6,2v5[8:1],5>1[4:1],6,7,,
8h[8:3],,,1,,2-5[8:1]/7-4[8:1],,2b/7b,
,3-7[8:1],7>3[4:1],3,4-8[8:1],,,,
37,6,15,2,3,1^4[8:1]*^6[8:1]/4,,1,
,5,2,7-4[8:1],4-8[8:1],3,2,,
26,3,48,7,6,5/8-3[8:1]*-5[8:1],,8,
,6-2[8:1],2<6[4:1],6,5-1[8:1],,,,
37,6,15,2,3,14,,2/7qq4[8:5],
,5,4,3,2,1,8,,
{0.5}1bq3[4:7]/5bq7[4:7],,

{8}5h[4:1],,4h[4:1],,6,6,,57,
,4,5h[4:1],,3,3,,24,
,5,4h[4:1],,6,6,,57,
,4,5s1[4:1],,,,,,
1b/8b,,4/5h[8:3],,6,6,,47,
,45,4h[8:3]/5,,3,3,,25,
,45,4/5h[8:3],,6,6,,47,
,45,4h[2:1]/5,,3,3,3,,
46,,3/5h[8:3],,6,6,,37,
,46,4h[8:3]/6,,3,3,,26,
,35,3/5h[8:3],,6,6,,37,
,46,{4}4h[2:1]/6V48[4:1],,,
2b-6[8:1],8-4[8:1],1,36,
{8}5,4,{4}5q4[4:1],3,8,
7-3[8:1],1-5[8:1],8p3[4:1],3^8[4:1],
8p3[4:1],3,8,27,
7-4[8:1],1-5[8:1],8,27,
{8}1,8,{4}1q8[4:1],7,4,
2-5[8:1],6-1[8:1],4p7[4:1],7^4[4:1],
4p7[4:1],7,4,1b/8b,
{8}4,5,4,5,3,6,3,6,
2,7,2,7,1,8,1,8,
1,1,8,8,2,2,7,7,
3,3,6,6,4,4,5,5,
{16}3,6,3,6,3,6,3,6,2,7,2,7,2,7,2,7,
1,8,1,8,1,8,1,8,{32}1,2,3,4,5,6,7,8,1w5[4:3],2,3,4,5,6,7,8,
{1}1,
{16}6,5,6,,3,4,3,,4-1[8:1]/5-8[8:1],,45,,4b/5b,,,,

78,,2,1,2,,4,3,4,,35,,26,,1/7q4[8:1],,
,,8,1,2h[4:1],,5,6,7,,12,,38,,4p7[8:1]/7,,
,,7,6,5h[4:1],,8,1,2,,34,,25,,1/6p1[8:1],,
,,1,2,3h[8:1],,8,7,6,,45,,36,,27,,
18,,7,8,7,,5,6,5,,46,,37,,2p5[8:1]/8,,
,,1,8,7h[4:1],,4,3,2,,78,,16,,2/5q2[8:1],,
,,2,3,4h[4:1],,1,8,7,,56,,47,,3s7[8:3]/8,,
{4},4,8,1b/8b,
{16}3,,8-6[8:1],,3,,8-2[8:1],,5,,8-6[8:1],,5,,8,,
3,,8,1,25,,8,7,36,,45,,1b/8b,,,,
6,,1-3[8:1],,6,,1-7[8:1],,4,,1-3[8:1],,4,,1,,
6,,1b,8,47,,1b,2,36,,4b/5b,,1b/8b,,,,
3,,8-6[8:1],,3,,8-2[8:1],,5,,8-6[8:1],,5,,8,,
3,,8,1,25,,8,7,36,,45,,1b/8b,,,,
6,,1-3[8:1],,6,,1-7[8:1],,4,,1-3[8:1],,4,,1,,
{12}5b,,,1b/8b,,,7b,5,7,2b,4,2,
{8}8b-4[8:1],8,2-6[8:1],2,5-8[8:1],5,3-6[8:1],3,
7-4[8:1],7,2,2,1/8-4[8:1],{16},2,{8}8b,3,
1-5[8:1],1,7-3[8:1],7,4-1[8:1],4,6-3[8:1],6,
2-5[8:1],2,7,7,1b/8b,{16},57,,,24,,
1b/8b,,18,,28,,28,,38,,38,,48,,48,,
37,,37,,26,,26,,1-5[8:1]/5,,,6,1b,,7,,
4,8,4,8,3,7,3,7,2,6,2,6,1pp8[2:1],5pp4[16:7],1,5,
{4},,,2b/7b,
{8}2h[2:1]/6,,5,6,7,5-2[8:1]/7-4[8:1],,57,
,3-7[8:1],7>3[4:1],3,5-1[8:1],,,,
{16}4,8,4,8,4,7,4,7,4,6,4,6,4,5,4,5h[16:13],
{8},7,8,1,2,3,4>5[4:7],,
{1}4b/8b,,E

Re:MASTER




名前:
コメント:

タグ:

+ タグ編集
  • タグ:

このサイトはreCAPTCHAによって保護されており、Googleの プライバシーポリシー利用規約 が適用されます。

最終更新:2022年01月30日 18:32