あ・え・い・う・え・お・あお!!

BPM EASY BASIC ADVANCED EXPERT MASTER Re:MASTER
145 3 4 7+ 10+ 12+ -

EXPERT MASTER Re:MASTER
譜面制作者 rioN 玉子豆腐 -

EASY


BASIC

(145.0){2}1,1,
{4}8,8,8,8,
{1}1h[2:1],
{1}2h[2:1],
{1}3h[2:1],
{4}4,4,4,,
{4}5,5,5,,
{4}4/5,,6,6,
{4}6,,7,7,
{4}7,,8,8,
{4}8,8,,1,
{4}1,1b/8b,,8h[2:1],
{4},,,7h[2:1],
{4},,,6,
{4}6,5/6,,4,
{1}4h[2:1],
{1}3h[2:1],
{4}2,2,1/2,,
{1}8h[4:3],
{4},1-5[4:3],,,
{4},,,8-4[4:3],{1},
{4},,,1,
{4},1,,2,
{4},2,,3h[2:1],
{2},4h[2:1],
{4},5,,5,
{4},6,,6,
{4},7,,7,
{4},8,,8,
{4},1,,1,
{4},1/8,1/8,1/8,
{4}1b/8b,7,7,7,
{4},6,6,5/6,
{4},5,5,5,
{4},4,5,4/5,
{4},3,3,3,
{4},2,2,1/2,
{4},1,1,1,
{4},8,1,1/8,
{4},7,7,7/8,
{4},2,2,1/2,
{4},1/8,,1/8,
{4},1/8,1/8,1h[1:1]/8h[1:1],{1},
{4},1,2,3,
{4},4,5,4/5,
{4},5,6,7,
{4}8,,1,8,
{2}1/8,8h[2:1],
{4},1h[2:1],,,
{1}1b/8b,
E

ADVANCED

(145.0){2}4h[4:1]/5h[4:1],2h[4:1]/7h[4:1],
{4}1/2,7/8,1/2,7b/8b,
{4}2h[4:1]/4h[4:1],,3,3,
{4}5h[4:1]/7h[4:1],,6,6,
{4}3,3/4,6,5/6,
{4}3,2/4,6,5/7,
{4}3/4,5/6,4-1[4:1]/5-8[4:1],,
{4},2b/7b,5/6,5/6,
{4}4/7,,3/4,3/4,
{4}5/2-6[4:1],,,1/8,
{4}1/8,2/7,,1-4[4:1]/8-5[4:1],
{4},,3b/6b,3,
{4}3,2/4,,6,
{4}6,5/7,,3h[4:1],
{4}4,6h[4:1],5,4/5,
{4}2,2,1/3,,
{4}7,7,6/8,,
{4}2h[4:1],1,7h[4:1],8,
{4}1/8,2/7,3/6,4/5,
{4},3-6[4:1],,,
{4}7-2[4:1],,,1-4[4:1],
{2},5-8[4:1],
{4},1b,,6,
{4}5/6,6,5/6,3,
{4}3/4,3,3/4,7h[2:1],
{4}1,8,2h[2:1],8,
{1}1<5[8:3],
{4}4/5,1h[4:1]/2h[4:1],,7h[4:1]/8h[4:1],
{4},1^4[8:3]/8^5[8:3],,,
{4},5h[4:1]/7h[4:1],,2h[4:1]/4h[4:1],
{4},4/5,4/5,2h[4:1]/7h[4:1],
{4},7/8,1/2,7/8,
{4}1b/2b,5h[4:1]/7h[4:1],,6,
{4}5/7,2h[4:1]/4h[4:1],,3,
{4}2/4,7/8,1/6,1/2,
{4}3/8,5/6,3/4,3/6,
{4},2h[4:1]/4h[4:1],,3,
{4}2/4,5h[4:1]/7h[4:1],,6,
{4}5/7,3/4,2,1,
{4}7/8,5/6,7,8,
{4}1/2,3h[4:1],4h[4:1],5h[4:1],
{4}6h[4:1],7-3[4:1],,,
{4}2/4,1/8,5/7,1/8,
{4}2/7,5/6,3/4,5/6,
{4}3/4,4-1[4:1]/5-8[4:1],,,
{4}2b/7b,4/5,2h[2:1],3h[4:1],
{4},4/5,7h[2:1],6h[4:1],
{4},4/5,3/4,2,
{4}5/6,7,3/4,5/6,
{4}4/5,2/7,{2}4qq1[8:7]/5pp8[8:7],{1},
{1}2b/7b,
E

EXPERT

(145.0){4}4h[2:1]/5h[2:1],,,2/7,
{8}1,1,8,8,1,8,2b/7b,,
{4}1-6[8:1]/2-5[8:1],,3/7,3/7,
{4}2/5h[4:1],4,1/3h[4:1],1,
{4}4h[4:1]/5h[4:1],,2/7,3/6,
{4}2/4,5/7,3/4,1/6,
{16}5/6,,,,3/8,,,,3/6,,2/7,,1/8,1/8,,2/7,
{8},,4b/5b,,3,3,4,4,
{8}2/5,,4/7,,6,6,5,5,
{8}4/7,,2/5,,1/8,,4,4,
{8}5,5,3/6,,3/6,,4,2,
{8}5,7,4/5,3/6,1/8,,6h[4:3],,
{4}5,4,5,3h[4:3],
{16}4,,,,5,,,,4,,,,5h[8:1]/6h[8:1],,,5/6,
{8},2/7,2h[2:1]/7h[2:1],,,,,,
{4}3h[4:3],4,2,4,
{4}6h[4:3],5,7,5,
{16}3h[8:1]/4h[8:1],,,3/4,,,2/7,,2/7,,,,4/5,,,,
{8}5/6,5/6,4/7,,3/4,3/4,2/5,,
{4}3/6,2/8-4[8:1],2,1,
{4}7/1-5[8:1],7,8,2/8-4[8:1],
{4}2,1,7/1-5[8:1],7,
{8}8,,2/7,2/7,,,4/3h[4:1],,
{8}2,,4,5,3/6,,5/6h[4:1],,
{8}7,,5,4,3/6,,2h[4:1],,
{4}3h[4:1],4,7h[4:1],6h[4:1],
{1}5>7[2:1],
{4}5,5/7,4,2/4,
{4}5,7/5-1[8:1],6,2/4-8[8:1],
{4}3,7/5-1[8:1],6,2/4-8[8:1],
{4}3,5/7,2/4,2h[4:1]/7h[4:1],
{8},,1/8,7,1/8,2,1/8,7,
{4}1b/8b,1-3[8:1]/8-6[8:1],,4/5,
{4}3/7,2/5h[4:1],4,1/3h[4:1],
{8}1,,4/5,6,4/5,,4/5,3,
{4}4/5,3h[2:1]/6h[2:1],,,
{4}2/7,5^2[8:1]/6^1[8:1],,3/4,
{4}5/7,3^8[8:1]/4^7[8:1],,5/6,
{8}2/4,,7,7,1,2,2,8,
{8}1/8,,2,2,8,7,7,1,
{4}1/8,8/7^4[8:1],1,1/2^5[8:1],
{4}8,2/7<2[4:1],,,
{16}1h[8:1]/2h[8:1],,,1/2,,,,,7h[8:1]/8h[8:1],,,7/8,,,,,
{16}1/8,,,,2h[8:1]/7h[8:1],,,3h[8:1]/6h[8:1],,,4h[8:1]/5h[8:1],,,3h[8:1]/6h[8:1],,,
{16}2h[8:1]/7h[8:1],,,1h[8:1]/8h[8:1],,,1/8,,1/8,1/8,,2/7,,,,,
{8}4b/5b,,3/4h[4:1],,5h[2:1],,8,8,
{8}7b,,6,6,5,5,4/7,,
{8}1/6,,1/8,,3,3,4,4,
{8}2/5,,3/8,,5,7,4,2,
{8}3/6,4/5,1/8,,3h[2:1]/6h[2:1],,,,
{4},4h[2:1]/5h[2:1],,,
{2}1b>8[4:5]/8b<1[4:5],{1},,
E

MASTER

(145){2}
1v4[8:1]/7v4[8:1],4-1[8:1]*-7[8:1],
{8}12,56,78,34,27,45,1b-3[8:1]/8b-6[8:1],,
{16}1b/8b,,,,,,45,,3/7qq5[16:3],37,,2,,,3,,
46,,25,,{4}4/8-5[8:1],3/8-4[8:1],28,
5h[8:1]/6h[8:1],4h[8:1]/5h[8:1],3h[8:1]/4h[8:1],4h[8:1]/5h[8:1],
{16}56,,34,,4,5,,36,36,,7,8,,16,16,,
2,1,,7,8,,17,,6,2,5,3-8[8:1],4,3,4,3,
,,,,1b/6b,,,,
2,4,3,,6,5,7,,2^5[8:1],,1,1,,8,8,,
7,5,6,,3,4,2pp3[8:1],,6,,7,7,,,18,,
27,,18,,34,,18,,56,,18,,24,,7,5,,2,4,,
34,,25,,34,,16,,4,3,5,1,7b,,,,

2^5[8:1],,1,,8,,7,,6,,6,5,,,38,,
7-4[8:1],,8,,1,,2,,3,,3,4,,,16,,
3h[16:3]/4h[16:3],,,,,,45,,36,,18,,2h[8:1]/7h[8:1],,,,2h[8:1]/7h[8:1],,,,
7-4[8:1],,8,,1,,2,,3h[16:3],,,4,,,16,,
2-5[8:1],,1,,8,,7,,6h[16:3],,,5,,,38,,
{8}5h[16:3]/6h[16:3],,,45,2/7s3[16:3],,2z6[16:3],,
,,5pp5[16:5]*qq5[16:5],,,,,,
45,,2,,1b/8b,,,4h[8:1],
{16}5,3,6,2,7p5[8:3],1b,,1b,,1b,,,{4},
3,3V14[4:1]/6V85[4:1],36,,
{32}8,7,6,5,4,3,2,1,8,7,6,5,4,3,2,1,{8}48,,
6h[4:1],7,8h[4:1],7,6,5,46,,
{16}3h4h[4:1],,2,,1h4h[4:1],,2,,3,,3,4,{4}3,
4h[8:1]/5h[8:1],2h[8:1]/5h[8:1],4/7-2[4:1],2-6[4:1],6^3[4:1],3>5[16:9],
8b,,{16},,3,,2,,1,,
7h[8:1],,8,8,,,18,,2h[8:1],,1,1,,,18,,
27,,38,,12,12,,,16,,78,78,,,34,,
2,,12,,,,56,,7,,78,,,,34,,
3,4,2,,6,5,7,,{8}3v8[8:1]/5v8[8:1],,35,,
1b,2b,3b,4b,5b,3b,1b-3[8:1]/8b-6[8:1],,

{16}1b/8b,,,,,,45,,3/7qq5[16:3],37,,2,,,3,,
{8}46,25,4/8-5[8:1],,{4}3/8-4[8:1],28,
3h[8:1]/5h[8:1],4h[8:1]/7h[8:1],2h[8:1]/6h[8:1],4h[8:1]/8h[8:1],
1-4[8:1]/8-5[8:1],18,2b/7b,8^3[16:3]/7^4[16:3],
{16}78,,,,,,2pp4[16:3]/6,26,,,8,,7,,6,,
{8}35,47,1-4[8:1]/5,,1-5[8:1]/6,,17,,
{16}6,5,7,4,8,,27,,1pp2[16:3]/8qq7[16:3],,,,1b/8b,,,,
3,4,2,5,1pp1[4:1],,8,,7,,6,,{4}6-8[8:1],
4-8[8:1],5-8[8:1],3-8[8:1],4<8[16:5],
2,,,{16}5,6,,47,
,,,,3,4,,25,,,,,5,4,5,4,
6,3,,7,78,,2,12,,6,5,6,5,,2,8,
3,7,4,6-1[8:1],5,6,5,6,{8},,3b/8b,,

1/5h[2:1],2,7,8,1-4[8:1],,16,,
{16}2,4,3,,6,5,7qq6[8:1],,3,,2,2,,,18,,
27,,18,,56,,18,,34,,18,,57,,2,4,
,7,5,,56,,38,,56,,12,,5,6,4,8,
{12}2b,,,8,8,8,2,2,2,34,,,
1,1,1,7,7,7,{4}5w1[4:3]/6,{1}5b,,,E

Re:MASTER




  • エラーコード35 -- ひなこのーと (2019-05-12 00:01:10)
  • ↑途中送信すまん、エラーコード35、スライド作成エラーと出てプレイ出来ません 自分の画面では24行目のところです -- ひなこのーと (2019-05-12 00:02:15)
名前:
コメント:

タグ:

+ タグ編集
  • タグ:

このサイトはreCAPTCHAによって保護されており、Googleの プライバシーポリシー利用規約 が適用されます。

最終更新:2022年06月25日 16:42