おねがいダーリン

BPM EASY BASIC ADVANCED EXPERT MASTER Re:MASTER
180 2 4 6 10 12 -

EXPERT MASTER Re:MASTER
譜面制作者 LabiLabi 玉子豆腐 -

EASY


BASIC


ADVANCED


EXPERT


MASTER

(180){8}
1/8,1/8,,5/6,,2>8[8:3]/3<8[8:3],,,,,,,8,2V84[4:3]/6V84[4:3],,,{1},6<3[2:1],
{4}6h[4:1]/2,5,3h[4:1]/7,4,5/6,2pp4[4:1]/7qq5[4:1],,,

4h[4:1]/8,5,3h[4:1]/7,4,2h[4:1]/6,3,{8}3/4,2,{4}3/4,
5h[4:1]/1,4,6h[4:1]/2,5,7h[4:1]/3,6<3[4:1],,,
2h[4:3]/8,4,8,4,3h[4:3]/8-4[8:1],,8-4[8:1],,
{16}
5,,,7/8,,,2/6,,
5,,,1/2,,,3/7,,
4,,,1/8,{8},2b/7b,,,1h[8:1]/8h[8:1],,

2,1,3,5,2,8,2-6[8:1]/8-4[8:1],,,,1-5[8:1]/7-3[8:1],,,,1/8,,
2h[8:1]/4h[8:1],,5h[8:1]/7h[8:1],,2h[8:1]/7h[8:1],,2b,2,7b,7,5/7,4/7,3/7,2/7,
1/7,,7,8,6,4,7,1,3p7[8:1]/7p3[8:1],,,,8^3[8:1]*^5[8:1],,,,2/6,,

5h[2:1]/4,,7,,2,2,1/8,,
3V15[4:1]/1,,5pp5[4:1]*qq5[4:1],,,,,,

5h[4:1]/2,,4,,6h[4:1]/3,,5,,
6h[4:1]/8^2[8:1],,,,5h[4:1]/1^3[8:1],,,,
2/4,,1V35[4:1]/5V71[4:1],,,,,,4V28[4:1]/8V64[4:1],,,,,,3/4,,

4h[4:1]/7,,5,,3h[4:1]/6,,4,,
3h[4:1]/1^7[8:1],,,,4h[4:1]/8^6[8:1],,,,
2,1/3,,7,6/8,,1/8,2/7<2[8:3],,,,,,1,8,,

7h[4:1]/4^6[8:1],,,,2h[4:1]/5^3[8:1],,,,2^5[8:1]/8b,,7,,3^6[8:1]/8b,,7,,
2h[4:1]/5^3[8:1],,,,7h[4:1]/4^6[8:1],,,,7^4[8:1]/1b,,2,,6^3[8:1]/1b,,2,,

2,1,2,3/8,,7,8,1/6,,3,1,4/8,,8,2,6,
5-1[2:1]/1,,,,,,,,1/8,{16},8,{8}1,8,2/7,,,,

2/5,6,7p2[8:1]/4,,2q7[8:1],,8,,
1pp3[8:1]*qq7[8:1],,,,2b/8b,,5/7,8,
1/2,3,4/6,,4,5,7,5,5h[2:1]/8z4[4:1],,,,,,2/6,,

6pp8[8:1],5,4,3,3qq1[8:1],4,5,,
7qq5[8:1]/8pp2[8:1],,,,1b/6b,,2/4,1,
7/8,6,3/5,,5,4,2,4,4h[2:1]/1-5[4:1],,,,,,2/6,,

5^8[8:1]/1,,3,,5^2[8:1]/1,,7,,
1/5,,2/4,1/5,,5,6,7,
1/8,1/8,,5/6,,2>8[8:3]/3<8[8:3],,,,,,,8,2V84[8:7]/6V84[8:7],,,
{1},6<3[2:1],

{8}
3,4,2,2,6,5,7,7,2,7,2,1/8,,1/8,,,
7h[4:3]/5,,2,,6,,8,,
2h[4:3]/4,,7,,3,,1,,
{16}
5,,,7/8,,,2/5,,4,,,1/2,,,4/7,,5,,,1/8,{8},2b/7b,,4,5,,

2h[4:1]/5^3[8:1],,,,7h[4:1]/4^6[8:1],,,,7^4[8:1]/1b,,2,,6^3[8:1]/1b,,2,,
7h[4:1]/4^6[8:1],,,,2h[4:1]/5^3[8:1],,,,2^5[8:1]/8b,,7,,3^6[8:1]/8b,,7,,

7,8,7,1/6,,2,1,3/8,,6,8,1/5,,1,7,3,
4-8[2:1]/8,,,,,,,,,{16}1/8,,,,,,,2/7,,,{12}1,8,,1,8,,18,,2/7,{2}2/7,

4/7,3,2q7[8:1]/5,,7p2[8:1],,1,,
8pp2[8:1]*qq6[8:1],,,,1b/7b,,2/4,1,
7/8,6,3/5,,5,4,2,4,4h[2:1]/1s5[4:1],,,,,,3/7,,

3qq1[8:1],4,5,6,6pp8[8:1],5,4,,
1qq7[8:1]/2pp4[8:1],,,,3b/8b,,5/7,8,
1/2,3,4/7,,4,5,7,5,5h[2:1]/8-4[4:1],,,,,,3/7,,

1/5,6,7^4[8:1]/3,,3^6[8:1],,2,,
1^4[8:1]*^6[8:1],,,,2b/8b,,5/7,8,
1^6[8:1]/2,3,4,,3,5,7,5,5z1[4:1]/8s4[4:1],,,,,,2/7,,

7qq5[8:1],8,1,2,2pp4[8:1],1,8,,
7b/8b,,3b/4b,,1b/6b,,2/4,1,
8^3[8:1]/7,6,5,,6,4,2,4,4h[2:1]/1-5[4:1],,,,,,2/6,,

4-1[8:1]/8,,6,,4-7[8:1]/8,,2,,
4/8,,5/7,4/8,,4,3,2,
1/8,1/8,,5/6,,2>8[8:3]/3<8[8:3],,,,,,,8,
2V84[8:5]/6V84[8:5],,,,,,,,,
1h[1:1]/5<4[8:5],,,,,,,,,,
3>6[8:3]*p6[8:3],,,,,,

{8},,
2h[4:1]/8,,4,,7h[4:1]/1,,5,,3/4,,1pp3[4:1]/8qq6[4:1],,,,,,
3/4,2,,6-1[8:1],5,4,,2/8,,5/6,4,7,1,8,2/7,,
5/6,7,,3-8[8:1],4,5,,1/7,,3/4,5V38[4:1],2,,,,,
7/8,6,,2-5[8:1],1,8,,4/6,,1/2,8,3,5,4,3/6,,

{16}
4,,,7/8,,,1/6,,5,,,1/2,,,3/8,,4,,,7/8,,,
{1}2bV84[8:5]/6bV84[8:5],,,,,E


Re:MASTER




  • 遅くなりました…。まだチェックガバガバなので必要があれば明日修正します。それでも見落とすこともありえるので修正箇所があればご指摘ください。 -- Sea (2018-09-13 21:32:58)
  • ある程度修正しました。まだ間違っている部分があれば指摘・修正おねがいします。 -- Sea (2018-09-14 21:15:31)
  • 4-8[2:1]/8,,,,,,,,,1/8,,,{12}2/7,,1,8,,1,8,,{16}1/8,,,2/7,2/7,{8},,,,→4-8[2:1]/8,,,,,,,,,{16}1/8,,,,,,,2/7,,,{12}1,8,,1,8,,18,,2/7,{2}2/7,に修正しました。 -- けもがみ (2023-09-04 14:16:13)
名前:
コメント:

タグ:

+ タグ編集
  • タグ:

このサイトはreCAPTCHAによって保護されており、Googleの プライバシーポリシー利用規約 が適用されます。

最終更新:2023年09月04日 14:16