ARROW

アーティスト niki

BPM EASY BASIC ADVANCED EXPERT MASTER Re:MASTER
131 2 4 6 12 13 -

EXPERT MASTER Re:MASTER
譜面制作者 rioN Jack -

EASY


BASIC

(131.0){1},,,,
{2}1,1,
{1}1h[2:1],
{2}8,8,
{1}8h[2:1],
{2}1,1,
{2}2,2,
{2}3,3,
{4}4,4,4,,
{2}5,5,
{2}6,6,
{2}7,7,
{4}8,8,8,,
{1}1-4[4:3],,
{1}8-5[4:3],,
{1}1-5[4:3],,
{1}8-4[4:3],,
{4}1,1,1,,
{4}2,2,2,,
{4}3,3,3,,
{4}4,4,4/5,,
{4}5,5,5,,
{4}6,6,6,,
{4}7,7,7,,
{4}8,8,1/8,,
{2}8,7,
{2}6,5,
{2}4,3,
{1}1h[2:1]/2h[2:1],
{2}8,8,
{4}7,7,7,,
{2}6,6,
{4}5,5,5,,
{1}4h[2:1],
{1}3h[2:1],
{1}2h[2:1],
{4}1,1,1b,,
{1}8-5[4:3],,
{1}1-4[4:3],,
{4}1,1,1,,
{4}2,2,2,,
{4}3,3,3,,
{4}4/5,4/5,4/5,,
{4}6,6,5/6,,
{4}7,7,7/8,,
{4}2,2,1/2,,
{4}3,3,3/4,,
{4}6,5,5/6,,
{4}3,4,3/4,,
{4}2,1,1/2,,
{4}7,8,7/8,,
{2}1/2,1/2,
{2}3/4,3/4,
{2}5/6,5/6,
{1}7h[2:1]/8h[2:1],
{1}1h[2:1],
{1}8h[2:1],
{1}1h[2:1]/8h[2:1],
{4}1/8,1/8,1/8,,
{1}2b/7b,
E

ADVANCED

(131.0){1},,,,
{4}1,1,2,2,
{4}3/4,3/4,3/4,,
{4}8,8,7,7,
{4}5/6,5/6,5/6,,
{4}3h[2:1],4,4,,
{4}6h[2:1],5,5,,
{4}3h[4:1],4,6h[4:1],5,
{4}4,4-1[4:1],,,
{4}7h[2:1],8,8,,
{4}2h[2:1],1,1,,
{4}7h[4:1],8,2h[4:1],1,
{4}8,8^5[4:1],,,
{4}4,3,2,1p4[2:1],{1},
{4}5,6,7,8z4[16:11],{1},
{4}4,3,2,1V36[2:1],{1},
{4}7,7/8,2,1/2,
{4}1b/8b,,,1-5[16:3],
{4},,6,5/6,
{4}3/4,2/5,1/6,,
{4}7,7/8,2,1/2,
{4}1/8,2/7,3/6,,
{4}4/5,3/4,4/5,2/3,
{4}4/5,1b-6[4:1]/2b-5[4:1],,,
{4}4/5,5/6,4/5,6/7,
{4}4/5,7/8pp3[2:1],,,
{4},5,4h[4:1]/6h[4:1],,
{4}4,4,3h[4:1]/5h[4:1],,
{4}5,4/6,4,3/5,
{4}4/6,3/7,2-5[16:3]/8-5[16:3],,
{2},4h[4:1]/5h[4:1],
{4}6,7,1h[4:1]/8h[4:1],,
{4}2,3,4h[4:1]/5h[4:1],,
{4}3/6,2/7,1/8,,
{4}8,7,6,5V72[2:1],{1},
{4}3,3/4,6,5/6,
{4}4b/5b,,,7-5[8:1],
{2},3h[2:1],
{2}4h[2:1],5,
{2}6h[2:1],5h[2:1],
{2}4,3b/6b,
{4}4/5,3/4,4/5,2/3,
{4}4/5,1b-6[4:1]/2b-5[4:1],,,
{4}4/5,5/6,4/5,6/7,
{4}4/5,7/8>4[8:3],,,
{4},5/6,3,3/4,
{4}5/6,4/7,3/8,,
{4}2,1/2,7,7/8,
{4}1/8,2/7,3/6,,
{4}4/5,5/6,4/5,6/7,
{4}4/5,7b-4[4:1]/8b-3[4:1],,,
{4}4/5,3/4,4/5,2/3,
{4}4/5,2/1qq6[2:1],,,
{4},3/4,2h[4:1]/5h[4:1],,
{4}5/6,5/6,4h[4:1]/7h[4:1],,
{4}4,3/5,5,4/6,
{4}3/5,2/6,1-4[16:3]/7-4[16:3],,
{4},,6,6,
{4}7/8,7/8,1/6,,
{4}4,4,3,3,
{4}1/2,1/2,3/8,,
{1}1/8,
E

EXPERT

(131.0){4}3h[4:1],4,6h[4:1],5,
{4}2h[4:1],4,7h[4:1],5,
{4}1h[4:1],4,8h[4:1],5,
{8}1,1,8,8,1,,2b/7b,,
{4}6/3h[4:1],4,3/6h[4:1],5,
{4}7/2h[4:1],4,2/7h[4:1],5,
{4}8/1h[4:1],4,1/8h[4:1],5,
{4}1/2,3/8,7/8,1/6,
{8}2h[4:1],,3,4,5,,4/6,,
{8}7h[4:1],,6,5,4,,3/5,,
{8}2h[4:1],,4,4,3^1[8:1]/5^7[8:1],,,,
{4}8-4[8:1],,2/6,1/8,
{8}8/7h[4:1],,6,5,4,,3/5,,
{8}1/2h[4:1],,3,4,5,,4/6,,
{8}8/7h[4:1],,5,5,4^2[8:1]/6^8[8:1],,,,
{4}1s5[4:1],,,3/6,
{8}2b/7b,7/2h[4:1],,3-6[8:1],,1,1,,
{8}2/7,2/7h[4:1],,6-3[8:1],,8,8,,
{8}2/7,7/2h[4:1],,3-6[8:1],,1,1,,
{8}2/7,2/7h[4:1],,5w1[8:1],,,,,
{4}7/8,1/2,6/8,1/3,
{4}5/7,2/4,5/6,3/4,
{8}5,5,4,4,6,6,3,3,
{8}6,5/7,,2/4,,1/8,1/8-4[8:1],,
{16},,,,1/2,,3,,7/4h[16:3],,,5h[16:3],,,6,,
{8}5,4,3,2,1-4[8:1]*-7[8:1],,,,
{16}5,,6,,7,,8,,1h[16:3],,,2h[16:3],,,3,,
{16}4,,3,,2,,1,,8h[16:3],,,7h[16:3],,,6,,
{8}5/6h[4:1],,5,4/7,8/3h[4:1],,4,2/5,
{8}1/6h[4:1],,7,5/8,1-4[8:1]/4-7[8:1],,,,
{16}8,,8,,1,,1,,8h[16:3],,,7h[16:3],,,6,,
{8}6,5,4,3,2-5[8:1]/5-8[8:1],,,,
{8}1,2,3,4,5/6,,4/7,,
{8}8,7,6,5,3/4,,2/5,,
{8}3,4,3,2/5,6,5,6,4/7,
{8}3/8,3/8,1/2,1/2,1-5[8:1]/2-5[8:1],,,,
{16}7h[16:3],,,6h[16:3],,,5,,2h[16:3],,,3h[16:3],,,4,,
{16}5h[16:3],,,6h[16:3],,,7,,7/8,,1/6,,2/5,,3/4,,
{16}1h[8:1]/2h[8:1],,,3h[8:1]/8h[8:1],,,4h[8:1]/7h[8:1],,,5h[8:1]/6h[8:1],,,4/5,,3/6,,
{4}2V41[4:1]/7V58[4:1],,,2/7,
{8}3/6,6/3h[4:1],,2^7[8:1],,4,4,,
{8}3/6,3/6h[4:1],,7^2[8:1],,5,5,,
{8}1,1,8,8,2,2,7,7,
{8}2,1/3,,6/8,,1,1-5[8:1],,
{2}7h[2:1],5h[2:1],
{2}4h[2:1],2h[2:1],
{2}4h[2:1],5h[2:1],
{16}6,,,,1/8,,,,4b/7b,,,2b/5b,,,1b/8b,,
{8}4/3h[4:1],,4,2/5,1/6h[4:1],,5,4/7,
{8}8/3h[4:1],,2,1/4,5-2[8:1]/8-5[8:1],,,,
{8}1,2,3/8,4/7,4-1[8:1]/7-4[8:1],,,,
{8}8,7,1/6,2/5,5/2pp4[8:1]*-7[8:1],,,,
{2}1bp4[8:1],7-2[8:1],
{8}4,5,6,7,8-2[8:1]*-5[8:1],,,,
{16}4,,3,,2,,1,,8h[16:3],,,7h[16:3],,,6,,
{16}5,,6,,7,,8,,1h[16:3],,,2h[16:3],,,3,,
{8}4b/5b,,1/2,3/8,4/7,,7/8,1/6,
{8}2/5,,4/5,3/6,2-6[8:1]/7-3[8:1],,,,
{16}5/6h[8:3],,4,,3,,2,,1h[16:3],,,2h[16:3],,,3,,
{16}4/3h[8:3],,5,,6,,7,,8h[16:3],,,7h[16:3],,,6,,
{8}5/6,4,5,6,7^5[8:1]/8^2[8:1],,,,
{8}3/4,5,4,3,1^7[8:1]/2^4[8:1],,,,
{8}6,5,6,4/7,3,4,3,2/5,
{8}1/6,1/6,7/8,7/8,7-4[8:1]/8-4[8:1],,,,
{4}2/1h[4:1],6,7/8h[4:1],3,
{8}2/1h[4:1],,6,,5/6,4/7,3/8,,
{4}7/8h[4:1],3,2/1h[4:1],6,
{8}7/8h[4:1],,3,,3/4,2/5,1/6,,
{1}3bV15[4:7]/7bV15[4:7],,,
E

MASTER

(131)
{4}4h[1:1],5,,3,5h[1:1],4,,6,4h[2:1],3,5h[2:1],6,
{8}4,4/5,3/6,2/7,1-5[8:1]/8-4[8:1],,1b/8b,,
2,2,4,4,5,{16}5,4,,4,{8}5,7,7,5,5,4,{16}4,5,,5,{8}4,
3,3,5,5,7,{16}7,6,,6,{8}7,6,6,4,4,2,{16}2,3,,3,2,,
{4}
5h[4:1]/4,7,4h[4:1]/5,2-6[8:1],1-5[8:1],8-4[8:1],7-3[8:1],6,
4h[4:1]/5,2,5h[4:1]/4,7-3[8:1],2-6[8:1],3,
{24}4,5,4,{16}5,6,3,7,2,8,
{8}1h[8:1],6,1h[8:1]/7,{16}8,8,{8}1h[8:1],7,1h[8:1]/6,5,
3h[8:1]/6,7,3h[8:1]/8,{16}1,1,{8}3h[8:1],8,3h[8:1]/7,6,
5h[8:1]/4,3,5h[8:1]/2,{16}1,1,{8}5h[8:1],1,5h[8:1]/3,4,
7h[8:1]/3,2,7h[8:1]/1,{16}8,8,{8}7h[8:1],1,7h[8:1]/2,3,

4/5,5,4,3/6,,3/7,2,8h[8:3]/1,,1,2-6[8:1],,8-4[8:1],,1,1,
2,3,4,5h[4:1],,7,6,5,4,5,6h[4:1]/3,,5h[4:1],,4h[4:1],,
3-8[8:1],,,,3-8[8:1],,4,5,6-1[8:1],3,4,5,6-1[8:1],,5,,
5/6,3/4,1/2,7/8,{16}5h[16:3]/6,,,4h[16:3],{8},3^6[8:1],,6^3[8:1],,3,,
1/8,2-6[8:1]/3-8[8:1],,2b/3b,,
{16}
1/7,,2/8,,1h[8:1]/3h[8:1],,,2h[8:1]/4h[8:1],,,1/3,,8,,1/7,,
6,,5/7,,4,,5h[16:3]/3,,,4h[16:3],,,2,,1/3,,
2/8,,1/7,,6h[8:1]/8h[8:1],,,5h[8:1]/7h[8:1],,,6/8,,1,,2/8,,
3,,2/4,,1h[8:1]/3h[8:1],,,6h[8:1]/8h[8:1],{8},2/7,4/5,,

4^1[8:1]/5^8[8:1],1/8,4/5,,
4^1[8:1]/5^8[8:1],1/8,4/5,,
4^1[8:1]/5^8[8:1],1pp4[4:1]/8qq5[4:1],4/5,,,,
3h[8:1],2h[8:1],4h[8:1],1h[8:1],{16}5h[16:3],,,7h[16:3],{8},8,
6h[8:1],7h[8:1],5h[8:1],8h[8:1],{16}4h[16:3],,,2h[16:3],{8},1,
3,4,3/5,6,3h[16:3]/7,{16},4,{8}3,2/5,
6,5,4/6,3,6h[16:3]/2,{16},5,{8}6,4/7,
1h[8:1]/8,3,8h[8:1]/1,6,
1h[8:1]/8,3,8h[8:1]/1,6,
1/3,3/5,5/7,1V75[8:1]/7,3-7[8:1]/1,,,,

{16}
1h[16:3],,,2h[16:3],,,3,,8h[16:3],,,7h[16:3],,,6,,
1h[16:3],,,2h[16:3],,,3,,5h[8:1],,4h[8:1],,
{24}3,2,1,8,7,6,{16}4/5,,3,4,,6,5,,3,4,,7,
5^2[8:1],,2<5[4:1],,,,,,,,,,4,4,5,3,,5,5,4,
{8}6-1[8:1],,,5,6-1[8:1],,5,,3-8[8:1],,,4,3-8[8:1],,4,,5/6,,3/4,,
{16}5h[16:3]/6,,,4h[16:3],,,3,,,,3/6,,4,5,4,5,
{4}4,6-1[8:1]/7-3[8:1],{2},
2h[2:1],3h[2:1],4h[2:1],5h[2:1],6h[2:1],7h[2:1],
{16}8b,,,4b/5b,{8},1b/2b,4/5,,

4^1[8:1]/5^8[8:1],1/8,4/5,,
4^1[8:1]/5^8[8:1],1/8,4/5,,
4^1[8:1]/5^8[8:1],1pp4[4:1]/8qq5[4:1],4/5,,,,
6h[8:1],5h[8:1],4h[8:1],3h[8:1],{16}2h[16:3],,,1h[16:3],{8},8,
3h[8:1],4h[8:1],5h[8:1],6h[8:1],3,{16}4,5,3,6,2,7,
1-5[8:1]/8-4[8:1],,3/6,,1b/8b,,,,

6h[8:1]/8h[8:1],,,5h[8:1]/7h[8:1],{8},6/8,1,
2/8,3,2/4,5,{16}4h[16:3]/6,,,5h[16:3],{8},7,
6/8,1/7,2/8,{16}1h[8:1]/3h[8:1],,,2h[8:1]/4h[8:1],{8},1/3,
8,1/7,6,5/7,{16}6h[8:1]/8h[8:1],,,1h[8:1]/3h[8:1],{8},2/7,4/5,,

1^4[8:1]/5^8[8:1],4/8,1/5,,
4^1[8:1]/8^5[8:1],1/5,4/8,,
1^4[8:1]/5^8[8:1],4qq1[4:1]/8qq5[4:1],1/5,,,,
6h[8:1],7h[8:1],5h[8:1],8h[8:1],{16}4h[16:3],,,3h[16:3],{8},1,
3h[8:1],2h[8:1],4h[8:1],1h[8:1],{16}5h[16:3],,,6h[16:3],{8},8,

7,8,1/7,2,7h[16:3]/3,{16},8,{8}7,3/5,
2,1,2/8,7,2h[16:3]/6,{16},1,{8}2,4/6,
8h[8:1]/1,6,1h[8:1]/8,3,
8h[8:1]/1,6,1h[8:1]/8,3,
6/8,4/6,2/4,8V24[8:1]/2,6-2[8:1]/8,,,,

{16}
4/5,,2,1,2,,3/8,,
4/5,,7,8,7,,1/6,,
4/5,,1,8,1,,3/6,,
4/5,,6,8,,3,1,,
4/5,,7,8,6,,1/5,,
3/7,,2,1,3,,4/8,,
2/6,,4/8,,1h[4:1],,,,
5,3,7,5h[8:1],,1,3,7,
{1}1b,,,,,E


Re:MASTER


  • 修正箇所等ありましたら修正・加筆をおねがいします。 -- Sea (2018-10-01 18:47:30)
名前:
コメント:

タグ:

+ タグ編集
  • タグ:

このサイトはreCAPTCHAによって保護されており、Googleの プライバシーポリシー利用規約 が適用されます。

最終更新:2022年07月10日 14:37