サドマミホリック

アーティスト ビートまりお(COOL&CREATE)

BPM EASY BASIC ADVANCED EXPERT MASTER Re:MASTER
200 3 6 7+ 11 12 13

EXPERT MASTER Re:MASTER
譜面制作者 小鳥遊さん 緑風 犬三郎 玉子豆腐

EASY


BASIC

(200.0){1}1,
{1}1,
{1}8,
{1}8,
{2}1,1,
{2}1,1,
{2}8,8,
{2}1/8,1/8,
{4}1,1,1,,
{4}2,2,2,,
{4}3,3,3,,
{4}4,5,4,,
{4}5,5,5,,
{4}6,6,6,,
{4}7,7,7,,
{4}8,1,8b,,
{4}8,8,8,,
{1}8h[2:1],
{4}7,7,7,,
{4}6,5,6,,
{4}4,4,4,,
{1}4h[2:1],
{4}3,3,3,,
{4}2,1,2,,
{4}1,1,1,,
{1}1h[2:1],
{4}2,2,2,,
{4}3,4,3,,
{4}5,5,5,,
{1}5h[2:1],
{4}6,6,6,,
{1}7h[2:1]/8h[2:1],
{1}1-5[4:3],,
{1}8-4[4:3],,
{1}1-5[4:3],,
{1}8-4[4:3],,
{4}1,1,1/8,,
{4}8,8,1/8,,
{4}1,1,1/8,,
{4}8,8,1/8,,
{4}1,1,2,2,
{4}3,3,4/5,,
{4}5,5,6,6,
{4}7,7,1/8,,
{4}8,8,1/8,,
{4}1,1,1/8,,
{4}7,8,7,,
{4}2,1,2,,
{4}8,8,7,7,
{4}6,6,4/5,,
{4}4,4,3,3,
{4}2,2,1b/8b,,
{4}1,1,8,8,
{1}1h[2:1],
{4}2,2,3,3,
{4}4,5,4,,
{4}5,5,4,4,
{1}5h[2:1],
{4}6,6,7,7,
{1}1h[2:1]/8h[2:1],
{4}8,8,1,1,
{1}8h[2:1],
{4}7,7,6,6,
{4}5,4,5,,
{4}4,4,5,5,
{1}4h[2:1],
{4}3,3,2,2,
{1}1h[2:1]/8h[2:1],
{2}1/2,1/2,
{4}3,3,3/4,,
{4}4,4,5,5,
{4}6,6,5/6,,
{2}7/8,7/8,
{4}6,6,5/6,,
{4}5,5,4,4,
{4}3,3,3/4,,
{1}2-5[4:3],,
{4}6,6,6,,
{4}7/8,7/8,7/8,,
{1}7-4[4:3],,
{4}3,3,3,,
{4}1/2,1/2,1b/2b,,
{4}1,1,1,1,
{4}2,2,2,,
{4}3,3,3,3,
{4}4,5,4,,
{4}5,5,5,5,
{4}6,6,6,,
{4}7,7,7,7,
{4}8,1,8,,
{4}8,8,8,8,
{4}7,7,7,,
{4}6,6,6,6,
{4}5,4,5,,
{4}4,4,4,4,
{4}3,3,3,,
{4}2,2,2,2,
{4}1/8,1/8,1/8,,
{1}2b/7b,
E

ADVANCED

(200.0){4}3,3,4,,
{4}6,6,5,,
{4}3,3,4,4,
{2}6h[2:1],5,
{4}7,7,8,,
{4}2,2,1,,
{4}8,8,1,1,
{2}1h[4:1]/8h[4:1],2b/7b,
{4}6,6,5/6,,
{4}3,3,3/4,,
{4}6,6,5,5,
{4}4,4,3b,,
{4}2,2,1/2,,
{4}7,7,7/8,,
{4}1,1,8,8,
{2}1h[4:1]/8h[4:1],2b/7b,
{4}3,2,1,8,
{2}7h[2:1],8,
{1}7-4[2:1]/8-3[2:1],
{4}5,5,6b,,
{4}7,6,5,4,
{2}3h[2:1],4,
{1}3-8[2:1]/4-7[2:1],
{4}1,1,1b/8b,,
{4}6,7,8,1,
{2}2h[2:1],1,
{1}1-6[2:1]/2-5[2:1],
{4}4,4,3b,,
{4}2,3,4,5,
{2}6h[2:1],5,
{1}5-2[2:1]/6-1[2:1],
{4}8,8,1b/8b,,
{1}3h[1:1],
{1}4h[1:1],
{1}5h[1:1],
{2}6h[2:1],5,
{1}7h[1:1],
{1}8h[1:1],
{1}1h[1:1],
{2}2h[2:1],1,
{4}3,3,4,4,
{4}5,5,5/6,,
{4}6,6,5,5,
{4}4,4,3b,,
{4}2,2,1,1,
{4}8,8,7/8,,
{4}7,7,8,8,
{4}1,1,2b,,
{4}8,8,7,7,
{4}6,6,4/5,4/5,
{4}4,4,3,3,
{4}2,2,1b,,
{4}1,1,2,2,
{4}3,3,4/5,4/5,
{2}5h[4:1]/6h[4:1],3h[4:1]/4h[4:1],
{4}4/5,3/6,2h[4:1]/7h[4:1],,
{4}1/8,1/8,2/7,2/7,
{2}1h[2:1],8,
{1}1-4[2:1]/8-5[2:1],
{4}4/5,4/5,3b/6b,,
{4}4/5,4/5,3/6,3/6,
{2}4h[2:1],5,
{1}4-1[2:1]/5-8[2:1],
{4}1/8,1/8,2b/7b,,
{4}1/2,1/2,7/8,7/8,
{2}2h[2:1],1,
{1}1-6[2:1]/2-5[2:1],
{4}3/4,3/4,2b/5b,,
{4}5/6,5/6,3/4,3/4,
{4}1/2,1/2,7b/8b,,
{2}2h[4:1]/8h[4:1],1h[4:1]/7h[4:1],
{4}1/8,1/8,2b/7b,,
{4}2,1,2,1,
{4}8,7,8,1,
{4}8,7,8,7,
{4}8,1,2/7,,
{4}1,2,3,4,
{4}5,6,7,8b,
{2}1h[4:1]/2h[4:1],7h[4:1]/8h[4:1],
{4}1/8,1/8,2b/7b,,
{4}1/2,1/2,1/8,1/8,
{4}7/8,7/8,1/8,,
{4}7/8,7/8,1/8,1/8,
{4}1/2,1/2,1b/8b,,
{4}8,7,6,5,
{4}4,3,2,1,
{2}1h[4:1]/2h[4:1],7h[4:1]/8h[4:1],
{4}1/8,2/7,3b/6b,,
{4}3,3,4,4,
{4}6,6,5,5,
{4}3,3,4,4,
{4}5,5,5/6,5/6,
{4}7,7,8,8,
{4}2,2,1,1,
{4}7/8,7/8,1/2,1/2,
{2}1h[4:1]/8h[4:1],2b/7b,
{4}7,7,7/8,7/8,
{4}2,2,1/2,1/2,
{4}7,7,8,8,
{4}1,1,2b,,
{4}2,2,1/2,1/2,
{4}7,7,7/8,7/8,
{4}6,6,5,5,
{2}3/4,5/6,
{2}4qq1[4:9]/5pp8[4:9],{1},,,
E

EXPERT

(200.0){1}3/4h[1:1],
{4}5h[2:1],,6,4/7,
{1}6/5h[1:1],
{4}4h[2:1],,3,2/5,
{1}3/4h[1:1],
{4}5h[2:1],,6,4/7,
{2}3h[4:1]/4h[4:1],5h[4:1]/6h[4:1],
{4}1/8,2-5[8:1]/7-4[8:1],,,
{4}2,1/2,3,3/4,
{4}6h[4:1],7h[4:1],8h[4:1],1,
{4}7,7/8,6,5/6,
{4}3h[4:1],2h[4:1],1h[4:1],8,
{4}2,1/2,3,3/4,
{4}6h[4:1],7h[4:1],8h[4:1],1,
{2}2b/4b,5b/7b,
{8}3/4,,5/6,5/6,,1/8,1b/8b,,
{4}4/5,2/4,4/6,4/3>6[8:3],
{4},,,4/5,
{8}6,6,,5/7h[8:3],,,8,,
{8}2,2,8,8,1-5[8:1],,,,
{8}6,6,5,,4/7,,2/5,,
{1}4/7>4[2:1],
{8}5/6,,3/4,,7,7,{4}8pp4[4:3],{1},
{4}4/5,5/7,3/5,5/6<3[8:3],
{4},,,4/5,
{8}3,3,,4/2h[8:3],,,1,,
{8}7,7,1,1,8-4[8:1],,,,
{8}3,3,4,,2/5,,4/7,,
{1}5/2<5[2:1],
{8}2/4,,5/7,,4,4,{4}5pp1[4:3],{1},
{4}3h[4:7],4,,4,
{4},5,,5,
{4}6h[4:7],5,,5,
{4},4,,4,
{4}3h[4:3],4,4,4,
{4}6h[4:3],5,5,5,
{4}2h[4:1],3,7h[4:1],6,
{4}1/2,7/8,1-4[8:1]/8-5[8:1],,
{4}3h[4:1],2h[4:1],1h[4:1],8h[4:1],
{4}7h[4:1],6h[4:1],5,4/7,
{4}6h[4:1],7h[4:1],8h[4:1],1h[4:1],
{4}2h[4:1],3h[4:1],4,2/5,
{4}7h[4:1],6h[4:1],5h[4:1],4h[4:1],
{4}3h[4:1],2h[4:1],1,3/8,
{4}2h[4:1],3h[4:1],4h[4:1],5,
{8}5/6,,3/4,3/4,,1/8,1b/8b,,
{8}7,7,6/8,,2,2,1/3,,
{8}6,6,5/7,,7/8,,3/8,,
{8}2,2,1/3,,7,7,6/8,,
{8}3,3,2/4,,1/2,,1/6,,
{8}3,3,2/4,,6,6,5/7,,
{8}2,2,1/3,,1/8,,2/7,,
{2}4/3-8[8:1],5/6-1[8:1],
{4}4-1[8:1]/5-8[8:1],,3/6,1b/8b,
{8}3,3,4,,1/2-5[8:1],,6<3[8:3],,
{4},,,4/5,
{8}5/6,5/6,,4/7h[8:3],,,8,,
{8}2,2,8,8,1-5[8:1],,8b,,
{8}6,6,5,,4/7,,1/4,,
{1}4/7>4[2:1],
{8}5/7,,2/4,,7,7,{4}8pp4[4:3]*qq4[4:3],{1},
{8}6,6,5,,8/7-4[8:1],,3>6[8:3],,
{4},,,4/5,
{8}3/4,3/4,,5/2h[8:3],,,1,,
{8}7,7,1,1,8-4[8:1],,1b,,
{8}3,3,4,,2/5,,5/8,,
{1}5/2<5[2:1],
{8}2/4,,5/7,,4,4,{4}5pp1[4:3]*qq1[4:3],{1},
{8}2,2,1,,2-5[8:1],,8,,
{8}7,7,7,,5/6,,7/8,,
{8}7,7,8,,7-4[8:1],,1,,
{8}2,2,2,,3/4,,1b/2b,,
{8}2,2,1,,2-5[8:1],,8,,
{8}7,7,7,,5/6,,7/8,,
{2}1h[4:1]/6h[4:1],3h[4:1]/8h[4:1],
{4}2/7,4/5,1b/8b,,
{8}2-5[8:1],,1-6[8:1],,4,4,4,,
{8}3,3,4,,5/4-8[8:1],,,,
{8}7-4[8:1],,2-5[8:1],,6,6,6,,
{8}3,3,3,,2/7,,1b/8b,,
{8}7-4[8:1],,8-3[8:1],,5,5,5,,
{8}6,6,5,,4/5-1[8:1],,,,
{2}4/3-8[8:1],5/6-1[8:1],
{4}2/4,5/7,1/8,2b/7b,
{4}3h[4:1],4h[4:1],5h[4:1],6h[4:1],
{8}7h[4:1],,8h[4:1],,2,2,1/3,,
{4}6h[4:1],5h[4:1],4h[4:1],3h[4:1],
{8}2h[4:1],,1h[4:1],,7,7,6/8,,
{4}2h[4:1],1h[4:1],8h[4:1],7h[4:1],
{8}6h[4:1],,5h[4:1],,3,3,2/4,,
{4}7h[4:1],8h[4:1],1h[4:1],2,
{8}2h[4:1]/4h[4:1],,,5h[4:1]/7h[4:1],,,1b/8b,,
{8}3,3,4,4,2-6[8:1],,8-4[8:1],,
{8}1,1,1,,3/4,,1/8,,
{8}6,6,5,5,7-3[8:1],,1-5[8:1],,
{8}8,8,8,,5/6,,1/8,,
{8}3,3,4,4,2-6[8:1],,8-4[8:1],,
{8}1,1,1,,3/4,,1/8,,
{8}6,6,5,5,4/7,,2/5,,
{8}1/8,,5/6,5/6,,3/4,3/4,,
{4}7b/2b<3[2:3],,,{1},,
E

MASTER

(200.0){4}8/4^1[2:1],,6,6,
{4}1/5^8[2:1],,3,3,
{4}8/4^1[2:1],,6,6,
{4}1/5^8[2:1],,3,3,
{4}4/8,3/8,2/6,1/6,
{4}1/5,1/6,3/7,3/8,
{4}4/8,3/8,2/6,1/6,
{8}1/8,1/8,1/8,,4/5,,2b/7b,,
{8}8/7h[4:1],8,1-4[8:1],,8-5[8:1],,1,,
{8}5/4h[4:1],5,5-8[8:1],,1,,3/6,,
{8}1/2h[4:1],1,8-5[8:1],,1-4[8:1],,8,,
{8}4/5h[4:1],4,4-1[8:1],,8,,3/6,,
{8}8/7h[4:1],8,1-5[8:1],,8-4[8:1],,1,,
{8}5/4h[4:1],5,5-8[8:1],,1,,3/6,,
{8}1/2h[4:1],1,8-4[8:1],,1-5[8:1],,8,,
{8}4/5h[4:1],4,4-1[8:1],,8,,3/6,,
{8}7,7,1-5[8:1],,8-4[8:1],,1>8[2:1],,
{4}8,,,4/5,
{4}5/7,4/5,2/4,4/5,
{8}1,1h[8:1],7,7h[8:1],5,,3b/6b,,
{8}2,2,8-4[8:1],,1-5[8:1],,8^5[4:1],,
{8}1h[4:1],,,2/7,,,4,5,
{8}2,,4/5,,8,8,4>5[2:1],,
{4}5,,,3/6,
{8}4,4,8-4[8:1],,1-5[8:1],,8<1[2:1],,
{4}1,,,4/5,
{8}2/4,2/4,,5h[4:1]/7h[4:1],,,4/5,,
{8}8,8h[8:1],2,2h[8:1],4,,3b/7b,,
{8}5,5,1-5[8:1],,8-4[8:1],,1>8[8:3],,
{8}8,,,,,4/5,4/5,,
{8}5/7,,4/5,,1,1,5<4[2:1],,
{4}4,,,2/7,
{4}5/4>5[2:5],5,5,5,
{4}4,4,4,4,
{4}3,3,3,3,
{8}2,,3,,5,4,3/6,,
{4}4/5<4[2:5],4,4,4,
{4}5,5,5,5,
{4}6,6,6,6,
{8}5/7,,2/4,,4/5,3/6,2/7,,
{4}4/5,5/6,6/7,7/8,
{8}1/8,,1/2,,2/3,4,3/4,,
{4}3/5,2/4,1/3,2/8,
{8}1/7,,6/8,,5/7,4,4/6,,
{4}3/6,4/7,5/8,1/6,
{8}2/7,,3/8,,1/4,5,2/5,,
{4}3/7,2/6,1/5,4/8,
{4}3/7,2/6<3[4:1],4,,
{8}2,2,6-2[8:1],,1-5[8:1],,8,,
{8}7,7,3-7[8:1],,8-4[8:1],,1,,
{8}2,2,6-2[8:1],,1-5[8:1],,8,,
{8}7,7,2V46[4:1],,8,,8,,
{8}7,7,3-7[8:1],,8-4[8:1],,1,,
{8}2,2,6-2[8:1],,1-5[8:1],,8,,
{8}7,7,3-6[8:1],,7-2[8:1],,3-6[8:1],,
{4}7-2[8:1],3>6[4:1],5b,,
{16}4/7,,6,5,6-3[8:1],,,,4-1[8:1],,,,5<4[2:1],,,,
{8}4,,,,,1,1-5[8:1],,
{8}8,8-4[8:1],,1h[4:1],,2,2,,
{4}2/4,5/7,1/8,2b/7b,
{16}2/5,,3,4,3-6[8:1],,,,5-8[8:1],,,,4^1[4:1],,,,
{8}5,,8,8,,2,2-6[8:1],,
{4}7-3[8:1],1-5[8:1],8-4[8:1],3>6[8:3],
{4}6,,4/5,2/7,
{16}2/5,,3,4,3-6[8:1],,,,5-8[8:1],,,,4>5[2:1],,,,
{8}5,,,,,8,8-4[8:1],,
{8}1,1-5[8:1],,8h[4:1],,7,7,,
{4}5/7,2/4,1/8,2b/7b,
{16}4/7,,6,5,6-3[8:1],,,,4-1[8:1],,,,5^8[4:1],,,,
{8}4,,1,1,,7,7-3[8:1],,
{4}2-6[8:1],8-4[8:1],1-5[8:1],6<3[8:3],
{4}3,,,2/7,
{16}1/6,,7,8,7-5[8:1],,,,1-3[8:1],,,,8-4[8:1],,,,
{8}1,1,1-5[8:1],,8-6[8:1],,1,,
{16}3/8,,2,1,2-4[8:1],,,,8-6[8:1],,,,1,,1,,
{4}1-4[8:1]/8-5[8:1],,2/7,1b,
{16}3/8,,2,1,2-4[8:1],,,,8-6[8:1],,,,1-5[8:1],,,,
{8}8,8,8-4[8:1],,1-3[8:1],,8,,
{4}7-2[8:1],3-6[8:1],8-5[8:1],3>6[4:1],
{4}6,,2/7,1b,
{16}3/8,,2,1,2-5[8:1],,,,8-4[8:1],,,,1-5[8:1],,,,
{8}8,8,8^5[8:1],,1^4[8:1],,8,,
{16}1/6,,7,8,7-4[8:1],,,,1-5[8:1],,,,8,,8,,
{4}1-5[8:1]/8-4[8:1],,2/7,8b,
{16}1/6,,7,8,7-4[8:1],,,,1-5[8:1],,,,8-4[8:1],,,,
{8}1,1,1^4[8:1],,8^5[8:1],,1,,
{4}1/3,4,6/8,5,
{4}4/5,1/8,3/6,2b/7b,
{8}1/8h[4:1],1,2-6[8:1],,8-4[8:1],,1,,
{8}5/6h[4:1],5,5-1[8:1],,8,8,2/7,,
{8}8/1h[4:1],8,7-3[8:1],,1-5[8:1],,8,,
{8}4/3h[4:1],4,4-8[8:1],,1,1,2/7,,
{8}4/3h[4:1],4,5-8[8:1],,1-4[8:1],,8,,
{8}5/6h[4:1],5,5-1[8:1],,8,8,2/7,,
{8}5/6h[4:1],5,4-1[8:1],,8-5[8:1],,1,,
{8}4/3h[4:1],4,4-8[8:1],,1,1,2/7,,
{8}7/4h[4:1],7,7-3[8:1],,1^4[8:1],,8,,
{8}5/6h[4:1],5,5-2[8:1],,8,8,1/7,,
{8}2/5h[4:1],2,2-6[8:1],,8^5[8:1],,1,,
{8}4/3h[4:1],4,4-7[8:1],,1,1,2/8,,
{8}6/5h[4:1],6,6^1[8:1],,2^5[8:1],,8,,
{8}5/7h[4:1],5,5-1[8:1],,8,8,2/7,,
{8}3/4h[4:1],3,3^8[8:1],,7^4[8:1],,1,,
{8}5/7,5,4,4/5,,1/8,1/8,2/7,
{1}3b/6b,
E

Re:MASTER

(200){8}
3h[4:1],,1,,2,2,8,8,
1,,78,,7,7,68,,
6h[4:1],,8,,7,7,1,1,
8,,12,,2,2,4,4,
2h[4:1],,4,,3,3,5,5,
4,,56,,6,6,57,,
7h[4:1],,5,,6,6,4,4,
45,45,36,,18,,2b/7b,,
16,8,7-4[8:1],7,8-3[8:1],8,5,5,
16,8,7,16,78,78,1b/6b,,
38,1,2-5[8:1],2,1-6[8:1],1,4,4,
38,1,2,38,7,6,1,2,
16,8,7-4[8:1],7,8-3[8:1],8,5,5,
16,8,7,16,78,78,1b/6b,,
38,1,2-5[8:1],2,1-6[8:1],1,4,4,
38,1,2,38,,5,4,36,

27,1,8-5[8:1],1,8-3[8:1],,8qq3[2:1],,
8,,2,,1,,8,1,
25,3p7[16:3]/4p7[16:3],,34,,,8,1,
34,2,56,7,34,,8b,,
25,8,1-4[8:1],8,1-6[8:1],,1pp6[2:1],,
1,,8,8h[8:3],,,5,4,
3/7-4[8:1],,8-3[8:1],,5,6,27,3,
48,,2-5[8:1]/6-1[8:1],,26,,3b/7b,,
26,8,1-4[8:1],8,1-6[8:1],,1pp6[2:1],,
1,,7,,8,,1,8,
47,5q2[16:3]/6q2[16:3],,56,,,1,8,
56,7,34,2,56,,1b,,
47,1,8-5[8:1],1,8-3[8:1],,8qq3[2:1],,
8,,3,,1,2,5,4,
{4}3-8[8:1]*-7[8:1],3,5-1[8:1],5pp1[4:3]*qq1[4:3],
,,,,

{8}6h[4:1],,5,,4,4,5,5,
3h[4:1],,4,,3,4,25,,
3h[4:1],,4,,5,5,4,4,
6h[4:1],,5,,7,7,5,5,
7h[4:1],,5,,4,4,5,5,
2h[4:1],,4,,3,4,25,,
2h[4:1],,4,,5,5,4,4,
27,36,{4}45,2-5[8:1]/7-4[8:1],2b/7b,
1-5[8:1]/6,1/7-4[8:1],2-5[8:1]/7,2/8-4[8:1],
1-5[8:1]/8,1/7-4[8:1],37,1b/5b,
3/8-4[8:1],2-5[8:1]/8,2/7-4[8:1],7/8-3[8:1],
6-2[8:1]/8,1-5[8:1]/6,17,46,
3/8-4[8:1],2-5[8:1]/8,2/7-4[8:1],1-5[8:1]/7,
1/8-4[8:1],2-5[8:1]/8,26,4b/8b,
1-5[8:1]/6,1/7-4[8:1],2-5[8:1]/7,1-6[8:1]/2,
1/3-7[8:1],38,{16}1,2,3,4,5,6,7,8,
{8}1,6,7-4[8:1],7,8-3[8:1],8,5,5,
16,8,7,16,25,34,1b/6b,,
38,1,2-5[8:1],2,1-6[8:1],1,4,4,
38,1,2,38,12,3,78,6,
15,8,7-4[8:1],7,8-3[8:1],8,5,5,
16,8,7,16,25,34,1b/6b,,
5b^2[8:1]/7b,8,6,6,4b^1[8:1],7,5,5,
3b^1[8:1],6,4,4,2b^8[8:1],5,4,4,

24,1,8^5[8:1],1,8^3[8:1],,8qq3[2:1]*qq4[2:1],,
8,,,,,2,1,8,
1,2-5[16:3]/8V26[16:3],,28,,,8,1,
24,8,57,1,2/4-8[8:1],,1b,,
27,8,1^4[8:1],8,1^6[8:1],,1>5[16:3]*q6[16:3],,
1,,,7,8,6,5,8,
4-8[8:1]/7-4[8:1],,47,,1,2,37,6,
15,,3p7[8:1]/7p3[8:1],,37,,1b/5b,,
57,8,1^4[8:1],8,1^6[8:1],,1pp5[2:1]*pp6[2:1],,
1,,,,,7,8,16,
8,1V73[16:3]/7-4[16:3],,17,,,1,8,
57,1,24,8,5-1[8:1]/7,,8b,,
27,1,8^5[8:1],1,8^3[8:1],,8p3[16:3]*<4[16:3],,
8,,,2,1,3,4,1,
{4}5-1[8:1]/6-2[8:1],56,3-7[8:1]/4-8[8:1],3qq8[2:1]/4pp7[2:1],
,,,16,
{8}25,{16}3,4,{8}3,8,1/7h[4:1],,1,2,
38,7,16,2,38,,56,,
{8}47,{16}6,5,{8}6,1,2h[4:1]/8,,5,6,
7-5[8:1],8-4[8:1],7-3[8:1],8,7,,1b,,
25,{16}3,4,{8}3,8,1/7h[4:1],,1,2,
38,7,16,2,38,,56,,
3h[4:1]/7,,4,5,6,57,3,24,
1-4[8:1],1-6[8:1],1-5[8:1],,,,3b/8b,,
48,{16}7,5,{8}7,3,2h[4:1]/8,,1,8,
27,3,48,7,26,,34,,
16,{16}2,4,{8}2,6,1/7h[4:1],,4,3,
2-4[8:1],1-5[8:1],2-6[8:1],1,2,,8b,,
48,{16}7,5,{8}7,1,2h[4:1]/8,,1,8,
27,3,48,7,16,,34,,
47,,25,{16},1,{8}8,8,2,6,
37,37,48,48,{4}15,2b/6b,

2-5[8:1]/6,8-4[8:1],3-8[8:1],7-4[8:1],
1,2-5[8:1]/6-1[8:1],26,3b/7b,
2-5[8:1],7-3[8:1],1-5[8:1],8-4[8:1],
3-8[8:1],5-1[8:1],1,37,
2-5[8:1]/6,8-4[8:1],3-8[8:1],7-4[8:1],
1,2-5[8:1]/6-1[8:1],26,4b/8b,
7-4[8:1],2-6[8:1],8-4[8:1],2-6[8:1],
5-8[8:1],4,{16}26,3,4,5,6,7,8,1,
25,,3,4,3-8[8:1],,3,,4-7[8:1],,4,,1,,1,,
36,,5,4,5,,36,,1-5[8:1]/2-6[8:1],,,,1b/2b,,,,
47,,6,5,6-1[8:1],,6,,5-2[8:1],,5,,8,,8,,
36,,4,5,4,,36,,12,,3,,78,,6,,
47,,6,5,6-1[8:1],,6,,5-2[8:1],,5,,8,,8,,
36,,5,4,5,,36,,7-3[8:1]/8-4[8:1],,,,7b/8b,,,,
25,,3,4,3-8[8:1],,3,,4-7[8:1],,4,,1,,1,,
36,,5,4,{8}5,36,,26,37,48,
{1}1bqq6[1:1]/5bqq2[1:1],,,E


名前:
コメント:

タグ:

+ タグ編集
  • タグ:

このサイトはreCAPTCHAによって保護されており、Googleの プライバシーポリシー利用規約 が適用されます。

最終更新:2022年07月15日 15:33