アマノジャクリバース feat. ytr

アーティスト 魂音泉

BPM EASY BASIC ADVANCED EXPERT MASTER Re:MASTER
160 2 5 7 11 13+ -

EXPERT MASTER Re:MASTER
譜面制作者 某S氏 合作だよ -

EASY


BASIC

(160.0){1},,
{2}4,4,
{2}5,5,
{2}4,4,
{2}5,5,
{2}4,4/5,
{2}5,4/5,
{2}4,4/5,
{1}4/5,
{2}4,4,
{2}3,3,
{2}2,2,
{4}1,1,1,,
{2}1/8,8,
{2}7,7,
{2}6,6,
{1}4/5,
{4}5,5,5,,
{4}6,6,6,,
{4}7,7,7,,
{4}8,8,8,,
{2}1/8,1/8,
{4}1,1,1,,
{4}2,2,2,,
{4}3,3,3,,
{2}4b,4,
{4}5,5,5,,
{4}4,4,3,3,
{4}2,2,1/8,,
{4}8,8,7,7,
{4}6,6,5,5,
{2}4/5,4/5,
{2}3/4,5/6,
{4}5,5,4/5,,
{4}3,3,3/4,,
{4}6,6,5/6,,
{4}4,4,4/5,,
{4}5,5,6,,
{4}6,6,7,,
{4}7,7,8,,
{2}1/8,1b/8b,
{4}1,1,2,,
{4}2,2,3,,
{4}3,3,4,,
{4}4,4,5,,
{2}5/6,5/6,
{2}4/5,4/5,
{2}3/4,3/4,
{4}4/5,4/5,4/5,,
{1}3b/6b,
{1}2h[2:1],
{2}2,2,
{1}1h[2:1],
{2}1,1,
{1}8h[2:1],
{2}8,8,
{1}7h[2:1],
{2}7,7,
{1}7-3[4:3],
{2},2,
{2}1,1,
{2}1/8,1,
{1}2-6[4:3],
{2},7,
{2}8,8,
{2}1/8,1/8,
{4}1b,1,1,,
{4}8,8,8,,
{4}7,7,6,6,
{4}4/5,,3/4,3/4,
{4}3/4,,5/6,5/6,
{4}5/6,,4,4,
{4}3,3,2,2,
{4}1/8,,1,8,
{4}1/8,2b/7b,
E

ADVANCED

(160.0){1},,
{4}3,4,3,4,
{4}6,5,6,5,
{4}3,5,3,5,
{4}6,4,6,4,
{4}3,3/4,3,3/4,
{4}6,5/6,6,5/6,
{4}3,4/5,6,4/5,
{1}3b/6b,
{4}4,3,2h[4:1],1,
{4}8,7,6h[4:1],5,
{4}4,3/4,5,5/6,
{4}4/5,4/5,3/6,3/6,
{4}2b/7b,1,8,7h[4:1],
{4}8,1,2,3h[4:1],
{4}4,6h[4:1],5,3h[4:1],
{4}4,4/5,3/6,2b/7b,
{8}8,8,8,,1,1,1,,
{4}7h[4:1],8,2h[4:1],1,
{4}8,7,6h[4:1],5,
{4}4/5,4/5,3h[4:1]/6h[4:1],,
{1}4-1[8:3]/5-8[8:3],
{1}1-3[16:5]/8-6[16:5],
{4}3h[4:1],4,6h[4:1],5,
{4}3/4,4/5,5/6,4/5,
{8}3b/6b,,2h[4:1],,1,,8,8,
{8}8,,7h[4:1],,8,,1,1,
{4}1,2,3,4,
{4}5,5/6,4,3/4,
{4}2,1,7h[4:1],8,
{4}6,5,3h[4:1],4,
{4}4/5,3/6,2/7,1/8,
{1}1-4[8:3]/8-5[8:3],
{4}6h[4:3],5,5,5,
{4}3h[4:3],4,4,4,
{4}2h[4:3],1,1,1,
{4}7h[4:3],8,8,8,
{1}7-2[8:3],
{1}3-6[8:3],
{8}5,5,5,,4,4,4,,
{4}4h[2:1]/5h[2:1],,,3b/6b,
{4}2,1,7h[4:1]/8h[4:1],,
{4}6,5,3h[4:1]/4h[4:1],,
{4}5,4/6,4,3/5,
{4}2,1,8,7,
{4}1h[4:1]/8h[4:1],,7,6,
{4}4h[4:1]/5h[4:1],,3,2,
{8}1,1,1,,8,8,8,,
{4}1/8,2/7,3/6,4/5,
{1}4^1[16:7]/5^8[16:7],
{2}2h[2:1],1h[2:1],
{2}8h[2:1],7,
{2}6h[2:1],5h[2:1],
{2}4h[2:1],3,
{1}5-1[16:7],
{1}4-8[16:7],
{2}8h[2:1],1h[2:1],
{2}8h[2:1],1b,
{1}3qq8[2:3]/4pp7[2:3],,
{1}1qq6[2:3]/2pp5[2:3],,
{2}3h[2:1],4,
{2}6h[2:1],5,
{4}4,3,2,1,
{2}8h[2:1],1b,
{8}1,1,1,,7/8,,1/6,,
{4}2b/5b,,3/4,2/5,
{4}6h[4:1],5,3h[4:1],4,
{4}3b/6b,,5/6,3/4,
{4}1/2,,1/2,7/8,
{4}5/6,,3/4,2/5,
{8}1,1,1,,8,8,8,,
{2}2b/7b,3h[4:1]/6h[4:1],
{4}4/5,{1}4qq1[4:7]/5pp8[4:7],,,
E

EXPERT

(160.0){1},,
{4}1/8,1/8,8/1-5[8:1],,
{4}4/7,4/7,4/7-3[8:1],,
{4}2/4,2/4,4/2-5[8:1],,
{4}4/6,4/6,4/6-1[8:1],,
{4}2h[4:1],3,5h[4:1],4,
{4}3h[4:1],4,7h[4:1],6,
{4}4h[4:1],5,6h[4:1],5,
{1}4/5,
{8}4,5,4,,5/4h[4:1],,1,,
{8}5,4,5,,4/5h[4:1],,8,,
{8}4,5,4,,5/4h[4:1],,1,,
{8}2,1,2,,7,8,7,,
{4}1b/2b,1/2,3h[4:1],8,
{8}7,8,7,,6h[4:1],,1,,
{8}2,1,2,,3h[4:1],,8,,
{8}7,8,7,8,7^4[8:1],,,,
{8}2,2,8,8,1,1,2/8,,
{8}4/6,,3/5,,6,5,6,,
{8}3,3,5,5,4,4,3/5,,
{8}1/7,,2/8,,7,8,1/7,,
{2}1-4[8:1],8-5[8:1],
{8}1,1,1h[4:1],,8,8,8h[4:1],,
{4}2h[4:1],3h[4:1],4h[4:1],5h[4:1],
{4}7h[4:1],1h[4:1],3h[4:1],4,
{8}3b/4b,,2/5,,3,4,3,3,
{8}6,5,6,6,3,4,3/5,,
{8}6,5,4/6,,3,4,3/5,,
{8}7,8,7,7,2,1,2,2,
{8}7,8,1/7,,2,1,2/8,,
{8}7,5,6,4,5,3,2/4,,
{8}1,8,2,7,3,6,4/5,,
{4}5/6,4/7,3/8,1b/2b,
{2}2v4[4:1],6v8[4:1],
{2}3v5[4:1],7v1[4:1],
{2}4v6[4:1],8v2[4:1],
{4}3>6[4:1],,,4/5,
{8}6/8,,6/8,7,1,8,2/7,,
{8}1/3,,1/3,2,8,1,2/7,,
{8}6,5,6,4,7,4,5/6,,
{4}4^1[4:1]/8^5[4:1],,,2b/7b,
{8}4,4,5,5,6,6,5,5,
{8}4,4,5,5,6-1[8:1],,3,,
{8}2,2,1,1,8,8,1,1,
{8}2,2,1,1,8-4[8:1],,2,,
{8}2h[2:1],,1,1,1-5[8:1],,,,
{8}7h[2:1],,8,8,8-4[8:1],,,,
{4}1/2,3/4,5/6,7/8,
{8}1,2,3,4,5,6,{4}7<1[8:5],{1},
{8}8h[1:1],,,,1,,,1,
{8}1h[1:1],,,,8,,,8,
{8}8h[2:1],,,7,7h[2:1],,,6,
{8}6,,,,5h[16:3]/6h[16:3],,,5/6,
{8}4/7,,,,3h[16:3]/4h[16:3],,,3/4,
{8}2/5,,,4/5,4h[16:3]/5h[16:3],,,5,
{8}5^8[4:1],,,4,4^1[4:1],,,5,
{1}5w1[4:1],
{8}2h[2:1],,,4,4h[2:1],,,5,
{8}5h[2:1],,,6,6,,,7,
{8}7h[2:1],,,5,5h[2:1],,,4,
{8}4,,,,3h[16:3]/4h[16:3],,,3/4,
{8}2/5,,,,5h[16:3]/6h[16:3],,,5/6,
{8}4/7,,,4/5,4h[16:3]/5h[16:3],,,4/5,
{8}3h[16:3]/6h[16:3],,,3/6,2h[16:3]/7h[16:3],,,2/7,
{2}1h[4:1]/8h[4:1],1-4[8:1]/8-5[8:1],
{16}3h[16:3],,,4,,,2,,6h[16:3],,,5,,,7,,
{8}4^1[8:1],,,8,8^5[8:1],,,,
{16}2h[16:3],,,1,,,3,,7h[16:3],,,8,,,6,,
{8}1-5[8:1],,,,4h[16:3]/6h[16:3],,,4/6,
{8}4-1[8:1]/6-1[8:1],,,,3h[16:3]/5h[16:3],,,3/5,
{8}3-8[8:1]/5-8[8:1],,,,5h[16:3]/6h[16:3],,,4/7,
{8}4^1[8:1],,,5,5^8[8:1],,,4,
{8}4,4,5,5,3,3,7,7,
{4},{1}1bpp4[4:11]/5bpp8[4:11],,,,
E

MASTER

(160){1}8>8[2:11],,
{4}8,8,{16}8,,,8,,,8,,{4}1,1,{16}1,,,1,,,1,,
{4}2,2,{16}2,,,2,,,2,,{4}3,3,{16}3,,,3,,,3,,
{16}
5,,8,,7,,6,,5,,,5,,,5,,
4,,1,,2,,3,,4,,,4,,,4,,
5,,8,,7,,6,,5,,,5,,,5,,
{1}4<4[2:1],

{8}3,4,2/5,6,5,4/7,3,2/4,6,5/7,3,2/4,1/5,{16}6,8,,3,1,3,
{8}1,5/6,8,4/5,7,3/4,{16}6,5,6,5,
{8}6,2/3,5,1/2,4,1/8,{16}3-8[8:1],4,3,4,{8},,7,6/8,
2,1/3,{16}7,8,{8}7,5,4/6,2,1/3,
7,6/8,{16}2,1,{8}2,4,3/5,7,6/8,
{16}1,5,2,6,3,7,4,8,{4}5<5[4:1],,,3b/7b,

{8}1-4[8:1],5-8[8:1],1,5,4-1[8:1],8-5[8:1],4,8,1,
{16}3,4,,6,5,,2,4,,7,5,,,,
3,4,3,,8,,1/7,,6,5,6,,1,,2/8,,3,4,2,,6,5,7,,1,8,1,8,{8}1,,
2-6[8:1],1/3,2,,7-3[8:1],6/8,7,,
2,1/3,7,6/8,2-5[8:1]/7-4[8:1],1/8,2/7,,,1/2,5,1/8,4,7/8,1,5/6,8,
4/5,1,3/4,8,2V48[4:1]/7V51[4:1],1/8,2/7,,,
4/5,{16}6,5,,3,4,,7,5,,2,{8}4,3/5,
7,6/8,2-6[8:1],1/3,2^5[8:1]*^7[8:1],,,,6,5/7,3,2/4,8,1/7,

{16}2,5,2,5,2,5,3,7,3,7,3,7,1,6,1,6,1,6,
{8}3,3/7,4/8,1^6[8:1]/5^2[8:1],,,,
{16}7,8,7,8,7,,2,1,2,1,{8}2,4/5,6,4/5,2,4/5,7,4-8[8:1]/5-1[8:1],,
{1}4>5[2:1]/5<4[2:1],
{4}2b/7b,

{16}2/5,,2-5[8:1],3,2,3,2,,8,,7-4[8:1],6,7,6,
{8}7,1,1/8,1^4[8:1]/8^5[8:1],2/7,,,2-5[8:1],6-1[8:1],2,6,3,3h[8:1],
{16}4,3,4,3,5,4,5,4,6,5,6,5,{8}7w3[8:1],6/8,,,4^1[8:1]/2,3/5,4/6,,
{16}6,5,6,7,6-3[8:1],5,{8}6,1,1,4/5,3/6,{16}8,8,{8}1-5[8:1],8-4[8:1],1,8,
{16}1,1,{8}1,7,8^5[8:1],4^1[8:1],8,4,8,
8h[8:1],7h[8:1],6h[8:1],5h[8:1],4h[8:1],3h[8:1],2h[8:1],1b,,

{16}4/7,,7-4[8:1],6,7,6,7,,1,,3-8[8:1],2,3,2,
{8}3,1,1/8,4^1[8:1]/5^8[8:1],3/6,,,6-1[8:1],3-8[8:1],6,3,7,7h[8:1],
{16}8,7,8,7,4,5,4,5,2,1,2,1,{8}3w7[8:1],2/4,,,8^5[8:1]/6,1/7,2/8,,
{16}2,1,2,3,2-7[8:1],1,{8}2,5,5,1/8,3/6,{16}1,1,{8}5-1[8:1],4-8[8:1],5,4,
{16}7,7,{8}7,2,1^4[8:1],5^8[8:1],1,5,1,
1h[8:1],2h[8:1],3h[8:1],4h[8:1],5h[8:1],6h[8:1],7h[8:1],8b,,
{1}1>1[2:1]/3p1[2:1],

{8}
8^5[4:3],,4-1[8:1],3,4,,1,1,1^4[4:3],,5-8[8:1],6,5,,8,8,
8^5[4:3],,4-1[8:1],3,4,,1,1,1^4[4:3],,5-8[8:1],6,5,,8,8,
8-5[8:1],,1,,{16}3,,,2,{8},1,
1^4[4:3],,5-8[8:1],6,5,,8,8,8^5[4:3],,4-1[8:1],3,4,,1,1,
1h[2:1],,5,5,5,,,,

3/5,{16}6,6,{8}5-8[8:1],4,1/5,2,3,4,
3/5,6,5-8[8:1],4,1/5,2,3,4,
4/6,{16}3,3,{8}4-1[8:1],5,4/8,7,6,5,
4/6,3,4-1[8:1],5,8-5[8:1]/4,,4>5[4:1]/8,,,,,,{16}1,,,3,,,4,,
3/5,,6,6,{8}5-8[8:1],4,1/5,2,3,4,
4/6,5,3/5,4,4/7,5,2/5,4,4/8,5,1/5,1,
{16}1,5,2,6,3,7,4,8,
{4}4-1[8:1]/8-5[8:1],4b/8b,

{16}
3/8,,6,1/6,,4,4/5,,7-3[8:1]/2,,6/8,,7,,1,,2/4,,5,4/5,,7,5/7,,
8^5[8:1],,4,4,8,,2,,1-4[8:1],,5,5,1,,7,,8w4[8:1],,1/7,,8,,,,
1/8,,5,5/7,,4,4/5,,2-6[8:1]/4-8[8:1],,,,2/4,,,,1/8,,4,2/4,,5,4/5,,
{4}5-1[8:1]/7-3[8:1],5/7,

5-8[8:1],4-1[8:1]/5,5-8[8:1]/4,4-1[8:1]/5,5-8[8:1]/4,4/5,
{16}4/5,,4/5,,3/6,,3/6,,2,7,2,7,1,8,1,8,
{4}2V41[1:7]/7V58[4:3],2b/7b,,,,,
{16},,6,5,,,,,,5,{1}6h[4:19],,,,{8},,,,,,,6>6[4:1],,,,,,
{1}4b,,,,E


Re:MASTER


  • 修正箇所等ありましたら修正・加筆をおねがいします。 -- Sea (2018-10-03 08:05:00)
名前:
コメント:

タグ:

+ タグ編集
  • タグ:

このサイトはreCAPTCHAによって保護されており、Googleの プライバシーポリシー利用規約 が適用されます。

最終更新:2022年07月17日 13:56