Help me, あーりん!

BPM EASY BASIC ADVANCED EXPERT MASTER Re:MASTER
183 2 4 7 9+ 11+ -

EXPERT MASTER Re:MASTER
譜面制作者 サファ太 某S氏 -

EASY


BASIC

(183.0){1},,
{2}4,4,
{4}4,4,4,,
{2}5,5,
{4}5,5,5,,
{2}4,4,
{4}4,4,4,,
{2}5,5,
{4}5,5,5,,
{1}4h[2:1],
{1}4h[2:1],
{1}3h[2:1],
{1}3h[2:1],
{1}2h[2:1],
{2}2,2,
{1}1-4[4:3],,
{1}5h[2:1],
{2}5,5,
{1}6h[2:1],
{2}6,6,
{1}7h[2:1],
{1}7h[2:1],
{2}8,8,
{2}1,1b,
{1}1h[2:1]/2h[2:1],
{1}7h[2:1]/8h[2:1],
{4}1,1,1,,
{2}1b,1b,
{4}2,2,2,,
{4}3,3,3,,
{4}4,5,4,,
{4}4/5,4/5,4/5,,
{4}6,6,6,,
{4}7,7,7,,
{4}8,8,8,,
{2}1b,1b,
{4}8,8,8,,
{4}7,7,7,,
{4}6,6,5,5,
{1}4/5,
{1}4h[2:1],
{2}4,4,
{4}5,5,5,,
{4}6,6,6,,
{1}7h[2:1],
{2}8,8,
{4}1,1,1,,
{1}1h[2:1]/2h[2:1],
{1}3h[2:1],
{2}4,4,
{4}5,5,5,,
{4}6,6,6,,
{1}5h[2:1]/6h[2:1],
{1}3h[2:1]/4h[2:1],
{4}5,4,5,,
{1}4h[2:1]/5h[2:1],
{2}3,3,
{4}3,3,3,,
{2}4/5,4/5,
{4}4,5,4,,
{2}6,6,
{4}6,6,6,,
{4}4,5,4,,
{4}4/5,4/5,4b/5b,,
{2}3,3,
{2}2,2,
{4}1,1,1,,
{2}1b,1b,
{1}2h[2:1],
{4}3,3,3,,
{4}4,5,4,,
{4}4/5,4/5,4b/5b,,
{4}6,6,6,,
{4}7,7,7,,
{4}8,1,8,,
{2}1b,1b,
{1}8h[2:1],
{4}7,7,7,,
{4}6,6,6,,
{1}4h[2:1]/5h[2:1],
{4}3/4,3/4,3/4,,
{4}5/6,5/6,5/6,,
{4}7,7,8,8,
{2}1b,1b,
{1}1h[2:1]/2h[2:1],
{4}3,3,3,,
{4}4,5,4,,
{4}4/5,4/5,4b/5b,,
{4}3,3,3,,
{4}2,2,2,,
{4}1,1,8,8,
{2}1b,1b,
{1}7h[2:1]/8h[2:1],
{4}6,6,6,,
{1}5h[2:1]/6h[2:1],
{1}3h[2:1]/4h[2:1],
{1}4-1[4:3]/5-8[4:3],,
{1}1-4[4:3]/8-5[4:3],,
{1}3h[2:1]/6h[2:1],
{4}4,5,4,,
{1}3b/6b,
E

ADVANCED

(183.0){1},,
{2}3,3/4,
{4}3,3,3/4,,
{2}6,5/6,
{4}6,6,5/6,,
{2}7,7/8,
{4}7,7,7/8,,
{2}2,1/2,
{4}2,2,1/2,,
{4}3h[4:1],4,3h[4:1],4,
{4}3h[2:1],4,4,,
{4}6h[4:1],5,6h[4:1],5,
{4}6h[2:1],5,5,,
{4}2h[4:1],1,2h[4:1],1,
{4}2h[2:1],1,1,,
{1}1>5[2:1],
{4}6h[2:1],5,5,,
{1}6<2[2:1],
{4}3h[2:1],4,4,,
{4}2h[4:1],1,2h[4:1],1,
{4}2h[2:1],1,1,,
{4}3h[4:1],4,6h[4:1],5,
{4}7h[4:1],8,2h[4:1],1,
{4}1/8,2/7,3/6,4/5,
{2}3h[4:1]/6h[4:1],3b/6b,
{2}2h[2:1],1,
{4}2,1,3/8,,
{4}8,7,6,5,
{4}4h[2:1],5,5,,
{2}6h[2:1],5,
{4}6,5,4/7,,
{4}4,3,2,1,
{4}8h[2:1],1,1,,
{4}2,1/2,7,7/8,
{4}1/8,1/8,2/7,,
{4}3,4,6,5,
{4}3h[4:1],4,3h[4:1],4,
{4}6,5/6,3,3/4,
{4}4/5,4/5,3/6,,
{4}7,8,2,1,
{4}1/8,1/8,2b/7b,,
{2}3/4,5/6,
{4}4,3,2,1,
{4}8,8,7,7,
{2}8h[2:1],1,
{2}7/8,1/2,
{4}8,7,6,5,
{4}4,4,3,3,
{2}4h[2:1],5,
{4}3,3/4,3,3/4,
{4}5,6,7,8,
{4}1,1,2,2,
{2}3h[2:1],4,
{4}6,5/6,6,5/6,
{4}4,3,2,1,
{4}8,8,7,7,
{2}6h[2:1],5,
{1}4-1[2:1]/5-8[2:1],
{4}1/8,1/8,2b/7b,,
{4}7h[2:1],8,8,,
{4}2h[2:1],1,1,,
{1}1-4[2:1]/8-5[2:1],
{4}4/5,4/5,3b/6b,,
{4}4/5,4/5,3/6,3/6,
{2}2h[4:1]/7h[4:1],2b/7b,
{2}6h[2:1],5,
{4}6,5,4/7,,
{4}4,3,2,1,
{4}8h[2:1],1,1,,
{2}2h[2:1],1,
{4}2,1,3/8,,
{4}8,7,6,5,
{4}4h[2:1],5,5,,
{4}6,5/6,3,3/4,
{4}4/5,4/5,3/6,,
{4}7,8,2,1,
{4}7h[4:1],8,2h[4:1],1,
{4}2,1/2,7,7/8,
{4}1/8,1/8,2/7,,
{4}3,4,6,5,
{4}4/5,4/5,3b/6b,,
{4}1/2,1/2,3/8,3/8,
{4}1/2,3/8,4b/7b,,
{4}5/6,5/6,4/7,4/7,
{1}5-2[2:1]/6-1[2:1],
{4}7/8,7/8,1/6,1/6,
{4}7/8,1/6,2b/5b,,
{4}3/4,3/4,2/5,2/5,
{1}3-8[2:1]/4-7[2:1],
{4}7/8,7/8,1/2,1/2,
{4}1/8,1/8,2b/7b,,
{4}1/2,1/2,7/8,7/8,
{1}1-4[2:1]/8-5[2:1],
{4}3/4,3/4,5/6,5/6,
{4}4/5,4/5,3b/6b,,
{2}2h[2:1],1h[2:1],
{2}8h[2:1],7,
{1}5qq2[2:3]/6pp1[2:3],,
{1}8h[1:1],
{1}7h[1:1],
{2}6h[2:1],5,
{2}5b/6b,3b/4b,
{1}6<3[4:13],,,,
{16},,,3b/6b,
E

EXPERT

(183.0){2}1,2,
{4}1b,2b,3b,4/5,
{4}6h[1:2],5,,5,
{4},4,,4,
{4}3h[1:2],4,,4,
{4},5,,5,
{4}6h[1:2],5,,3,
{4},5,,3,
{4}3,3/5,,4/6,
{4},4/5,4/5,,
{2}7-5[8:1],7-5[8:1],
{2}2-4[8:1],2-4[8:1],
{2}3/7-5[8:1],3/7-5[8:1],
{2}6/2-4[8:1],6/2-4[8:1],
{2}3h[4:3]/7^5[8:1],7^5[8:1],
{2}6h[4:3]/2^4[8:1],2^4[8:1],
{2}7h[2:1],5,
{2}6h[4:3]/2^4[8:1],2^4[8:1],
{2}7h[2:1],6,
{2}6h[4:3]/2-5[8:1],2-5[8:1],
{2}4/7-5[8:1],3/6-4[8:1],
{2}5h[4:3]/2-4[8:1],2^4[8:1],
{2}6h[4:11]/2-4[8:1],2^4[8:1],
{2}2-5[8:1],2^5[8:1],
{2}1-4[8:1],1^4[8:1],
{16}5,,,4/6,,,3/7,,3b/7b,,,,,,,,
{2}3h[4:1]/4h[4:1],5h[4:1]/6h[4:1],
{2}3h[4:1]/4h[4:1],2/5,
{4}4/5,3/6,2/7,1/8,
{2}6h[4:3]/2-5[8:1],2-5[8:1],
{4}4b/6b,1/2,3/5,7/8,
{8}5/6,,4/7,4/7,4h[4:1]/7h[4:1],,,,
{8}1/8,,2/4,,5/7,,2/6,2/6,
{2}6h[4:3]/2^5[8:1],2^5[8:1],
{4}4/7,6,2/5,3,
{8}5/6,,1,1,8,,2/7,,
{4}2/5,3/4,4/7,5/6,
{2}7h[4:3]/2^5[8:1],2^5[8:1],
{4}4/7,1,2/5,8,
{4}2/7q4[4:1],,,1/2,
{4}3/4,2/5,5/6,4/7>4[2:1],
{4},,,3/6,
{4}3h[4:1],4,6h[4:1],5,
{4}3h[4:1],4,4/5,4/5,
{4}6h[4:1],5,3h[4:1],4,
{4}2/4,3/5,4/6,8,
{4}2h[4:1],4,7h[4:1],5,
{4}2h[4:1],4,1/8,1/8,
{4}3h[4:1],4h[4:1],5h[4:1],6<3[2:1],
{4},,,1/8,
{4}2h[4:1],3h[4:1],4h[4:1],5h[4:1],
{4}6h[4:1],5h[4:1],4h[4:1],5,
{4}7h[4:1],6h[4:1],5h[4:1],4h[4:1],
{4}3h[4:1],4h[4:1],5h[4:1],6,
{4}5/6^1[4:1],,,3/4,
{4}5/6^1[4:1],,,3/4,
{4}5/7^2[4:1],,,3/5,
{2}7h[4:1]/8h[4:1],1b/6b,
{2}6h[4:3]/2-5[8:1],2-5[8:1],
{2}4h[4:1]/7h[4:1],4h[4:1]/7h[4:1],
{2}3h[4:3]/7-4[8:1],7-4[8:1],
{2}2h[4:1]/5h[4:1],1b/8b,
{2}6h[4:3]/2^5[8:1],2^5[8:1],
{2}4h[4:1]/7h[4:1],4h[4:1]/7h[4:1],
{8}1/8,1/8,1/8,,2/7,,4/5<4[2:1],,
{4},,,4/5,
{2}5h[4:1]/7h[4:1],2h[4:1]/4h[4:1],
{4}5/7,4/5,2/4,4^1[2:1]/5^8[2:1],
{4},,,1/8,
{2}7h[4:3]/1^4[8:1],1^4[8:1],
{4}5b/7b,1/8,2/4,1/8,
{8}5/7,,2/6,2/6,2h[4:1]/6h[4:1],,,,
{8}2/4,,5/7,,1/6,,1/8,1/8,
{2}8h[4:3]/1q5[8:1],1q5[8:1],
{4}8,2/4,1,5/7,
{4}5/4^1[4:1]*-7[4:1],,,8,
{4}1/8,5/6,1/8,3/4,
{2}7h[4:3]/2bq6[8:1],2bq6[8:1],
{4}7/8,3/4,1/2,5/6,
{4}3h[2:1]/7q4[4:1],,,5/6,
{4}1/7,3/4,2/8,6/5<4[2:1]*q4[2:1],
{4},,,2b/7b,
{8}6,6,5/7,,3,3,2/4,,
{8}7,7,6/8,,2h[4:1]/7h[4:1],,,,
{8}3,4,2/5,,6,5,4/7,,
{2}8h[4:3]/2bq6[8:1],2bq6[8:1],
{8}7,7,6/8,,2,2,1/3,,
{8}6,6,5/7,,2h[4:1]/6h[4:1],,,,
{8}7,8,1/6,,2,1,3/8,,
{2}7h[4:3]/1bv6[8:1],1bv6[8:1],
{4}7/8,3/5,1/2,4/6,
{4}7/5<1[4:1]*q2[4:1],,,2/4,
{4}5/6h[4:1],8,4/3h[4:1],1,
{2}8h[4:3]/1bv6[8:1],1bv6[8:1],
{4}5/7h[4:1],8,4/2h[4:1],1,
{4}2h[2:1]/8q5[4:1],,,8/1b^4[2:1],
{4},,,8/1bq5[2:1],
{4},,,1b/8,
{1}2h[8:7]/7h[4:19],
{1}3h[8:7],
{1}4h[8:7],
{1}5h[8:7],
{1}6h[4:3],
{8}1/8,1/8,1/8,1/8,1/8,,,,
{1}2b/6b,
E

MASTER

(183)
{4}1,,2,,1b,2b,{8}3b,4,3/5,,
5,,3,3,5,5,3,5,,5,3,3,5,5,3,,
4,,6,6,4,4,6,4,,4,6,6,4,4,6,5,
4,,3/5,3/5,4,4,3/5,4,,4,3/5,3/5,4,4,3/5,,
5,,4/6,4/6,5,5,4/6,5,,5,4/6,4/6,5,5,4/6,,

{2}
3h[4:3]/7-5[8:1],7-5[8:1],6h[4:3]/2-4[8:1],2-4[8:1],
3h[4:3]/7-4[8:1],7-4[8:1],6h[4:3]/2-5[8:1],2-5[8:1],
3h[4:3]/8-4[8:1],8-4[8:1],6h[4:3]/2^5[8:1],2^5[8:1],
7s3[2:1]/3,,6h[4:3]/2^5[8:1],2^5[8:1],7h[4:3]/3,,6h[4:3]/2^5[8:1],2^5[8:1],
3h[4:3]/7-4[8:1],6^4[8:1],6h[4:15]/2^5[8:1],2^5[8:1],
2^5[8:1],2^5[8:1],1>5[8:1],1>5[8:1],1b>5[8:1],1b>5[8:1],
{16}7b/8b,,,4b/5b,,,1b/2b,,{2}1b-6[8:1]/2b-5[8:1],

4h[4:1]/8h[4:1],2h[4:1]/6h[4:1],3h[4:1]/7h[4:1],1h[4:1]/5h[4:1],
{8}
7h[4:7]/3,,2,2,2,,1,,2^5[8:1],,2,,2^5[8:1],,2,,
6,5,4/7,6,3,4,2/5,3q5[4:1],,7,7,,8,,8,1,
7,8,1/6,7,2,1,3/8,1,2^5[8:1]/8h[4:1],,2,,2^5[8:1]/8h[4:1],,2,,
7/8,,7/8,,1/2,,1/2,,2/5,3,4/7,6,2h[4:1]/5,,8,1,
7h[4:1],,1,8,2h[4:1],,8,1,8h[4:3]/2^5[8:1],,2,,2^5[8:1],,2,,
7h[4:1],,5,4,2h[4:1],,4,5,6,7,8,1,2/7,,3,4,
2/5,,6,5,4/7,,4/5,,4,5,4,5,,3b/6b,3b/6b,,

2h[4:1],,1,,7h[4:1],,8,,6,5,4,3h[4:1],,1,1,,
2-5[8:1],,8,,7-4[8:1],1,1,,3-8[8:1],,5,,6-1[8:1],4,4,,
3h[4:1],,4,,6h[4:1],,5,,5,4,3,2h[4:1],,1,1,,
2^5[4:1],,5^8[4:1],,8^3[4:1],,3q6[2:1],,,,,,,8,8,,
6,5,4/6,,3,4,3/5,,6,5,6,5-2[8:1],,8,8,,
{4}
1^4[8:1],1^6[8:1],1-5[8:1],1,
8^5[8:1],8^3[8:1],8-4[8:1],8,
3q5[4:1],,7,1/8,6p4[4:1],{8},2,{4}2,1/8,
1-5[8:1],8-4[8:1],2-6[8:1],7<2[2:1],1h[2:1],,,1/8,

6h[4:7]/2^5[8:1],2,2^5[8:1],2,1,1,2^5[8:1],2,
7h[2:1],8,6h[2:1],5,{8}7,8,7,8,{4}1-4[8:1]/7-4[8:1],,
6h[4:7]/2^5[8:1],2,2^5[8:1],2,{8}1,1,1,,2^5[8:1],,2,,
7/8,7/8,1/6,1/6,2/5,2/5,3/4,3/4,{16}2/5,,,4/7,,,1/6,,{4}3/8,2b/7b,

1h[4:1]/8h[4:1],,2h[4:1]/7h[4:1],,
6h[4:1]/8h[4:1],,2h[4:1]/4h[4:1],,
{8}5/6,5/6,4/7,4/7,3/8,3/8,1/2,,8h[4:3]/2^5[8:1],,2,,2^5[8:1],,2,,
7,8,1/6,5,2,1,3/8,7p4[4:1],,2,2,,1,,2,1,
3^8[8:1],4,5,6,7^4[8:1],8,1,2,2^5[8:1],,2/8,,2^5[8:1],,2/8,,
7h[8:1]/8h[8:1],,1h[8:1]/6h[8:1],,1h[8:1]/2h[8:1],,3/8,3q5[4:1]/8,,7,7,,8,,8,1,
2-5[8:1],,8,8,7-4[8:1],,1,1,6h[4:3]/2^5[8:1],,2,,2^5[8:1],,2,,
6/8,7,6/8,,1/3,2,1/3,,3/5,4,4/6,5,3/5,,
2,1,2h[4:1],,7,8,7,6,5,4,3qq5[8:3]/6pp4[8:3],,,,,,1b/8b,,

{16}2/7,,3,4,3,,6,5,6,,3,4,3,,7,8,7,,2,1,2,,8,1,
{8}2/7,,5,4,6h[4:7],,3,3,2,2,1,,1>5[8:1],,,,1>5[8:1],,,,
{16}4/7,,6,5,6,,3,4,3,,6,5,6,,2,1,2,,7,8,7,,1,8,
{8}2/7,,4,3,1/2,3/8,4/7,5/6,7/8,1/6,2/5,3/4,2^5[8:1],,2/8,,2^5[8:1],,2/8,,
8-4[8:1],,1-5[8:1],,6-8[8:1],,4,4qq1[8:3],,8,7,6,5,,5,4,
5,5h[4:1],3,3h[4:1],7,7h[4:1],1,1,8h[4:3]/1>5[8:1],,,,1>5[8:1],,,,
8q5[8:1],,1,,2^7[8:1],,5,5pp8[8:3],,1,2,3,4,,4,5,
6h[4:3],,7,,8,,1,6,3h[4:3],,2,,1,,8,,

{1}2^5[2:9]/7h[4:3],8h[4:3],1h[4:3],2h[4:3],3h[4:3],
{16}4,5,4,5,4,5,4,5,4,,,,,,,,
{1}2b/6b,,,,,,,,,E


Re:MASTER


名前:
コメント:

タグ:

+ タグ編集
  • タグ:

このサイトはreCAPTCHAによって保護されており、Googleの プライバシーポリシー利用規約 が適用されます。

最終更新:2022年06月05日 02:45