花と、雪と、ドラムンベース。

BPM EASY BASIC ADVANCED EXPERT MASTER Re:MASTER
180 2 6 8 11+ 14 13+

EXPERT MASTER Re:MASTER
譜面制作者 Jack 合作(ぴちネコ+Moon Strix) はっぴー

EASY


BASIC

(180){1},
{2},1b,{1},,,,,,
{2}4,4,
{1}4,
{2}5,5,
{1}5,
{2}6,6,
{2}7,7,
{1}8-5[4:3],,
{2}4,4,
{1}3/5,
{2}5,5,
{1}4/6,
{2}3,3,
{2}2,2,
{1}1-4[4:3],,
{1}5h[1:1],,
{1}6h[1:1],,
{2}7,7,
{2}7,7,
{2}8,8,
{1}1b/8b,
{2}1,1,
{1}1h[2:1],
{2}2,2,
{4}3,3,3,,
{2}4,4,
{1}4h[2:1],
{2}5/6,5/6,
{4}7,7,7b,,
{2}8,8,
{1}8h[2:1],
{2}7,7,
{4}6,6,6,,
{2}5,5,
{1}5h[2:1],
{2}3/4,3/4,
{4}2,2,2b,,
{2}1,1,
{1}1,
{2}8,8,
{1}8,
{2}7,7,
{2}6,6,
{1}5-8[4:3],,
{2}1,1,
{1}2/8,
{2}8,8,
{1}1/7,
{2}2,2,
{2}3,3,
{1}4-1[4:3],,
{4}8,8,8,,
{4}7,7,7,,
{4}6,6,6,,
{4}5,4,5b,,
{4}4,4,3,3,
{4}2,2,1,1,
{4}8,8,7,7,
{1}5h[2:1]/6h[2:1],
{4}5/6,5/6,3/4,3/4,
{4}5/6,5/6,3b/4b,,
{4}1/2,1/2,7/8,7/8,
{2}1h[2:1],8,
{4}8,7,6,5,
{4}4,3,2,1,
{2}8h[2:1],1,
{2}1h[2:1],8,
{4}7/8,7/8,1/2,1/2,
{4}7/8,7/8,1b/2b,,
{4}3/4,3/4,5/6,5/6,
{2}4h[2:1],5,
{4}5,6,7,8,
{4}1,2,3,4,
{2}5h[2:1],4,
{2}4h[2:1],5,
{1}4-1[4:3]/5-8[4:3],,,,,,,
{8},,,1b,,,,,
{1}2h[2:1],
{1}3h[2:1],
{1}4h[1:2]/5h[1:2],,,
E

ADVANCED

(180){1}4h[1:1],
{2}3h[2:1],2b,
{1}5h[1:1],
{2}6h[2:1],7,
{1}4-1[2:1]/5-8[2:1],
{1}2h[2:1]/7h[2:1],
{1}8<1[4:5],,
{2}3h[2:1],4,
{4}3h[2:1],4,4,,
{2}6h[2:1],5pp1[1:1],{1},
{2}7h[2:1],8,
{4}2h[2:1],1,1,,
{1}8^5[2:1],
{1}4^1[2:1],
{2}7h[2:1],8,
{4}7h[2:1],8,8,,
{2}2h[2:1],1,
{4}2h[2:1],1,1,,
{4}7/8,7/8,,7/8pp5[4:3],{1},
{1}6h[1:1],
{2}5,3/4,
{2}5h[4:1]/6h[4:1],7,
{2}3h[4:1]/4h[4:1],2,
{2}5h[4:1]/6h[4:1],7,
{2}3h[4:1]/4h[4:1],2,
{4}4/5,6,7,,
{4}4/5,3,2,,
{4}4/5,3/6,2/7,1pp4[4:3]/8qq5[4:3],{1},
{1}6b/3>6[2:1],
{4}5,4,3,2V85[2:1],
{4},,,6,
{4}3h[4:1],4,6h[4:1],5,
{1}7z3[2:1],
{4}2,1,1/8,1/8,
{4}7/8,1/6,1/2,3/8,
{4}1/8,2/7,3b/6b,,
{1}3b/6<3[2:1],
{4}4,5,6,7V14[2:1],
{4},,,3,
{4}6h[4:1],5,3h[4:1],4,
{1}2s6[2:1],
{4}7,8,1/8,1/8,
{4}1/2,3/8,7/8,1/6,
{4}1/8,2/7,3b/6b,,
{4}5/6h[2:1],4,5,,
{4}4/3h[2:1],5,4,,
{4}5/6h[1:1],5,4,4,
{2}5h[2:1],6,
{4}4/3h[2:1],5,4,,
{4}5/6h[2:1],4,5,,
{4}4/3h[1:1],4,5,5,
{2}4h[2:1],3,
{4}1/2h[2:1],8,1,,
{4}8/7h[2:1],1,8,,
{4}1/2h[1:1],1,8,8,
{2}1h[2:1],2,
{4}8/7h[2:1],1,8,,
{4}1/2h[2:1],8,1,,
{1}1-4[2:1]/8-5[2:1],
{2}3h[4:1]/6h[4:1],3/6,
{4}2,2,1,,
{4}2,2,1,,
{4}2,2,1,,
{8}7,7,7,,7/8,,1/2,,
{4}1/8,7,1/8,2,
{4}1/8,7/8,1/8,1qq6[4:3]/2pp5[4:3],{1},
{4}3b/4b,5b/6b,2b/7b,1b/8b,
{4}7/8,1/6,7/8,1/6,
{4}7/8,1-3[4:1]/6-4[4:1],,,
{4}1/2,3/8,1/2,3/8,
{1}2/1s5[2:1],
{4}4/6,3,2,1-3[4:1],
{4},8-6[4:1],,,
{4}3/4,2/5,5/6,4/7,
{4}4/5,3/6,2b/7b,,
{4}3/4,2/5,3/4,2/5,
{4}3/4,2-8[4:1]/5-7[4:1],,,
{4}5/6,4/7,5/6,4/7,
{1}6/5z1[2:1],
{4}2/8,7,6,5-7[4:1],
{4},4-2[4:1],,,
{4}7/8,1/6,1/2,3/8,
{4}1/8,1/8,2h[4:1]/7h[4:1],,
{1}1pp5[4:5]/8qq4[4:5],,
{1}3h[2:3]/6h[2:3],,
{1}1h[1:1],
{2}8h[2:1],7,
{1}8h[1:1],
{2}1h[2:1],2b,
{1}1-4[2:1]/8-5[2:1],
{1}3h[2:1]/6h[2:1],
{1}5<4[4:5],,
{1}3b/6b,
E

EXPERT

(180){1}2-7[4:7],
{2},3b,
{1}6-3[4:7],
{4},,,1,
{4}8,2/7,,,
{4}4/5,3/6,2/7,1-4[4:7]/8-5[4:7],{1},,
{4}3h[2:1],4,5h[2:1],6,
{4}7h[2:1],8,1h[2:1],2,
{4}8h[2:1],7,6h[2:1],5p2[4:3],{1},
{4}8h[2:1],1,2h[2:1],3,
{4}4h[2:1],5,6h[2:1],7p4[4:3],{1},
{2}1h[4:1]/2h[4:1],7h[4:1]/8h[4:1],
{4}6h[2:1],5,4h[2:1],3,
{4}2h[2:1],1,8h[2:1],7,
{4}1h[2:1],2,3h[2:1],4-7[4:1],
{8},,8b,,1,1-4[4:3],1,,
{8}8,8-5[4:3],8,,,,3,,
{4}2h[1:1],,3,3-7[4:7],{1},,
{2}7h[2:1],2h[2:1],
{2}5h[2:1],8h[2:1],
{2}3h[2:1],6h[2:1],
{2}1h[2:1],4h[2:1],
{4}6h[4:1],8h[4:1],2h[4:1],4h[4:1],
{4}5h[4:1],7h[4:1],1h[4:1],3h[4:1],
{8}4,5,6,7,8,1,2,3,
{8}4b^1[4:1]/5b^8[4:1],,,,,,1-5[8:1],1,
{8}1,,1,,8,7,6,7,
{8},4/5,,2,1,2,3>6[2:1],4,
{2},8,
{8}1/8,2,3,4,1/8,7,6,5,
{2}1/8-5[8:1],8^5[8:1],
{8},4/5,,6,7,8,1,2,
{12}3,,3,4,,4,5,,5,6,,6,
{8}7^2[8:1],,,,4,5,4,5,
{2}8h[4:1]/3-1[8:1],7h[4:1]/3-8[8:1],
{2}6h[4:1]/3-1[8:1],5h[4:1]/3-8[8:1],
{2}4h[4:1]/3-1[8:1],5h[4:1]/3-8[8:1],
{2}6h[4:1]/3-1[8:1],7h[4:1]/3-8[8:1],
{2}2h[4:1]/6-1[8:1],3h[4:1]/6-8[8:1],
{2}4h[4:1]/6-1[8:1],5h[4:1]/6-8[8:1],
{2}4h[4:1]/6-1[8:1],3h[4:1]/6-8[8:1],
{1}2/6p3[4:3],
{4}2h[2:1],1,8h[2:1],7,
{4}6h[2:1],5,4h[2:1],3,
{4}5h[2:1],6,7h[2:1],8q3[4:3],{1},
{4}5h[2:1],4,3h[2:1],2,
{4}1h[2:1],8,7h[2:1],6q1[4:3],{1},
{2}2h[4:1]/3h[4:1],6h[4:1]/7h[4:1],
{4}3h[2:1],4,5h[2:1],6,
{4}7h[2:1],8,1h[2:1],2,
{4}8h[2:1],7,6h[2:1],5-1[2:1],
{8},,,,8,8-5[4:3],8,,
{8}1,1-4[4:3],1,,,,6,,
{4}7h[1:1],,6,6-2[4:7],{1},,
{8}1,,3/4,,,2,4/5,,
{8}8,,5/6,,,7,4/5,,
{8}1,,3/4,,,2,4/5,,
{8}1/8,2,2,2,8/1-4[4:1],7,7,,
{8},8,7,6,1/5,5,4,4,
{8}3/7,3,2,2,1/5,1,8,8,
{8}3/7,7,6,6,1/5,5,4,4,
{4}3-7[8:1],5-1[8:1],4w8[8:1],,
{16}2h[16:3],,,1,2,,3,,4h[16:3],,,5,4,,3,,
{16}2h[16:3],,,1,2,,3,,4h[8:3]/5h[8:3],,,,,,,,
{2}4-8[8:1]/5-7[8:1],4-2[8:1]/5-1[8:1],
{8}4/5,6,7,8,1,2,3,4,
{12}5/6,,6,5,,5,4,,4,3,,3,
{2}2-7[8:1]*^7[8:1],6-3[8:1]*^3[8:1],
{4}2h[2:1],3,6h[2:1],7,
{4}4h[4:1],5w1[4:1],,,
{16}7h[16:3],,,8,7,,6,,5h[16:3],,,4,5,,6,,
{16}7h[16:3],,,8,7,,6,,4h[8:3]/5h[8:3],,,,,,,,
{2}4-2[8:1]/5-1[8:1],4-8[8:1]/5-7[8:1],
{8}4/5,3,2,1,8,7,6,5,
{12}3/4,,3,4,,4,5,,5,6,,6,
{2}7-2[8:1]*^2[8:1],3-6[8:1]*^6[8:1],
{4}7,7h[2:1],,2,
{4}2h[2:1],,7,3qq5[1:2]/6pp4[1:2],{1},,,,
{1}3-6[4:7],,
{1}7-2[4:7],
{8},,,6b,,,4,,
{4}5,4,2b/7b,,
{4}1-5[8:1],5-1[8:1],1-5[8:1],5-1[1:2],{1},,
{1}5b,
E

MASTER

(180)
{6}5h[2:1]/6,7,8,{4}1>7[4:3],,8,1,2b,3,
{6}4h[2:1]/3,2,1,{4}8<2[4:3],,1,8,7,2/6,
4V28[2:1]/8V64[2:1],4/8,,,1h[3:2]/5h[4:1],,{12}8,7,6,2,3,4,
{1}1bqq6[4:5]/5bqq2[4:5],,

{4}7^2[8:5],6,5,4,3^6[8:5],2,1,8,7h[4:3],6,5,4qq3[4:3]*pp5[4:3],,,,,
{8}1/7,,8,8,8h[4:1],,1h[4:1],,2h[4:1],,3,3h[8:1],4,4h[8:1],5,5h[8:1],
6<2[8:5],,5,,,,4,,3>7[8:5],,5,,,,5,,
6h[1:1],,4,4,4,,2,,8h[4:1],,5h[4:1],,1h[4:1],,4h[4:1],,
2h[1:1],,4,4,4,,8,,6,,4b/8b,,3/7,2/6,1/5,,
1^4[4:1]/5^8[4:1],1/5,1/5,,,,1/5,,3h[4:1]/7h[4:1],,,,1/6,,3/8,,
2-6[4:5]/7,,1,,,,3,,,,7,,,,5,,
6-1[8:1],6h[8:3],,,2-5[8:1],2h[8:3],,,4-7[8:1],4h[8:3],,,8-3[8:1],8h[8:3],,,
6^1[8:1],6h[8:3],,,2^5[8:1],2h[8:3],,,4^7[8:1],4h[8:3],,,8^3[8:1],8h[8:3],,,
6,6,5/7,6,4/8,6,1/3,6,3/6,3,2/4,3,1/5,3,6/8,3,
{16}7,8,6,1,5,2,4,3,1,2,8,3,7,4,6,5,{8}4V25[4:1]/7V16[4:1],,,,,,

1b/2b,7b/8b,4bp1[8:3]/5bpp8[8:3],,,,,,3/6,3/6,4qq1[8:3]/5q8[8:3],,,,,,1/6,1/6,
{24}7,6,5,8,1,2,6,5,4,1,2,3,{8}4b/8b,,5w1[8:1],4/6,5,,4w8[8:1],3/5,4,,5,4,
2qq7[8:3]/3q6[8:3],,,,,,5/8,5/8,6p3[8:3]/7pp2[8:3],,,,,,1/4,1/4,
{12}3/7,3/7,3/7,3b/7b,,,2/6,2/6,2/6,{8}2b^5[8:1]/6b^1[8:1],,
2p6[8:1]/6p2[8:1],,2/6,,4/8,2/6,4/8,2/6,
4b-2[8:1]/8,,4/8,,4-1[8:1]/7,7,4/6,6,4-8[8:1],5h[8:1],4,5,4-1[8:1]/6,6,4/7,7,
{24}2,3,4,1,8,7,3,4,5,8,7,6,{8}1b/5b,,4w8[8:1],3/5,4,,5w1[8:1],4/6,5,,3/7,2/6,
5-7[8:1]/1,,1/5,,5-8[8:1]/2,2,3/5,5,5-1[8:1],4h[8:1],5,4,5-8[8:1]/3,3,2/5,2,
{12}1/5,1/5,1/5,1b/5b,,,3/7,3/7,3/7,{8}3b-8[8:1]/7b-4[8:1],,3/7,,3/7,3/7,
{16}4-8[8:1]/8-4[8:1],3/7,2/6,1/5,{4},

{4}7^2[8:5],6,5,4,3^6[8:5],2,1,8,7h[4:3],6,5,4qq3[4:3]*pp5[4:3],,,,,
{8}3/5,,4,4,4h[4:1],,5h[4:1],,6h[4:1],,7,7h[8:1],8,8h[8:1],1,1h[8:1],
2q8[8:5],,6,,7,,1,,7p1[8:5],,3,,2,,8,,
4h[1:1],,6,6,6,,8,,2h[4:1],,5h[4:1],,1h[4:1],,6h[4:1],,
8h[4:5],,6,6,6,,2,,4h[4:1],,,,1/7,2/6,3/5,,
4^1[4:1]/8^5[4:1],4/8,4/8,,,,4/8,,2h[4:1]/6h[4:1],,,,3/8,,1/6,,
7-3[4:5]/2,,4,,8,,4,,,,5,,1,1,{16}2,7,2,7,

{8}
8-4[8:1]/4,3,2,1,8w4[8:1],,8b,,8-4[8:1]/4,3,2,1,8w4[8:1],,8b,,
8-4[8:1]/4,3,2,1,8w4[8:1],,8b,,3/5,
{16}4h[1024:1],4h[1024:1],4h[1024:1],4h[1024:1],4h[1024:1],4h[1024:1],
4pp5[8:1]*qq3[8:1],,3/5,,4b,,,,,,
7,8,7,,1/6,,3,4,3,4,3,,2/8,,6,5,6,5,6,,1/7,,3,4,3,4,3,,2/8,,
7,7,8,8,1,1,2,2,6,6,5,5,4,4,3,3,{8}8<1[4:1],,,,,{32},1/8,2/7,3/6,{16}4b/5b,,,,

3-7[8:1],,4,4,3,,4,,4-8[8:1],,5,5,4,,5,,5-1[8:1],,6,6,5,,6,,
{24}1,5,1,5,1,5,{32}1,2,3,4,5,6,7,8,
{12}1-5[8:1]/5h[6:1],,,1/5,6,7,8-4[8:1]/4h[6:1],,,4/8,3,2,
{8}1-4[8:1],5-8[8:1],1,5,3^6[8:1]*q7[8:1],2,3,,1b/2b,,
{12}2,2,2,1,1,1,8,8,8,7h[6:1],,,3/7,2/6,1/5,4h[6:1]/8h[6:1],,,4/8,1/5,2/6,
{8}7p1[4:1]/3,,1p3[4:1],,3p5[8:1],,5p7[8:1],,7,8,1,2,3h[4:1],{24}2,1,8,{16}7b,,,,
6-2[8:1],,5,5,6,,5,,5-1[8:1],,4,4,5,,4,,4-8[8:1],,3,3,4,,3,,
{24}8,4,8,4,8,4,{32}8,7,6,5,4,3,2,1,
{12}8-4[8:1]/4h[6:1],,,4/8,3,2,1-5[8:1]/5h[6:1],,,1/5,6,7,
{8}8-5[8:1],4-1[8:1],8,4,6^3[8:1]*p2[8:1],7,6,,7b/8b,,
{12}7,7,7,8,8,8,1,1,1,2h[6:1],,,5V31[8:1],5,5,5h[6:1],,,4V68[6:1],4,4,4h[6:1],,,
{4}1-5[8:1],1/8,2/6,{16}4/5,,1/6,2/7,3/8,,3/8,2/7,{4}1bw5[8:1]/6,1b>8[4:7],
{1}1h[4:7],,

{8}5h[8:1],6h[8:1],7h[8:1],8h[8:1],1h[8:1],2h[8:1],3h[8:1],4h[8:1],
{16}5,4,5,4,6,3,6,3,7,2,7,2,8,1,8,1,

{12}6b-2[12:1],,3,6,4,,{4}5qq1[8:5]/6-1[8:1],6,6-8[8:1],6,2-5[8:1]/6-1[8:1],2/6,
{12}2-6[12:1]/6,,7,2,8,,{4}1qq5[8:5]/2-5[8:1],2,2-4[8:1],2,
2-5[8:1]/6-1[8:1],2-7[8:1]/6-3[8:1],2^5[8:1]/6^1[8:1],2/6,2b/6b,,
{16}1/8,,6,6,5/7,,3,3,{12}2/4,5,6,3/7,4/8,1/5,
{1}2^7[2:3]/6q3[2:3],,2b/6b,,,,,,E


Re:MASTER

(180){4}
2^7[90#8:5],,,6,6,,2b,,
7^2[90#8:5],,,4,4,,,8,
7,3h[4:3],,,5^8[90#8:1],6,4^1[90#1:1],3,
,,,5,{8}5,,,6,,,{4}3,

8b,6,5,4,3V57[90#8:1],3V17[90#8:3],,,
,5pp5[90#8:1],5qq5[90#2:1],,,,,,
,6,5,4,3,6^3[90#8:1],2^7[90#1:1],,
{0.5},{4}
4-1[90#8:7],3,5-8[90#8:1],6,,,8,,
7p3[90#4:1],8,2q6[90#4:1],1,,8b,8-5[90#2:1],1,
1,,1-4[90#8:1],,,,8<2[90#4:3]*V64[90#2:1],1,
{0.5},{4}
1h[2:1],8h[2:1],,,1h[2:1],8h[2:1],,,
2h[2:1],7h[2:1],,,3h[2:1],6h[2:1],,,
{8}4h[4:1],5h[4:1],,,4h[4:1],5h[4:1],,,3h[4:1],6h[4:1],,,2h[4:1],7h[4:1],,,
{16}1h[8:1],8h[8:1],,,1h[8:1],8h[8:1],,,1h[8:1],8h[8:1],,,1h[8:1],8h[8:1],,,{8}1b,,,,,,4^1[90#8:1],6,

8,,,,5-8[90#16:1],5-2[90#16:1],1,1,,,,8,1<2[90#4:1],,3,,
,,,,8^5[90#4:1],,6,6,1^4[90#4:1],,3,3,,,6,6,
8,,,,5-7[90#16:1],5>1[90#8:1],8,8,,,,8,8,,4-1[90#8:1],,
{16}1,,,3,5-8[90#8:1],,,,8,,,6,{4}4,1b,1b,8,8v2[90#8:1],
1,8-4[90#8:1],3,8v6[90#8:1],7,8-4[90#8:1],5pp2[90#4:1],,
,,{8}1qq1[90#4:1],,5,5,1pp1[90#4:1],,5,5,{4},5v7[90#8:1],
6,5-1[90#8:1],8,5v3[90#8:1],4,5-1[90#8:1],,2-7[90#8:1],
4,6-3[90#8:1],8,2,4V25[90#4:1]*V68[90#4:1],{8}7,2,{4},,

,3,4,5,6V42[90#8:1],6V82[90#8:3],,,
,4qq4[90#8:1],4pp4[90#2:1],,,,1h[8:1],1h[8:1],
,3,4,5,6,3^6[90#8:1],7^2[90#1:1],,
{0.5},{4}
5-8[90#8:7],6,4-1[90#8:1],3,,,1,,
2q6[90#4:1],1,7p3[90#4:1],8,,,1-4[90#2:1],3,
8,,8-5[90#8:1],,,,1^4[90#8:3]*>7[90#4:3],8,
{0.5},{4}
5-7[90#16:1],5qq4[90#8:1],,,8-6[90#16:1],8pp1[90#8:1],,,
4-6[90#16:1],4qq3[90#8:1],,,{8}8qq7[90#8:1],8,8pp1[90#8:1],,,,,,
6,6,5-1[90#16:1],5-7[90#16:1],8,8,,,3,3,4-8[90#16:1],4-2[90#16:1],1,1,,,
1,1,8-4[90#16:1],8-6[90#16:1],5,5,,,{1}1b,

{16}1-3[90#8:1],,,5,,,4,,8-6[90#8:1],,,4,,,5,,1w5[90#32:3],,,5w1[90#32:3],,,{8}4,,,,,
3v1[90#8:1],,4h[8:1],,6v8[90#8:1],,5h[8:1],,4,3,2,1,8,7,6qq3[90#4:1],5,
{4}4,7,2-7[90#8:1],1,6-3[90#8:1],5,2z6[90#4:1],1,
6z2[90#4:1],5,2z6[90#4:1],1,6,5,2,,
{16}5-7[90#8:1],,,1,,,8,,4-2[90#8:1],,,8,,,1,,5w1[90#32:3],,,1w5[90#32:3],,,{8}8,,,,,
6v8[90#8:1],,7h[8:1],,3v1[90#8:1],,2h[8:1],,5,6,7,8,1,2,3qq5[90#4:1],4,
{4}5,7,6-1[90#8:1],8,2-5[90#8:1],4-1[90#8:1],6<3[90#2:1],,
,,,4,4,,1>7[90#4:3]*>8[90#8:7],{8}8,{16}*1^3[360#1:1]/*1^4[360#2:3],*1>5[720#1:4]/*1>6[720#1:5],
{0.25}8q1[90#2:3],

{4}7^2[90#8:5],,,4,4,,,,
2^7[90#8:5],,,5,5,{8},2b,{4},1,
2,6h[4:3],1b,,4^1[90#8:1],1,5^8[90#2:1],8,
1,,,{10.6}1,1,1,1,{6.6}1,{10.6}8,8,8,8-4[90#32:1],8,{4}8,
{1}8b,,,E

  • Re:MASTER補完ありがとうございますm(_ _)m -- Sea (2019-01-16 11:20:19)
名前:
コメント:

タグ:

+ タグ編集
  • タグ:

このサイトはreCAPTCHAによって保護されており、Googleの プライバシーポリシー利用規約 が適用されます。

最終更新:2022年05月06日 04:11