怒槌

BPM EASY BASIC ADVANCED EXPERT MASTER Re:MASTER
200 4 6 8+ 12 14+ -

EXPERT MASTER Re:MASTER
譜面制作者 Jack 譜面ボーイズからの挑戦状 -

EASY

(200){1}5,5,5,5/6,4,4,4,3/4,
{2}5,5,5,,6,6,6,,7,7,7,,8,8,8,,8-5[4:3],,,,5,5,5,,4-1[4:3],,,,1,1,1,,
{1}8h[1:1],,7h[1:1],,6h[1:1],,5h[1:1],,{2}4,4,4,,3,3,3,,2,2,2,,1,1,1,,8b,,
{4}1,1,,,2,2,,,3,3,,,4,4,,,5,5,,,6,6,,,7,7,{2},8,,8,7,6,5,4,,4/5,,4,3,2,1,8,,1/8,,
{1}2-6[4:5],,,7,7-3[4:5],,,2,1/8,7h[1:1],,8h[1:1],,1h[1:1],,2h[1:1],,
{2}1,1,2,2,3,3,4,,5,5,6,6,7,7,8,,7/8,,5/6,,3/4,,1/2,,1/2,,3/4,,5/6,,7/8,,
{4}8,8,8,,7,7,7,,6,6,6,,5,5,5,,4,4,4,,3,3,3,,2,2,2,,1/8,,,,
1,1,1,,2,2,2,,3,3,3,,4,4,4,,4/5,,5,5,5,,6,6,6,,7,7,7,,{2}1/8,,
7h[1:1],,,,8h[1:1],,,,1,1,1,,2,2,2,,1,1-4[4:5],,,,,,5-8[4:5],,
{1},,2/7,,,,E


BASIC

(200){1},,,,{4}
1,1,1,,2,2,2,,3,3,3,,4h[2:1]/5h[2:1],,,,
6-1[4:3],,,,,,,,7/8,7/8,7/8,,1/2,1/2,1/2,,
3-8[4:3],,,,,,,,1/2,1/2,1/2,,7/8,7/8,7/8,,
6,6,5,5,4,4,3,3,1h[2:1]/2h[2:1],,,,1h[2:1]/2h[2:1],,,,
3,3,4,4,5,5,6,6,7h[2:1]/8h[2:1],,,,7h[2:1]/8h[2:1],,,,

1-4[4:3],,,,,,7,7,8-5[4:3],,,,,,2,2,
1-5[4:3],,,,,,7,7,8-4[4:3],,,,,,2,2,
{2}1,1/2,3,3/4,5,5/6,7,7/8,
{4}7/8,7/8,7/8,,5/6,5/6,5/6,,4,4,3,3,2,2,1/8,1/8,2b/7b,,,,

3h[2:3],,,,4h[2:1],,,,3/4,3/4,2/5,,5/6,5/6,4/7,,
6h[2:3],,,,5h[2:1],,,,5/6,5/6,4/7,,3/4,3/4,2/5,,
3-8[4:3]/4-7[4:3],,,,,,,,7/8,7/8,1/6,,1/2,1/2,3/8,,
1-6[4:3]/2-5[4:3],,,,,,,,5/6,5/6,4/7,,3/4,3/4,2/5,,

{1}
4h[1:1]/5h[1:1],,3h[1:1]/6h[1:1],,2h[1:1]/7h[1:1],,1h[1:1]/8h[1:1],,1/8,
1h[2:1]/8h[2:1],2h[2:1]/7h[2:1],3h[2:1]/7h[2:1],4h[2:1]/5h[2:1],
{2}4/5,3b/4b,4/5,5b/6b,4/5,3b/7b,,,
4,3/4,5,5/6,4,3/4,5,5/6,{4}4,4,3/4,3/4,5,5,5/6,5/6,4,4,3/4,3/4,5b,,,,

4/5,,4,4,3/5,,5,5,4/6,,3,3,2/4,,6,6,5/7,,8,8,1/7,,1,1,2/8,,1h[4:1]/8h[4:1],,1/8,,
1/8,2b/7b,3,3,4,4,5,5,6,6,5h[4:1]/6h[4:1],,3h[4:1]/4h[4:1],,4/5,4/5,3/6,,
3h[4:3],,,,4h[4:3],,,,5h[4:3],,,,6h[4:3],,,,
7/8,7/8,7/8,7/8,7/8,7/8,7/8,7/8,7/8,7/8,7/8,7/8,7/8,7/8,7/8,7/8,1h[4:1],,
1/2,1/2,1/2,1/2,1/2,1/2,1/2,1/2,1/2,1/2,1/2,1/2,1/2,1/2,1/2,1/2,
3h[4:1],,4h[4:1],,5h[4:1],,6h[4:1],,7h[4:1],,8h[4:1],,1h[4:1],,2h[4:1],,
3,4,5,6,7,8,1,2,{8}3,3,3,,4,4,4,,5,5,5,,6,6,{4}6,7b,,8h[2:5],,,,,,1h[1:1],,,,,,
{16}8,,,8,,,,,,,1,,,1,,,,,,,1/8,,,1-4[4:3]/8-5[4:3],,,,,,,,,
{1},3b/6b,,,,,E


ADVANCED

(200){4}
1,2,3/4,,8,7,5/6,,2,3,4,4^1[2:1]/5^8[2:1],,,,,
8,7,5/6,3,1,2,3/4,6,8,7,6,4/5,4h[4:1]/5h[4:1],,3/6,,
1q5[2:1],,,,5p8[2:1],,,,1/2,8,7,5/6,4,3/4,2/5,,
8p4[2:1],,,,4q1[2:1],,,,8/7,1,2,3/4,5,5/6,4/7,,
3h[4:1],4,4h[4:1],5,5h[4:1],6,4/7,,8,8,2,2,1,2,3/8,,
3h[4:1],4,4h[4:1],5,5h[4:1],6,4/7,,8,8,2s6[1:1],,,,,,

{8}7,7h[8:3],,,{2}8h[2:1],1h[2:1],2,{8}2,2h[8:3],,,{2}1h[2:1],8h[2:1],7,
{8}8,8h[8:3],,,{2}2h[2:1],4h[2:1],3,{8}1,1h[8:3],,,{2}7h[2:1],5h[2:1],6,
{4}7h[4:1],8,1h[4:1],8,7h[4:1],8,1/6,,3h[4:1],4,5h[4:1],4,3h[4:1],4,2/5,,
5/6,4,3/4,5,5/7,4,2/5,,6,5/7,3,2/4,5/6,3/4,1w5[4:3],,,,,,
4p8[2:1],,,,8q5[2:1],,,,3/4,5,6,7/8,1,1/2,3/8,,
5q1[2:1],,,,1p4[2:1],,,,5/6,4,3,1/2,8,7/8,1/6,,
2h[4:1],1,1h[4:1],8,8h[4:1],7,1/6,,5,5,3,3,4,3,2/5,,
2h[4:1],1,1h[4:1],8,8h[4:1],7,1/6,,5,5,3,3,2>6[4:1],,,,

{2}
8h[1:1],7,7h[1:1],6,6h[1:1],5,5h[1:1],4,4h[1:1],2,2h[1:1],8,8h[1:1],7,
7h[2:1],6h[2:1],5h[2:1],4h[2:1],3,1h[2:7],2,3,4,5,6,7,8,
5b/7b,1/8,2b/4b,1/8,3b-8[4:3]/6b-1[4:3],,,

{4}
5,6,4/7,,4,3,2/5,,6,7,6/8,,3,2,1/3,,7,8,1/7,,2,1,2/8,,7,8<1[1:1],,,,,,,
1h[4:1]/8h[4:1],,2,3,4h[4:1]/5h[4:1],,3,2,
1h[4:1]/8h[4:1],,7,5/6,3h[4:1]/4h[4:1],,6,7/8,
1h[4:1]/2h[4:1],,7/8,6,4h[4:1]/5h[4:1],,7,1/8,
2h[4:1]/7h[4:1],,3/6,4/5,4-1[4:1]/5-8[4:1],,,,
8,1b/7b,6,5,4/5,3,2,1/8,7,6/8,2,1/3,8,1/8,2/7,,
1,2,3,4/5,5,6,7,1/8,2,1/3,7,6/8,1,1/8,2/7,,
5/6,7,5/6,8,5/6,1,5/6,2,3/4,2,3/4,1,3/4,8,3/4,7,6/8,,
3/4,1/2,3/4,1/8,3/4,7/8,3/4,5/7,5/6,7/8,1/2,3/4,5/6,3/8,3/4,1/6,
{2}
5h[4:1]/6h[4:1],5h[4:1]/7h[4:1],4h[4:1]/6h[4:1],4/7,
3h[4:1]/4h[4:1],2h[4:1]/4h[4:1],3h[4:1]/5h[4:1],2/5,
{4}5/6,5/7,4/6,4/7,3/4,2/4,3/5,2/5,
{8}6,6,8,,3,3,1,,7,7,2,2,8,8,1,,
{4}1h[4:1]/8h[4:1],,1/8,2/7,3/6,4qq1[2:3]/5pp8[2:3],,,,,,,,,
{16}3/8,,,1/2,,,,,,,1/6,,,7/8,,,,,,,2/7,,,1h[16:19]/8h[16:19],,,,,,,,,
{1},2b/7b,,,,,E


EXPERT

(200){8}
7h[8:3],,,5h[4:1],,4h[8:3],,,2h[8:3],,,4h[4:1],,6h[8:3],,,
7h[8:3],,,5h[4:1],,4h[8:3],,,2h[4:1],,1,7-3[8:1]/8,,2,,,
3h[4:1],,4,6h[4:1],,5,4,3/6,3/6,,7,4/6,2,3/5,4/6,,
2h[4:1],,1,7h[4:1],,8,1,2/7,{1}2z6[2:1]/7s3[2:1],

4>5[2:1]/5p4[2:1],4q5[2:1]/5<4[2:1],
{8}6,5,4/7,,1,1,8,8,3,4,2/5,,8,8,1,1,
{2}2V41[2:1]/6V85[2:1],,1-4[8:1]/5-8[8:1],4-1[8:1]/8-5[8:1],
{8}2,1,3/8,,5,5,4,4,7,8,1/6,,4/5,4/5,2/7,2/7,
3,4,3,2/5,6,5,6,4/7,8,1,8,2/7,3,4,5,3/6,
2/7,2/7,2/7,,3,3,3,2/4,1/5,1/5,1/5,,8,8,8,1/7,
6,5,6,4/7,3,4,3,2/5,1,8,1,2/7,6,5,4,3/6,
2/7,2/7,2/7,,6,6,6,5/7,4/8,4/8,4qq4[4:1]/8qq8[4:1],,,,,,

4/8,5h[8:13]/1,,,{2}8h[4:1],7h[4:1],6h[4:1],{8}
1/5,4h[8:13]/8,,,{2}1h[4:1],2h[4:1],3h[4:1],{8}
4/8,5h[8:13]/1,,,{2}2h[4:1],3h[4:1],4h[4:1],{8}
1/5,4h[8:13]/8,,,{2}7h[4:1],6h[4:1],5h[4:1],{8}
1,2h[2:1],,1,8,7h[2:1],,8,1,2h[4:1],,1,2-6[8:1],,7,,
8,7h[2:1],,8,1,2h[2:1],,1,8,7h[4:1],,8,7-3[8:1],,2,,
{4}1h[2:1],2,3h[2:1],4,5h[2:1],6,7h[2:1],8,
{8}1,1,7,7,3,3,5,5,4,4,3/5,3/5,2/6,2/6,1/7,1/7,8,8,8,8,
1/7,2/6,5pp8[4:3]/3,4,{1},4p1[2:1],
{8}7,8,1/6,,2,1,3/8,3/8,7,6,5,4,3,2,1pp4[4:3]/8,,
{2},,8p5[2:1],1-4[8:1],
{8}3,4,2/5,,6,5,4/7,4/7,3,2,1,8,7,6,4/5,4/5,
{4}3^6[8:1],7^1[8:1],2^4[8:1],5^8[8:1],1^4[8:1],5^7[7:1],8^3[8:1],5,
{8}7,7,6/8,,2,3,4,5/6,7,7,6/8,,4/5,,1/8,1/8,
{4}7^2[8:1],3^5[8:1],6^1[8:1],2^4[8:1],5^8[8:1],1^3[8:1],4^7[8:1],1,
{8}3,3,2/4,,6,7,8,1/2,3,3,2/4,,1-5[8:1]/8,,,,

{1}6h[1:1],7h[1:1],8h[1:1],1h[1:1],2h[1:1],3h[1:1],4h[1:1],5<4[2:3],,
{2}8h[2:1],6h[2:1],4h[2:1],2h[2:1],8h[2:1],1h[2:1],3h[2:1],5h[2:1],
7s3[8:3],7b,2z6[8:3],2b,8z4[8:3],8b,4h[4:3]/5h[4:3],,
{4}
3h[2:1]/6,4,5h[2:1],4,3h[2:1],4,6h[2:1],5,
4h[2:1],5,7h[2:1],6,5h[2:1],6,7h[2:1],8,
1h[2:1],8,7h[2:1],8,2h[2:1],1,8h[2:1],1,
2-4[8:1],8-6[8:1],1-5[8:1],8v7[8:1],1v2[8:1],6v5[8:1],3v4[8:1],,

{16}6,5,6,5,{8}6,,,3,3,3,2-5[8:1]/4h[8:1],,,,,7,6,5,
{16}3,4,3,4,{8}3,,,6,6,6,7-4[8:1]/5h[8:1],,,,,4,3,2,
{16}8,1,8,1,{8}8,,,5,4,5,3^6[8:1]/6h[8:1],,,,,,,,
4-8[8:1]/5-1[8:1],,,,,1/8,2/7,3/6,4/5,{16},2/7,,,,,1,2,3,4,8,7,6,5,
{8}1-5[8:1],,1b,,6,5/7,8,1/7,6,5/7,3,2/4,1,2/8,3,2/4,
{16}1,,3,4,3,4,3,4,2,,6,5,6,5,6,5,{8}7,8,1,2,3/4,4/5,5/6,,
8-4[8:1],8,1,1,2-6[8:1],2,8,8,7-3[8:1],7,8,8,1-5[8:1],1,8,8,
7h[2:1],8,1,2,3h[2:1],4,5,6,7-3[8:1],,2-6[8:1],,8-4[8:1],,,,
{16}
3,4,3,,3,5,3,,3,4,3,,3,6,3,,3,4,3,,3,7,3,,3,4,3,,3,8,3,,
6,5,6,,6,4,6,,6,5,6,,6,3,6,,6,5,6,,6,2,6,,6,5,6,,6,1,6,,
,,,,,,,,
2,1,2,,7,8,7,,2,1,2,,7,8,7,,3,1,3,,6,8,6,,3,1,3,,6,8,6,,
1,8,1,8,1,8,1,8,1,8,1,8,1,8,1,8,,,7,5,7,5,7,5,,,2,4,2,4,2,4,

{2}
3-5[8:1]*-6[8:1],3-6[8:1]*-7[8:1],3-7[8:1]*-8[8:1],3-1[8:1]*-8[8:1],
6-3[8:1]*-4[8:1],6-2[8:1]*-3[8:1],6-1[8:1]*-2[8:1],6-1[8:1]*-8[8:1],
{8}
3-5[8:1],,7-1[8:1],,3-6[8:1],,7-2[8:1],,
3-7[8:1],,6-4[8:1],,2-8[8:1],,7b,,
3h[4:1],4,6h[4:1],5,2h[4:1],4,7h[4:1],5,
{16}1,2,3,4,8,7,6,5,1,2,3,4,8,7,6,5,
{8}1bs5[8:1],,,,6,5/7,,3,4,2/5,,6,5,4/7,
{4}7-2[8:1]/4,3-6[8:1],8-5[8:1],4-1[8:1],7-4[8:1],3-8[8:1],5,

{16}
6b/7b,,,2b/3b,,,,,,,
2b/3b,,,6b/7b,,,,,,,
4b/5b,,,1bpp4[8:9]/8bqq5[8:9],,,,,,,,,
{1},2b/7b,,,,,E


MASTER

(200){8}
3h[4:1]/5,,4,5h[4:1]/3,,3,4,5,6h[4:1]/3,,5,4h[4:1]/6,,6,5,4,
3h[4:1]/5,,4,5h[4:1]/3,,3,4,5,6b-2[8:1],,6b,1bw5[8:1],,1b,,,
1,8,7,{16}6,5,,5,{8}6,1/7,,8,1,2,{16}3,4,,4,{8}3,2/8,,
8,7,6,{16}5,4,,4,5,,3/6,,,,{24}8h[4:1]/4,3,2,1h[8:1],,,,2/7,3/6,
{16}4/5,,3,4,2,5,1,6,8,7,
{8}
6-3[8:1]/1,,8,1,2-7[8:1],,4,5,6-1[8:1],,4,3,2-5[8:1],,1,8,
3/7,6,1/5,6,3/7,6,1/5,6,3/7,4,5/8,4,3/7,4/8,1/5,,
3-6[8:1]/8,,1,8,7-2[8:1],,5,4,3-8[8:1],,5,6,7-3[8:1]*-4[8:1],,,,
2/6,3,4/8,3,2/6,3,4/8,3,2/6,5,1/4,5,2-5[8:1]/6-1[8:1],,2/6,,

1>5[8:1],7,5-1[8:1],7,1-5[8:1],7,5,7,
8<4[8:1],2,4-8[8:1],2,8-4[8:1],2,4,2,
8,2,3/4,2,{16}8,1,7,,5,4,{8}6,
1,7,5/6,7,{16}1,8,2,,4,5,{8}3,
8<4[8:1],2,4-8[8:1],2,8-4[8:1],2,4,2,
1>5[8:1],7,5-1[8:1],7,1-5[8:1],7,5,7,
1,7,5/6,7,{16}1,8,2,,4,5,{8}3,8,2,3/4,2,
1h[16:1]/7h[16:1],3h[16:1]/5h[16:1],
2h[16:1]/8h[16:1],4h[16:1]/6h[16:1],

2-6[8:1]/1,2h[8:3]/1,,,7h[2:1],,3,,5h[2:1],,1,,3h[4:1],,2,,
7-3[8:1]/8,7h[8:3]/8,,,2h[2:1],,6,,4h[2:1],,8,,6h[4:1],,7,,
1-5[8:1]/2,1h[8:3]/8,,,6h[2:1],,2,,4h[2:1],,8,,2h[4:1],,3,,
8-4[8:1]/7,8h[8:3]/1,,,3h[2:1],,7,,5h[2:1],,1,,7h[4:1],,6,,
5^2[8:1]/6,,7h[4:1],,8^3[8:1],,6h[4:1],,5^2[8:1],,8h[4:1],,1^6[8:1],,,,
4^7[8:1]/3,,2h[4:1],,1^6[8:1],,3h[4:1],,4^7[8:1],,1h[4:1],,8^2[8:1],,,,
1-5[8:1]/3,,8V63[4:1]/1,,6/8,,7,7,8-4[8:1]/6,,1V36[4:1]/8,,1/3,,2,2,
3^6[8:1]/1,3,8,8,7p3[8:1],7,8,8,2-5[8:1],2,8-4[8:1]/2,8,1w5[8:1]/8,,1b,,

2^7[8:1],3,4,5,6^3[8:1],7,8,1,
2,4,5,7,{16}5^8[8:1]/1,2,3,4,{8}5,,7,5,4,2,{16}4^1[8:1]/8,7,6,5,{8}4,,
7/8,6,4/5,3,1/2,3,4/5,6,1/7,6,4/5,3,2-5[8:1]/8-5[8:1],,,,
7,5,4,2,{16}4^1[8:1]/8,7,6,5,{8}4,,2,4,5,7,{16}5^8[8:1]/1,2,3,4,{8}5,,
1/2,3,4/5,6,7/8,6,4/5,3,2/8,3,4/5,6,1-4[8:1]/7-4[8:1],,,,

{16}3,5,3,6,3,7,3,8,3,1,3,2,3,4,3,5,3,6,2,6,1,6,8,6,7,6,5,6,4,6,3,6,
{8}3-7[8:1],3,4-6[8:1],4,2-8[8:1],2,7,7,5,5-1[8:1],,8,8-4[8:1],,1/8,,
{16}6,4,6,3,6,2,6,1,6,8,6,7,6,5,6,4,6,3,7,3,8,3,1,3,2,3,4,3,5,3,6,3,
{8}6-2[8:1],6,5-3[8:1],5,7-1[8:1],7,2,2,3-7[8:1]/7-3[8:1],,3>5[4:1]/7,,,,,,

{1}4b<4[2:7]/3h[4:3],5h[4:3],7h[4:3],1h[4:3],
{2}7<3[1:1],3,3s7[1:1],7,7>3[1:1],3,3pp1[1:1],1,1w5[2:1],,
7h[4:3]/1b,5h[4:3],3h[4:3],1h[4:3],7h[4:3],5h[4:3],3h[2:1],1,
4-8[8:1]/8-4[8:1],2b/6b,2-6[8:1]/6-2[8:1],4b/8b,1-5[8:1]/5-1[8:1],3b/7b,
1>8[2:1]/8,,

{8}
1-5[8:1]/2,,1/8,,8-4[8:1],7,6/8,,8-4[8:1]/7,,1/8,,1-5[8:1],2,1/3,,
1-5[8:1]/2,,1/7,,8-4[8:1]/2,7,6/8,,8-4[8:1]/7,,2/8,,1/7,2,3/6,,
1-5[8:1],1,2-6[8:1],2,3-7[8:1],3,4-8[8:1],4,
5-1[8:1],5,6-2[8:1],6,7-3[8:1],7,8-4[8:1],8,
1-5[8:1],1,6-1[8:1]/1,6,3-8[8:1]/6,3,3/7,7,{4}2qq4[4:1]/7pp5[4:1],,,

1-5[8:1]/8,1-7[8:1]/5-3[8:1],,{16}6,5,{8}6,
8-4[8:1]/7,1,4-6[8:1]/8-2[8:1],,,,{16}3,4,{8}3,
1-5[8:1]/2,8,1-7[8:1]/5-3[8:1],,,,{16}6,5,{8}6,
8-4[8:1]/7,1,4-6[8:1]/8-2[8:1],,,,{16}3,4,{8}3,
1V73[4:1]/2,8,6-4[8:1]/1,,,,{16}6,5,{8}6,
8V26[4:1]/7,1,3-5[8:1]/8,,,,{16}3,4,3,,1/2,,8,,
3-8[8:1]/7-4[8:1],,,3/7,,,,,1/5,2/6,3/7,,1/5,,4/8,,
3-6[8:1]/7-2[8:1],,,3/7,,,,,1,8,7,6,5,4,3,2,1/8,,,,2b/7b,,,,

3,4,3,4,2,,1/7,,6,5,6,5,7,,2/8,,2,4,3,,7,5,6,,2h[8:1]/8,,4,3,5,4,6,5,
6h[8:1],,,8,7,1,8,2,1-5[8:1],,4-8[8:1],,1,,4,,7^2[8:1]*^4[8:1],,,,,,,,
3,4,3,,6,5,6,,2,4,2,,7,5,7,,2,4,3,,7,5,6,,1,4,3,,8,5,6,,
2,1,2,,3/8,,7,8,7,,1/6,,7,2,6,3,5<4[8:3]/4,,,,,,,,,,,,
2b/7b,,,,
3,4,6,5,3,4,6,5,2,3,7,6,2,3,7,6,
2,3,4,5,6,5,4,3,4,5,6,7,6,5,4,3,
1,2,8,7,1,2,8,7,2,3,7,6,2,3,7,6,
4/5,,4/5,,1/8,,1/8,,
4,5,3,6,2,7,1,8,
2,7,2,7,2,7,2,7,
2/8,3,4,5,1/6,5,4,3,2/8,3,4,5,1/6,5,4,3,
2/7,6,5,4,3/8,4,5,6,1/7,6,5,4,3/8,4,5,6,
1b,8,1b,7,1b,6,1b,5,1b,5,1b,6,1b,7,1b,8,
1h[8:1],,8,2,8,3,8,4,
8h[8:1],,3,7,3,6,3,5,

{4}
3^8[4:1],8<4[4:1],4>8[4:1],8^5[4:1],5>8[4:1],8^6[4:1],6w2[8:1],,
6^1[4:1],1>5[4:1],5<1[4:1],1^4[4:1],4<1[4:1],1^3[4:1],3w7[8:1],,
3-7[8:1],4-8[8:1],5-1[8:1],6-2[8:1],3q7[8:1],4q8[8:1],5p1[8:1],6,
{8}4-8[8:1]/5-1[8:1],3/6,4/5,,3-8[8:1]/6-1[8:1],4/5,3/6,,
{32}3,4,5,6,7,8,1,2,3,4,5,6,7,8,1,2,3,4,5,6,7,8,1,2,3,4,5,6,7,8,1,2,
{4}3h[4:1]/7h[4:1],{32},2b/6b,1b/5b,4b/8b,{16},,6,8,6,,1/7,,2,8,2,,1/7,,5,3,5,3,
{12}8,8,8,6,6,6,4,4,4,2,2,2,8,5,6,1,4,3,
{32}8,7,6,5,4,3,2,1,8,7,6,5,4,3,2,1,
{16}8b-4[8:1]*z4[8:1],,,8b,,,,,,,1b-5[8:1]*s5[8:1],,,1b,,,,,,,
1bs5[8:1]/8bz4[8:1],,,1b>8[1:1]/8b<1[1:1],,,,,,,,,{1},
{32}1b/8b,2b/7b,3b/6b,
{1}4b/5b,,,,,,,,,,,,,,E


Re:MASTER


名前:
コメント:

タグ:

+ タグ編集
  • タグ:

このサイトはreCAPTCHAによって保護されており、Googleの プライバシーポリシー利用規約 が適用されます。

最終更新:2021年05月05日 15:43