Oshama Scramble! (Cranky Remix)

BPM EASY BASIC ADVANCED EXPERT MASTER
190 - - - 11 12

EASY


BASIC


ADVANCED


EXPERT

(190){8}
1,,2,2h[8:11],,3,,4,,5,,6,6,,7,,
8,,7,7h[8:11],,6,,5,,4,,3,3,,2,,
18,,45,,2,1,2,,18,,45,,7,8,7,,
18,,45,,18,18,18,18,1v7[4:1]/8v2[4:1],,,,,,2b/7b,,

2h[8:1]/8h[8:1],,4h[8:1]/5h[8:1],,1h[8:1]/7h[8:1],,4h[8:1]/5h[8:1],,
2h[8:1]/8h[8:1],,4h[8:1]/5h[8:1],,1b/7b,8,1b/7b,,
2h[8:1]/8h[8:1],,3h[8:1]/4h[8:1],,1h[8:1]/7h[8:1],,5h[8:1]/6h[8:1],,
2h[8:1]/8h[8:1],,3h[8:1]/4h[8:1],,1b/7b,8,1b/7b,,
1h[8:1]/3h[8:1],,5h[8:1]/6h[8:1],,2h[8:1]/3h[8:1],,7h[8:1]/8h[8:1],,
2h[8:1]/3h[8:1],,5h[8:1]/6h[8:1],,1b/3b,2,1b/3b,,
6h[8:1]/8h[8:1],,3h[8:1]/4h[8:1],,6h[8:1]/7h[8:1],,1h[8:1]/2h[8:1],,
6h[8:1]/7h[8:1],,3h[8:1]/4h[8:1],,6h[8:1]/8h[8:1],,3b/4b,,

5,4,3h[4:5],,,4,,5,,6,6-2[8:1],,,,3,4,
5,,6,5,4,,3,4,5,6,5,4,3b,,6,7,
8,1,2h[4:5],,,1,,8,,7,7-3[8:1],,,,,,
2,1,8,7,,8,1,2h[4:1],,1h[4:1],,8h[4:1],,7b,,,

{2}7-4[8:1],8-3[8:1],6-1[8:1],5-2[8:1],
{16}6h[16:3],,,5,7,,,,3h[16:3],,,4,2,,,,{8}7,8,1,2,36,,1b/8b,,
{2}2-5[8:1],1-6[8:1],3-8[8:1],4-7[8:1],
{8}8,8,7,7,1,1,8,8,2,2,7,7,{16}1,8,1,8,1,8,1,8,
{4}1,,,2b/7b,

4-1[8:1],5-8[8:1],4-2[8:1],5-7[8:1],4-1[8:1],5-8[8:1],{8}1b,1b,8b,8b,
{4}3-8[8:1],4-7[8:1],3-1[8:1],4-6[8:1],3-8[8:1],4-7[8:1],{8}8b,8b,7b,7b,
{4}4-1[8:1],5-8[8:1],4-2[8:1],5-7[8:1],4-1[8:1],5-8[8:1],{8}1b,1b,8b,8b,
{4}5-2[8:1],6-1[8:1],5-3[8:1],6-8[8:1],5p2[2:1],,,1b,
4-2[8:1],5-1[8:1],4-8[8:1],5-7[8:1],4-2[8:1],5-1[8:1],{8}2b,2b,1b,1b,
{4}3-1[8:1],4-8[8:1],3-7[8:1],4-6[8:1],3-1[8:1],4-8[8:1],{8}1b,1b,8b,8b,
{4}4-8[8:1],5-7[8:1],4-2[8:1],5-1[8:1],4-8[8:1],5-7[8:2],{8}8b,8b,7b,7b,
{4}5-1[8:1],6-8[8:1],5-3[8:1],6-2[8:1],5p4[2:1],,,,

{8}5h[4:1],,4,4,5h[4:1],,4h[4:1],,{1}3p8[2:1],
{8}1h[4:1],,8,8,1h[4:1],,8h[4:1],,{1}7p4[2:1],
{8}5h[4:1],,4,4,5h[4:1],,4h[4:1],,3-8[4:1],,,,1-6[4:1],,,,
{1}7p5[2:1],{4}4h[2:1]/5h[2:1],,,2b/7b,

2-4[8:1],8-6[8:1],1-5[8:1],8b,{8}6,5,4,5,{4}6,1b/8b,
7-5[8:1],1-3[8:1],8-4[8:1],1b,{8}3,4,5,4,{4}3,1b/8b,
2-4[8:1],8-6[8:1],1-5[8:1],8b,7-5[8:1],1-3[8:1],8-4[8:1],1b,
2-4[8:1],1b,7-5[8:1],8b,{8}3,4,5,4,{4}3,1b/8b,

2-5[8:1],1-6[8:1],3-8[8:1],4b,{8}7,8,1,8,{4}7,4b/5b,
7-4[8:1],8-3[8:1],6-1[8:1],5b,{8}2,1,8,1,{4}2,4b/5b,
{8}4,3,2b,,5,6,7b,,3,2,1b,,6,7,8b,,
3b,3,6b,6,2b,2,7b,7,1b,1,8b,8,{16}1b,8,1b,8,1b,8,1b,8,
{1}1b,{4}1h[2:1]/8h[2:1],,,2b/7b,

2-5[8:1],1-6[8:1],3-8[8:1],4-7[8:1],2-5[8:1],1-6[8:1],3,4b,
{16}2h[16:3],,,1,3,,,,7h[16:3],,,8,6,,,,{8}2,1,8,7,{4}36,1b/8b,
7-4[8:1],8-3[8:1],6-1[8:1],5-2[8:1],7-4[8:1],8-3[8:1],6,5b,
{16}7h[16:3],,,8,6,,,,2h[16:3],,,1,3,,{8}3b,,7b/8b,,4b/5b,,1b/2b,{4},
2-5[8:1],1-6[8:1],3-8[8:1],4-7[8:1],5-2[8:1],6-1[8:1],8-3[8:1],7b,
{16}6h[16:3],,,5,7,,7,,3h[16:3],,,4,2,,2,,{8}6,8,1,3,{4}45,2b/7b,
7-4[8:1],8-3[8:1],6-1[8:1],5-2[8:1],4-7[8:1],3-8[8:1],1-6[8:1],2b,
2-5[8:1],8-3[8:1],6-1[8:1],4-7[8:1],2-5[8:1],8-3[8:1],6-1[8:1],4h[1:4],
{1},,,{4},,,3b,

MASTER

(190){8}
1,{16},2,{8}2,{4}3,4,5,{8}1,2,3,4,5,6,7,
8,{16},7,{8}7,{4}6,5,4,{8}8,7,6,5,4,3,2,
18,{16}2,1,{8}2,3,{16}4,5,4,5,{8}4,7,
18,{16}7,8,{8}7,6,{16}5,4,5,4,{8}5,2,
{16}1,8,1,8,1,8,1,8,{32}1,2,3,4,5,6,7,8,1,2,3,4,5,6,7,8,
{4}5/1-5[8:1],1/8-4[8:1],{16}18,2,{8}3,2b/7b,,

45,{16}3,4,{8}3,35,3,36,3,37,
{16}1,8,1,8,{8}1,27,3,17,6,28,
45,{16}6,5,{8}6,64,6,63,6,62,
{16}8,1,8,1,{8}8,27,34,78,56,12,
45,{16}3,4,{8}3,35,3,36,3,37,
{16}4,5,4,5,{8}4,36,4,28,5,17,
4,{16}7,8,{8}7,16,5,{16}2,1,{8}2,38,
{16}4,5,3,6,{24}2,3,4,5,6,7,{8}18,27,36,4b/5b,

3,2,1,,,8,,1,
,8,8,,,,3,2,
3,,6,7,6,,3,6,
4,5,2,7,1,,5,6,
7,8,1,1,,8,,1,
,3,4,5,6,,4,3,
2,1,8,8,,6,5,4,
,3,,4,,5,6,7,

{16}18,,3,4,3,,6,5,6,,2,4,3,,7,5,
6,,1,4,3,,8,5,6,,1,8,1,,27,,
27,,3,4,3,,25,,1,,6,5,6,,47,,
{24}8,,,1b,2,3,4,,,8b,1,2,3,,,1b,8,7,6,,,8b,7,6,
{16}5,,2,1,2,,7,8,7,,45,,,,37,,
26,,1,8,1,,26,,37,,,56,,,34,,
45,,3,4,3,,25,,25,,6,5,6,,47,,
47,,36,,25,,25,,{32}1b,8,7,6,5,,,,8b,1,2,3,4,,,,
{4}2b/7b,,4^1[8:1]/5^8[8:1],4b/5b,

7/2-4[8:1],2/1-5[8:1],1/8-4[8:1],8/7-5[8:1],
7/8-4[8:1],8/1-5[8:1],{8}17,6,5,7,
{4}1-5[8:1]/8-6[8:1],1-3[8:1]/8-4[8:1],1-5[8:1]/8-6[8:1],1-3[8:1]/8-4[8:1],
18,{8}25,25,6,28,3,17,
{4}2/7-5[8:1],7/8-4[8:1],8/1-5[8:1],1/2-4[8:1],
2/1-5[8:1],1/8-4[8:1],{8}82,3,4,2,
{4}1-4[8:1]/8-5[8:1],1^6[8:1]/8^3[8:1],1-5[8:1]/8-4[8:1],18,
27,{8}38,16,{4}4^1[8:1]/5^8[8:1],4b/5b,

7/2-6[8:1],2/1-5[8:1],1/8-4[8:1],8/7-3[8:1],
7/8-4[8:1],8/1-5[8:1],{8}17,6,5,7,
{4}1-3[8:1]/8-4[8:1],1-5[8:1]/8-6[8:1],1-3[8:1]/8-4[8:1],1-5[8:1]/8-6[8:1],
18,{8}47,47,3,17,6,28,
{4}2/7-3[8:1],7/8-4[8:1],8/1-5[8:1],1/2-6[8:1],
2/1-5[8:1],1/8-4[8:1],{8}82,3,4,2,
{16}1,8,2,7,{24}3,4,5,6,7,8,{32}1,2,3,4,5,6,7,8,{48}1,2,3,4,5,6,7,8,1,2,3,4,
{4}5b,{12}1,4,3,8,5,6,{4}2b/7b,

{8}2,,3,4,3,,5,,
6,,7,{16}7,6,{8}5b,,4b,,
7,,6,5,6,,4,,
3,,2,{16}2,3,{8}4b,,5b,,
2,,4,5,4,,6,,
3,,27,{16}4,5,{8}36,,1b/8b,,
2,4,5,7,{16}1b,2,3,4,{24}1b,8,7,6,5,4,
{8}1,2,3,4,8,7,6,5,

34,{16}2,1,{8}2,3/8-3[8:1],,8/1-6[8:1],,16,
7,{16}3,4,{8}3,25,47,,1b/8b,,
56,{16}7,8,{8}7,6/1-6[8:1],,1/8-3[8:1],,83,
2,{16}6,5,6,5,6,5,{8}6,47,{16}8b,8b,8b,8b,
8b,,{16}3,4,{8}3,5/2-5[8:1],,2/7-4[8:1],,74,
1,{16}6,5,{8}6,47,{16}3,4,{8}3,25,36,
47,{16}6,5,{8}6,4/7-4[8:1],,7/2-5[8:1],,25,
8,{16}3,4,3,4,3,4,{8}3-7[8:1],2,1b,,

46,{16}2,1,{8}2,28,2,27,2,2/6b,
35,{16}7,8,{8}7,71,7,72,7,7/3b,
46,{16}2,1,{8}2,38,4,{16}7,8,{8}7,1b/6b,
5,{16}1,8,{8}1,27,56,34,12,3b/8b,
1,{16}6,5,{8}6,4b/7b,8,{16}3,4,{8}3,2b/5b,
6,{16}2,1,{8}2,3b/8b,4,{16}7,8,{8}7,1b/6b,
2,1b/3b,6,5b/7b,3,2b/4b,7,6b/8b,
{16}1,8,2,7,{24}3,4,5,6,7,8,{32}1,2,3,4,5,6,7,8,{48}1,2,3,4,5,6,7,8,1,2,3,4,

{4}5<4[4:5],,,,
5^8[4:1],,,2b/6b,

{16}37,,2,1,2,,7,8,7,,2,1,3,,7,8,
6,,4,5,4,,{24}7b,8,1,{8}2,,34,56,
78,{24}1b,2,3,{8}4,56,47,{24}8b,7,6,{8}5,34,
25,{24}1b,2,3,{8}4,56,4-1[8:1]/5-8[8:1],,4b/5b,,
{16}18,,2,4,3,,7,5,6,,1,4,3,,8,5,
{8}6,34,12,78,1b/6b,,38,{16}4,5,
{8}4,78,12,3b/8b,,{16}5,4,{8}5,2b/7b,
,{32}1b,8,7,6,{8}5,{32}8b,1,2,3,{8}4,{32}1b,8,7,6,{8}5,,

{16}2b/6b,,7,8,7,,2,1,2,,7,8,6,,2,1,
3,,5,4,5,,{24}2b,1,8,{8}7,,56,34,
12,{24}8b,7,6,{8}5,34,25,{24}1b,2,3,{8}4,56,
47,{24}1b/8b,27,36,{8}45,36,1-4[8:1]/8-5[8:1],,1b/8b,,
34,{32}2b,1,8,7,{8}6,45,56,{32}7b,8,1,2,{8}3,45,
2b/4b,5b/7b,1b/3b,6b/8b,2b/7b,,36,27,
{16}1,8,2,7,1,8,2,7,{32}1,2,3,4,5,6,7,8,1,2,3,4,5,6,7,8,
1b,2,3,4,{8}5,{32}8b,7,6,5,{8}4,
{32}1b,2,3,4,5,6,7,8,{48}1,2,3,4,5,6,7,8,1,2,3,4,
{1}5<4[4:13],,,{4},,,8b,

  • エキスパくれると嬉しいです -- 名無しさん (2015-07-14 22:07:08)
  • ↑お待たせしました -- 名無しさん (2015-08-03 20:11:56)
  • MASTER5連BREAKからずれてる気がするんだけどどうだろう? -- 名無しさん (2015-10-02 19:50:32)
  • 5連BREAKからのズレを修正しました。これで完璧? -- 名無しさん (2015-10-03 02:23:27)
  • EXPERT譜面にスライドの間違いがありましたので修正しました。 -- 名無しさん (2015-10-30 16:42:37)
名前:
コメント:

タグ:

+ タグ編集
  • タグ:

このサイトはreCAPTCHAによって保護されており、Googleの プライバシーポリシー利用規約 が適用されます。

最終更新:2018年12月18日 10:25