Fragrance

BPM EASY BASIC ADVANCED EXPERT MASTER Re:MASTER
180 4 5 8 12 14 14

EXPERT MASTER Re:MASTER
譜面制作者 ニャイン チャン@DP皆伝 玉子豆腐

EASY

(180){1}
3,,
2,,
1,,
8,,
18,,
27,,
36,,
45,,

{4}
3,,3,,
2,,2,,
1,,1,,
8,8,8,,
7,,7,,
8,,8,,
1,,1,,
2,2,2,,
3,,3,,
4,,4,,
5,,5,,
6,6,6,,
7,,6,,
5,,4,,
3,,2,,
1,1,8,,

{1}
1-5[1:1],,
8-4[1:1],,
2-6[1:1],,
7-3[1:1],,
{4}
2h[2:1],,,,
1,,1,,
8h[2:1],,,,
7,7,7,,
6h[2:1],,,,
5,,5,,
4h[2:1],,,,
3,3,3,,

2,,1b,,
8,8,8,,
7,,7,,
6,6,6,,
5,,5,,
6,6,6,,
7,,7,,
7,7,7,
7-3[1:1],
{1},,E

BASIC

(180)
{1},,,,,,,,
1,8,7,6,
8,1,2,3b,

{4}
,2,,2,
,8,,8,
,6,,6,
,5,,5,
,7,,7,
,1,,1,
,3,,3,
,4,,4,

{8}
2h[2:1],,,,,,,,
,,8,8,,7,,,
6h[2:1],,,,,,,,
,,5,5,,4,,,
5h[2:1],,,,,,,,
,,6,6,,7,,,
8h[2:1],,,,,,,,
,,1,1,,2,,,

3-7[4:1],,,,,,,,
,,7,,,7,,,
8-5[4:1],,,,,,,,
,,5,,,5,,,
4-1[4:1],,,,,,,,
,,1,,,1,,,
2-7[4:1],,,,,,,,
,,7,,,7,,,

{4}
,6,,6,
,5,,5,
,7,,7,
,8,,8,
,2,,2,
,3,,3,
,1,,1,
,8,,8b,
7-2[4:1],,,,,

{8}
,2,2,,3,,,
1h[4:1],,,,,,,,
,8,8,,7,,,
8h[4:1],,,,,,,,
,1,1,,2,,,
3h[4:1],,,,,,,,
,1,1,,8,,,
7-3[2:1],,,,
{1},,E

ADVANCED

(180)
{1},,,{8}
,2,2,,1,1b,,,
{1},,,,{8}
8h[8:3],,,7,,7,,,
8h[8:3],,,1,,1,,,
2h[8:3],,,3,,3,,,
2^7[4:1],,,,,,,,
6h[8:3],,,5,,5,,,
6h[8:3],,,7,,7,,,
8h[8:3],,,1,,1,,,
3-8[4:1],,,,,,,,

8h[8:3],,,7,,7,,,
,,1,1,,2,,3,
3h[8:3],,,4,,4,,,
,,2,2,,1,,,
8h[8:3],,,7,,7,,,
,,8,8,,1,,2,
2h[8:3],,,3,,3,,,
,,2,2,,1,,,

8h[4:1],,7,
7h[4:1],,6,
,6,,,8,8,,1,,2,
2h[4:1],,3,
3h[4:1],,4,
,4,,,2,2,,1,,8,
8h[4:1],,7,
7h[4:1],,6,
,6,,,1,1,,2,,3,
3h[4:1],,4,
4h[4:1],,5,
,5,,,3,3,,2b,,,

{4}
1h[4:1],8,7,6,,,,,
1h[4:1],2,3,4,,,,,
5h[4:1],4,3,2,,,,,
5h[4:1],6,7,8,,,,,
1-5[8:1],,8,7,
{8}
6h[8:3],,,
5h[8:3],,,
4,4h[8:15],,,
{4}
,,,,,,,
4-8[8:1],,1,2,
{8}
3h[8:3],,,
4h[8:3],,,
5,5h[8:7],,,,,,,
6,6h[8:7],,,,,,,

{4},
4h[4:1]/8-4[8:1],,1,2,
{8}
3h[8:3],,,
4h[8:3],,,
5,5h[8:15],,,
{4}
,,,,,,,
{8}
6-1[8:1],,,
2h[8:3],,,
3,3h[8:7],,,,,,,
2,2h[4:3],,,,,,
1,1,8h[8:5],,,,,
6-2[8:1],,
{1},,E

EXPERT

(180){1},,,{8}
,8,8,,7,6-1[4:1],,,
{1},,,{8}
,,2,3,4,3,2,1,
8h[8:7],,,7,,7,,6,
6h[8:7],,,5,,5,,4,
4h[8:7],,,3,,3,,2,
,1,1,,8,8,,,
1h[8:7],,,2,,2,,3,
3h[8:7],,,4,,4,,5,
5h[8:7],,,6,,6,,7,
,8,7,8,1,2,1,8b,

7h[4:1],,6,7h[4:1],,8,,1,
,2,3,2,,1,,8,
8h[4:1],,7,7h[4:1],,6,,7,
,8,1,2,,3,,2,
2h[4:1],,1,2h[4:1],,3,,4,
,5,6,5,,4,,3,
3h[4:1],,2,2h[4:1],,1,,8,
,7,6,7,,8,,,

1,2,3,1,8,7,6,5h[4:1],
,4,3,2,3,4,5,6h[4:1],
,7,8,1h[4:1],,8,6,4h[4:1],
,{16}5,6,{8}7,7h[8:1],6,5,4,3,
1,2,3,1,8,7,6,5h[4:1],
,4,3,2,3,4,5,6h[4:1],
,7,8,1h[4:1],,8,6,4h[4:1],
,{16}5,6,{8}7,7h[8:1],6,4,2,8,

7h[4:1],6,5,6h[4:1],,7,,8h[4:1],
,1,2,1,8,7,6,5,
4h[4:1],3,2,3h[4:1],,4,,5h[4:1],
,6,7,6,5,4,3,2,
1h[4:1],8,7,8h[4:1],,1,,1h[4:1],
,2,3,2,1,8,7,6,
5h[4:1],4,3,5h[4:1],,6,,7-4[8:1],
,1,1,2/3-8[8:1],,1,1b,,

7^4[8:1],,,,5,,3,,
1h[8:3],,,8h[8:3],,,7,7,
8,{16}1,2,{8}1,8h[4:1],,7,,6-1[8:1],
,,2,{16}2,3,{8}4,6,4,2,
2^5[8:1],,,,7,,1,,
3h[8:3],,,5h[8:3],,,7,7,
5,{16}4,3,2,,5h[8:1],,6,7,{8}8,8,7h[4:1],
,6,4,{16}2,3,{8}4,6,8,1,

8^3[8:1],,,,1,,7,,
5h[8:3],,,3h[8:3],,,1,1,
3,{16}4,5,{8}4,3h[2:1],,2,,8-4[8:1],
,,1,2-6[8:1],2,1,8,7,
6-2[8:1],,,1,,,7,7h[8:3],
,,6,4h[4:1],,{16}5,6,{8}7,7h[4:1],
,6,4,2h[4:1],,3,5,7h[4:1],
,8,1,2,1,8,8-3[2:1]/7-4[2:1],,
{1},,,,,
E

MASTER

(180){8}
3,2,1,,3,4,,6,
5,,7,8,,2,3,4,
6,7,8,,6,5,,3,
4,7,82,1,7,82,3,4,
3,2,1,,3,4,,6,
5,,7,8,,2,3,4,
6,7,8,,61,5,,38,
4,7,82,18,7,82,37,48,

{16}
18,,7,,2,,8,1,,1,8,,2,,8,,
3,,7,,4,,6,3,,3,6,,4,,6,,
3,,4,,3,,6,3,,3,7,,2,,8,,
1,,6,,3,,6,2,,2,6,,4,,6,,
3,,6,,2,,8,1,8,1,8,,3,,1,,
4,,6,,3,,5,2,,2,6,,1,,7,,
2,,6,,8,,6,1,6,1,6,,5,,3,,
4,,3,,6,,2,5,,5,1,,7,8,1,2,

3/8b,,7,,2,,6,1,,1,5,,8,,4,,
1,,6,,2,,5,1,6,1,5,,1,5,1,7,
18,,6,,3,,6,2,,2,7,,8,,6,,
1,,5,,2,,5,3,4,3,5,,4,5,6,7,
68,,2,,8,,2,7,,7,3,,6,,4,,
6,,2,,7,,1,8,2,7,3,,5,4,6,4,
53,,7,,2,,6,8,,8,5,,2,,8,,
3,,6,,4,,5,4,6,3,7,,2,3,4,5,

67,,5,,7,,6,5,6,5,6,,5,,3,,
1,,3,,5,,4,6,4,6,4,,3,5,3,5,
36,,7,,1,,6,5,6,5,6,,5,,7,,
4,,1,,3,,4,5,4,5,4,,7,8,1,2,
13,,5,,7,,6,5,6,5,4,,5,,3,,
1,,3,,5,,6,5,6,5,4,,3,5,3,5,
36,,7,,1,,6,5,6,5,4,,5,,7,,
4,,1,,3,,4,5,4,5,6,,6,7,8,1,

2,1,2,1,2,,7,8,7,8,7,,1,8,1,,
6,5,6,5,6,,3,4,3,4,3,,5,4,5,,
4,5,4,5,4,,5,4,5,4,5,,3,6,3,,
7,2,7,2,7,,2,7,2,7,2,,8,1,8,,
2,1,2,1,2,,7,8,7,8,7,,1,8,1,8,
3,4,3,4,3,,6,5,6,5,6,,4,5,4,5,
3,6,3,6,3,,7,2,7,2,7,,1,8,1,8,
3,4,3,2,3,,5,4,5,6,5,,6,7,8,1,

28,7,3,,6,,4,5,3,,8,,2,7,3,8,
2,7,2,,8,,1,7,8,,3,,7,2,6,3,
54,6,4,,7,,4,5,3,,7,,5,6,4,7,
3,5,4,,7,,5,6,3,,7,,6,7,8,1,
27,8,1,,8,,2,7,3,,6,,5,4,6,5,
7,5,6,,1,,8,1,7,,2,,6,3,5,4,
53,6,4,,7,,1,8,2,,6,,1,8,1,6,
1,4,2,,6,,3,,5,4,5,,4,5,6,7,

8,1,8,1,8,,72,27,18,,,,8b,,,,
2,7,1,,8,2,8,2,7,3,7,,4,5,3,6,
7,4,8,,2,1,2,1,3,4,3,,6,5,7,4,
6,5,6,,4,5,4,5,3,6,3,,6,3,7,2,
8,1,8,1,7,2,7,2,6,3,6,3,5,4,5,4,
6,3,7,2,8,1,7,2,8,1,7,2,8,1,7,2,
6,3,5,4,5,3,6,2,5,1,6,2,7,3,8,4,
7,3,6,2,5,1,4,8,37,48,51,62,3/7-3[1:2],84,15,26,

{1}
,
{4}
,,,2-6[1:2],
{1}
,
,
,
,
E


Re:MASTER

(180){8}
6pp1[4:1],5,4,,5^2[8:1],6,,5^8[8:1],4,,5p1[8:1],6,,5q1[8:1],4,,
3qq8[4:1],4,5,,4^7[8:1],3,,4^1[8:1],6,5,4q8[8:1],2,3,4p8[8:1],,,
6pp1[4:1],5,4,,5^2[8:1],6,,5^8[8:1],4,,5p1[8:1],6,,5q1[8:1],4,,
3qq8[4:1],4,5,,4^7[8:1],2,,4^1[8:1],6,
5-7[8:1],5-3[8:1],5-8[8:1],5-2[8:1],5-1[8:1],5,5,

2-4[8:1],1-5[8:1],2<5[4:1],1,2,,,,
7-5[8:1],8-4[8:1],7>4[8:1],8,7,,,,
2-4[8:1],1-5[8:1],2<5[4:1],1,2,,7-4[8:1],8-2[8:1],
7-3[8:1],8-4[8:1],7-5[8:1],8>4[8:1],7,8,,,
8-4[8:1],2-4[8:1],8<4[8:1],2,8,,,,
1-5[8:1],7-5[8:1],1>5[8:1],7,1,,,,
8-4[8:1],2-4[8:1],8<4[8:1],2,8,,2-5[8:1],1-7[8:1],
2-6[8:1],1-5[8:1],2-4[8:1],1-6[8:1],2-5[8:1],1-7[8:1],2,1,

2b^7[8:1],,2,4p8[4:1],,8p4[4:1],,4-2[8:1]*-7[8:1],,,,1-4[8:1],6-2[8:1],1-5[8:1],6,1,
7^2[8:1],,7,5q1[4:1],,1q5[4:1],,5-2[8:1]*-7[8:1],,,,8-5[8:1],3-7[8:1],8-4[8:1],3,8,
3^6[8:1],,3,1q5[4:1],,5q1[4:1],,1-3[8:1]*-6[8:1],,,,2-6[8:1],7-3[8:1],2-5[8:1],7,2,
6^3[8:1],,6,8p4[4:1],,4p8[4:1],,8-3[8:1]*-6[8:1],,,,7-3[8:1],2-6[8:1],7-4[8:1],2,7,
2^7[8:1],,2,4p8[4:1],,8p4[4:1],,4-7[8:1],,1-3[8:1],,1-7[8:1]/6-2[8:1],,1/6,,8,
7^2[8:1],,7,5q1[4:1],,1q5[4:1],,5-2[8:1],,8-6[8:1],,3-7[8:1]/8-2[8:1],,3/8,,,
6^3[8:1],,6,8p4[4:1],,4p8[4:1],,8-3[8:1],,5-7[8:1],,2-6[8:1]/5-3[8:1],,2/5,,2,
3^6[8:1],,3,1q5[4:1],,5q1[4:1],,1-6[8:1],,4-2[8:1],,4-6[8:1]/7-3[8:1],,4/7,,,

{4}
1-7[8:1],1-5[8:1]*-6[8:1]/3,1-3[8:1],1-4[8:1]*-5[8:1]/7,1-7[8:1],1>5[8:1]*<5[8:1]/3,1,3/7,
8-2[8:1],8-3[8:1]*-4[8:1]/6,8-6[8:1],8-4[8:1]*-5[8:1]/2,8-2[8:1],8>4[8:1]*<4[8:1]/6,8,2/6,
1-3[8:1]*-4[8:1],1-5[8:1],1-6[8:1]*-7[8:1]/2,1-5[8:1],1-3[8:1]*-4[8:1]/8,1w5[8:1],1,3/7,
8-5[8:1]*-6[8:1],8-4[8:1],8-2[8:1]*-3[8:1]/7,8-4[8:1],8-5[8:1]*-6[8:1]/1,8w4[8:1],8,{16}1/5,2/6,3/7,4/8,

{8}1-3[8:1]/5,3,1-6[8:1]/5,7,1-4[8:1]/5,3,1-7[8:1]/5,7,1-3[8:1]/5,3,1-5[8:1]/5,7,1/5,,{16}5,6,7,8,
{8}1-3[8:1]/5,3,1-6[8:1]/5,7,1-4[8:1]/5,3,1-7[8:1]/5,7,1-5[8:1]/5,3,1/5,7,{2}3^8[8:1]/7^4[8:1],
{8}8-6[8:1]/4,6,8-3[8:1]/4,2,8-5[8:1]/4,6,8-2[8:1]/4,2,8-6[8:1]/4,6,8-4[8:1]/4,2,4/8,,{16}4,3,2,1,
{8}8-6[8:1]/4,6,8-3[8:1]/4,2,8-5[8:1]/4,6,8-2[8:1]/4,2,8-6[8:1]/4,6,8-4[8:1]/4,2,4/8,,{16}3/7,8,1,2,
3h[1024:1]/7h[1024:1],4h[1024:1]/8h[1024:1],1h[1024:1]/5h[1024:1],2h[1024:1]/6h[1024:1],
3h[1024:1]/7-3[8:1],4h[1024:1]/8h[1024:1],1h[1024:1]/5h[1024:1],2h[1024:1]/6h[1024:1],
{8}3h[1024:1]/7h[1024:1],,8b,,

8-3[8:1]/2,1,6/8,7,{16}8q4[8:1]/4,3/7,2/6,1/5,{8}4/8,,
1-6[8:1]/7,8,1/3,2,{16}1p5[8:1]/5,2/6,3/7,4/8,{8}1/5,,
8-3[8:1]/2,1,6/8,7,{16}8q4[8:1]/4,3/7,2/6,1/5,4/8,,,,
7,8,5,1,6,2,7,3,4q8[8:1]/8q4[8:1],3/7,2/6,1/5,4/8,,,,
2,1,4,8,3,7,2,6,1p5[8:1]/5p1[8:1],2/6,3/7,4/8,1/5,,,,
3,6,4,5,2,7,4,8,3,7,2,6,1,5,8,4,
7>6[16:7]/3,8>7[16:7]/4,1>8[16:7]/5,2>1[16:7]/6,3<2[16:7]/7,,,,
7,8,1,2,3,4,5,6,{4}3h[4:15]/7h[4:7],,,{1},,,7b,,,,,,,E



  • 終盤のTAPのリズム及び位置が間違っていたのを修正しました。 -- 管理人 (2013-03-24 08:16:45)
  • Re:MASTER追加しました。修正箇所等あれば修正おねがいします。 --Sea (2018-07-24 20:38:00)
  • レベルとノーツデザイナー忘れてました。 --Sea (2018-07-25 07:58:30)
  • Re:MASTERは玉子豆腐さんが作ったものですね。 -- 嵐雅 (2021-05-09 19:50:54)
名前:
コメント:

タグ:

+ タグ編集
  • タグ:

このサイトはreCAPTCHAによって保護されており、Googleの プライバシーポリシー利用規約 が適用されます。

最終更新:2023年03月26日 16:25