Scarlet Lance

BPM EASY BASIC ADVANCED EXPERT MASTER Re:MASTER
185 3 6 8 12 14 -

EXPERT MASTER Re:MASTER
譜面制作者 LabiLabi サファ太 -

EASY


BASIC


ADVANCED


EXPERT


MASTER

(185)
{2}2/6h[2:1],
{6}2h[6:1],4h[6:1],3,7h[6:1],5h[6:1],6,2h[6:1],4h[6:1],3,
{8}3-8[8:1],,6,6-3[8:1],,1,1-6[8:1],,4,4-7[8:1],,1,1-4[8:1],,8,,
75,7,64,6,24,2,35,3,{16}4,5,2,7,3,6,1,8,1-5[8:1],8,1,8,1,,,,

7b/4b,,6,5,,5,7,,25,,3,4,,4,2,,
74,,6,5,,5,7,,18,,2,,35,,3,,
74,,6,5,6,,74,,8,,8,3,,3,1,,
25,,3,4,3,,25,,1,,1,6,,6,8,,
74,,6,5,6,,74,,8-4[8:1],,2-5[8:1],,,,,,
6,,6,,25,,3,4,,6,5,,74,,,,
25,,3,4,,4,2,,74,,6,5,,5,7,,
25,,3,4,,4,2,,18,,7,,64,,6,,
25,,3,4,3,,25,,1,,6,5,,3,4,,
25,,7,8,7,,26,,8^5[8:1]/4^1[8:1],,,,,,,,
2b/6b,,,,1,8,1,,{6}2/7h[3:1],8,6,7/5h[3:1],6,4,{16}3,,3,1,,1,2,,
8b/3b,,,,8,1,8,,{6}7/2h[3:1],1,3,2/4h[3:1],3,5,{16}6,,6,8,,8,7,,
1b/6b,,,,5,4,5,,{6}6/3h[3:1],4,2,3/1h[3:1],2,8,{16}7,,7,5,,5,6,,
7b/4b,,,,3,4,3,,{6}2/5h[3:1],4,6,{4}7b<1[2:1]/4h[4:3],,,,
{6}3h[6:1],5h[6:1],2,{12}2,4,2,7,5,7,{16}4,5,4,5,3,6,3,6,2,7,1,8,27,,,,

{8}45,,2-4[8:1]/4,2/4-1[8:1]*-7[8:1],,,,,8/6-8[8:1],8-5[8:1]*-3[8:1]/6,,,,4,,26,
26,,8-4[8:1]/4,8-2[8:1]/4-6[8:1],,,,,2/6h[4:1],,2,8/4h[4:1],,8,2b/6b,,
{16}2-4[8:1],5,2,5,2,,6,6,,2,1,,38,,,,
2-5[8:1],6,2,6,2,,7,7,,3,4,,25,,,,
6-8[8:1],1,6,1,6,,2,2,,6,5,,47,,,,
6-1[8:1],2,6,2,6,,3,3,,7,8,,61,,2,,
{8}3b/8b,,1/3V14[4:1],1-6[8:1]/3,,,,,7V58[4:1]/5,7/5-2[8:1],,,,1,,37,
37,,1/5-1[8:1],1-7[8:1]/5-3[8:1],,,,,7/3h[4:1],,7,1/5h[4:1],,1,3b/7b,,
{16}7-4[8:1],3,7,3,7,,2,2,,7,8,,6,5,6,,
3-8[8:1],7,3,7,3,,6,6,,3,4,,2,1,2,,
7^4[8:1],8,7,8,7,,2,2,,7,8,,3,4,25,,
6-1[8:1],5,6,5,6,,3,3,,6,5,,74,,6,,
{4}5w1[2:1]/3,,,,{24}1,8,1,8,1,8,1,8,1,8,1,8,{4}1-5[8:1],8b,

{8}7,7h[4:1],,5,5h[4:1],,3,3h[4:1],,1,1h[4:1],,8,,27,,
{12}1b/5,2,3,47,5,6,72,8,1,25,3,4,
5/8b,7,6,52,4,3,27,1,8,74,6,5,
{8}4/2^5[8:1],,2,8-4[8:1],,8,2,3,4/7^4[8:1],,7,1-5[8:1],,1,7,6,
5/2^5[8:1],,2,8-4[8:1],,8,1,2,{16}3h[8:3]/5,,,2,,,8,,6h[8:3]/4,,,7,,,1,,

{8}2b/5h[24:19],,,{24}3,4,,{8},,{24}3,4h[24:26],,{8},,{24}6,5,,{8},,{24}6,5,,{8},,5,
7b/4h[24:19],,,{24}6,5,,{8},,{24}6,5h[24:26],,{8},,{24}3,4,,{8},,{24}3,4,,{8},,4,
3b/5h[2:3],,,4,4,,6,6,,2,2,,1-4[8:1]*-6[8:1],,,,
5h[2:1]/3,3,3,3,4,4,46,6,2h[2:1]/5,5,5,5,6,6,75,,
5h[2:1]/2,2,2,2,2,3,45,6,4h[2:1]/7,7,7,7,7,6,52,,
{16}2,6,2,6,3,7,3,7,4,8,4,8,5,1,5,1,
5,4,3,2,8,7,6,5,8-4[8:1],1,2,3,48,,,,

2b/5b,,3,4,,4,1,,74,,6,5,,5,8,,
25,,3,4,,4,1,,87,,6,,57,,3,,
25,,3,4,3,4,25,,2,,2^5[8:1],1,,1,2,,
8,,6,5,6,5,74,,7,,7^4[8:1],8,,8,7,,
2,,3,4,3,4,25,,1-5[8:1],,7-4[8:1],,1,,7,,
2,,2,,34,,6,5,,5,8,,17,,2,,
38,,2,1,,1,4,,16,,7,8,,8,5,,
83,,2,1,,1,4,,65,,7,,86,,2,,
38,,2,1,2,1,38,,3,,3^8[8:1],5,,5,3,,
6,,7,8,7-3[8:1],8,16,,7^2[8:1]*^4[8:1],,,,,,,,

1b/5b,,,,61,2,3,4,{6}5/8-5[8:1],1,2,3-8[8:1]/7,4,5,{16}25,,7,8,,2,1,,
{8}78,{24}7,6,5,{8}4,12,{24}2,3,4,{8}5,17,{24}7,6,5,{8}4,28,{24}2,3,4,{8}5,1-4[8:1]/7-4[8:1],,1b/7b,,
{16}26,,,,74,3,2,1,{6}8/5-8[8:1],4,3,2-5[8:1]/6,1,8,{16}83,,6,5,,3,4,,
{8}28,{24}6,5,4,{8}3,17,{24}3,4,5,{8}6,28,{24}6,5,4,{8}3,17,{24}3,4,5,{8}6,2-5[8:1]/8-5[8:1],,2b/8b,,
{16}37,,,,25,6,7,8,{6}1/4v1[8:1],5,6,7v4[8:1]/3,8,1,{16}16,,2,4,,7,5,,
{8}12,{24}12,3,4,{8}5,87,{24}87,6,5,{8}4,12,{24}12,38,47,{8}56,78,{24}78,61,52,{8}43,1z5[8:1]/2s6[8:1],,1b/2b,,
{16}47,,,,3,4,5,6,{6}2/7v2[8:1],6,5,4v7[8:1]/8,3,2,{16}1b/5b,,7,68,,3,24,,

6,5,6,5,6,5,7h[8:1],,3,4,3,4,3,4,2h[8:1],,
7,8,7,8,7,8,6h[2:1],,1b,,1b,,2b,,2b,,
3,4,3,6,5,6,3h[8:1],,7,5,7,2,4,2,7h[8:1],,
2,4,3,7,5,6,2h[2:1],,8b,,8b,,7b,,7b,,
8,5,6,1,4,3,7h[8:1],,1,4,2,8,5,7,3h[8:1],,
1,4,6,8,5,3,4h[8:1],,{32}1,8,7,6,5,4,3,2,1-5[8:1],8,7,6,5,4,3,2,
{4}1b>8[4:7],1h[2:3],,,,,,,1b,,,,E


Re:MASTER


名前:
コメント:

タグ:

+ タグ編集
  • タグ:

このサイトはreCAPTCHAによって保護されており、Googleの プライバシーポリシー利用規約 が適用されます。

最終更新:2021年08月20日 22:36