Schwarzschild

BPM EASY BASIC ADVANCED EXPERT MASTER Re:MASTER
188 4 6 8+ 11+ 13+ 14+

EXPERT MASTER Re:MASTER
譜面制作者 Jack "H"ack "H"ack underground

EASY

(188){1},,,,,,,,
{4},{2}4,4,4,4,5,5,5,5,4,4,5,5,4,4,5,{4}5,5,,,,
4,4,4,,3,3,3,,2,2,2,,1,1,1,,8,8,8,,7,7,7,,6,6,6,,4/5,,,,
5,5,5,,6,6,6,,7,7,7,,8,8,8,,1,1,1,,2,2,2,,3,3,3,,4/5,,6,,
7-2[4:3],,,,,,,,
1,1,1,,2,,2,,3,3,3,,4/5,,4/5,,6,6,6,,7,,7,,
{1}7h[1:1],,8h[1:1],,1h[1:1],,2h[1:1],,
{2}1,1,2,2,3,3,4,,5,5,6,6,7,7,8,8,1b,,,,,,
{4}
1,1,2,,3,3,4,,5,5,6,,7,7,1/8,,
8,8,7,,6,6,5,,4,4,3,,2,2,1b,,
1,1,2,2,3,3,4,,5,5,6,6,7,7,8,,
8,8,7,7,6,6,5,,4,4,3,3,2,2,1,,
1,1,2,2,3,3,4,4,5,5,6,6,7,7,8,,
8,8,7,7,6,6,5,5,4,4,3,3,2,2,1,1,
{1}1/8,2/7,3/6,4/5,4/5,3/6,2/7,1-5[4:3],,,,,,E


BASIC

(188){1},,,,6h[2:3],5h[2:1],3h[2:3],4h[2:1],
{4}
5,5,5,,6,6,6,,7,7,7,,8,8,8,,1,1,1,,2,2,2,,3,3,3,,4,4,4,,4/5,,,,
4,4,3,3,2,2,1,,8,8,7,7,6,6,5,,
5,5,6,6,7,7,8,,1,1,2,2,3,3,4,,
4,4,3/4,3/4,2,2,1/2,,8,8,7/8,7/8,6,6,5/6,,
5,5,5/6,5/6,7,7,7/8,,1,1,1/2,1/2,3,3,3b/4b,,
5-8[4:3],,,,,,,,7,7,8,8,1,1,2,2,
3h[2:3],,,,4h[2:1],,,,2,2,1,1,8,8,7,7,
{1}6h[2:3],,5h[2:3],,4h[2:3],,3h[2:3],,
4-1[4:3],,2-7[4:3],,8-5[4:3],,6-3[4:3],,
4h[1:1]/5h[1:2],,,
{4}
5,5,6,6,7,7,8,8,1,1,2,2,3,3,4/5,,
4,4,3,3,2,2,1,1,8,8,7,7,6,6,4/5,,
5,5,5/6,5/6,7,7,7/8,7/8,1,1,1/2,1/2,3,3,3/4,,
4,4,3/4,3/4,2,2,1/2,1/2,8,8,7/8,7/8,6,6,5/6,,
5,6,5/6,5/6,7,8,7/8,7/8,1,2,1/2,1/2,3,4,4/5,,
4,3,3/4,3/4,2,1,1/2,1/2,8,7,7/8,7/8,6,5,4b/5b,,
{1}3h[1:2],4h[1:2],,,6h[1:2],5h[1:2],,
{4},,4/5,{1}4/5,,,,,E


ADVANCED

(188){1}5<4[4:5],,4>5[4:5],,
{2}6h[2:3],5,4h[2:1],,3h[2:3],4,5h[2:1],{4},2/6,
6,5/6,,3/6,,5/6,5/6,,3,3/4,,3/6,,3/4,3/4,,
6h[2:3],5,,3,,5,5,,3h[4:7],4,,6,,4,4,4z8[4:3],,,,,
2,3/4,7,5/6,2,3/4,{8}5,5,{4}4/6,
7,5/6,2,3/4,7,5/6,{8}4,4,{4}3/5,
6,4/5,3/4,2,3/5,4/6,5/7,8,1,2/8,3/7,4/6,3/5,4/6,2/7,,
7,4/6,2,3/5,7,4/6,{8}2,2,{4}1/2,
2,3/5,7,4/6,2,3/5,{8}7,7,{4}7/8,
7,4/6,2,1/3,2/8,1/7,6/8,5/7,
4h[8:3],{8}5,5,,2/4,,1/8,,5/7,,4/5,4/5,,
{1}3^8[2:1],7^4[2:1],{4}2/4,
3h[4:3],4,4,4,6h[4:3],5,5,5>1[4:3],,,,,7/8,1/6,{2}2/5,
5h[4:1]/6h[4:1],2h[4:1]/3h[4:1],7h[4:1]/8h[4:1],1/6,
3h[2:1],4h[2:1],5h[1:1],6,6h[2:1],5h[2:1],4h[1:1],3,
2h[2:1],3h[2:1],4h[1:1],5,7h[2:1],6h[2:1],5h[2:1],4h[2:1],
{4}
5,4/6,,3/5,,4-2[4:1]/6-8[4:1],,,
1,2/8,,1/7,,2-4[4:1]/8-6[4:1],,,
5,2/4,,5/7,,2-8[4:1]/4-6[4:1],,,
7,6/8,,1/3,,2/6,3/5,4>6[4:9],,,,,,,,,,,8b-4[8:1],,
2,3/4,7,5/6,2/4,5/7,{8}8,8,{4}1/7,
7,5/6,2,3/4,5/7,2/4,{8}1,1,{4}2/8,
4,1/2,5,7/8,1/6,3/8,2/5,4/7,
5,2/8,4,1/7,{8}6,6,2,2,4,,1b,,
3/4,,2/4,,5/6,,5/7,,2,2,1/3,,7,7,6/8,,
5/7,,5/6,,2/4,,3/4,,7/8,7/8,7/8,,1/6,,,,
1/2,,1/3,,7/8,,6/8,,3,3,2/4,,6,6,5/7,,
7/8,,5/6,,3/4,,1/2,,7/8,7/8,1/6,,2h[4:1]/7h[4:1],,,,
8,,4/6,,3,3,2/4,,1,1,6,6,4,4,7,7,
7/8,,2/4,,6,5,4/7,,8,8,3,3,5,5,2,2,
1/2,,3/5,,7,8,1/6,,2,2,4,4,8,8,6,6,
5/7,7h[4:1]/5,,8,,2/4,,5/7,,2/3,,7/8,7/8,7/8,
{1}7q6[2:3]/8>5[2:3],,
{4},4/7,5/6,,3/4,,5/6,{8}4,4,4,4,
{4}4h[1:2],5,,6,,5,,6,6h[4:5],5,,3,,5,{8}4,4,5,5,
{1},,,,E


EXPERT

(188){2},,2h[2:1],4h[2:1],5h[8:7],
{8},,7,7h[4:3],,,,,,8^3[4:1],,6,6,,5,,,6,4,,3,,4,,,3,5,,
3/6,,,2/7,,,1/8,1^4[4:1]/8^5[4:1],,,,,,1/8,2/7,,

4,4h[4:1],,5,5h[4:1],,6,6h[4:1],,7,7h[4:1],,8,7,1/6,,
5,5h[4:1],,4,4h[4:1],,3,3h[4:1],,2,2h[4:1],,1,2,3/8,,
4,4h[4:1],,6,6h[4:1],,8,8h[4:1],,2,2h[4:1],,4,3,2/5,,
5,5h[4:1],,3,3h[4:1],,1,1h[4:1],,7,7h[4:1],,5,6,4^1[4:1]/7,,
1^6[4:1],,,,,,,{16}1,8,

{8}
1,2-6[8:1]/7,,1,,8-4[8:1],,1,,3h[4:1],,4,3,2,4,5,
7,7-3[8:1],,8,,1-5[8:1],,8,,6h[4:1],,5,6,4,3/5,,
1,1-5[8:1],,8,,6-8[8:1],,5,,1h[4:1],,{16}8,7,{8}6,3,5,7,
1,3,4,7,6,1,2,7^4[8:1],,8,,2,3,4,2/5,,

4/7,7-3[8:1]/4,,8,,1-5[8:1],,8,,6h[4:1],,5,6,7,5,4,
2,2-6[8:1],,1,,8-4[8:1],,1,,3h[4:1],,4,3,5,4/6,,
8,8-4[8:1],,1,,3-1[8:1],,4,,8h[4:1],,{16}1,2,{8}3,6,4,2,
8,6-2[8:1],,1-7[8:1],,5-3[8:1],,2-6[8:1],,8,,4/8,3/7,2/6,1b/5b,,
2-5[8:1],,7,6-1[8:1],,3,2-7[8:1],,5,6-3[8:1],,2,1-5[8:1],,1b,,

6h[4:1],,5,4/7,,1/8,2/7,3h[8:3]/6,,,4,3,2/5,,4/7,,
4h[4:1]/5h[4:1],,,6h[4:1]/7h[4:1],,,1h[4:1]/8h[4:1],,,2h[4:1]/3h[4:1],,,
1^4[8:1]/4^7[8:1],,,,
{16}8h[16:3],,,7h[16:3],,,6,,2h[16:3],,,3h[16:3],,,4-8[8:1],,,,,,,,,,
1,8,1,8,2-6[8:1]/7-3[8:1],,,,{2},,,,,,,4^1[4:1],8^5[4:1],,,,,,,,

{4}
4h[4:7]/5,3,,3,,3-7[8:1],,8,5h[4:7]/4,6,,6,,6-2[8:1],,1,
1h[4:7]/8,3,,3,,3-7[8:1],,8,8h[4:7]/1,6,,6,,6-2[8:1],,1,
3/6,,2^7[4:1],7^4[4:1],4^1[4:1],1^6[4:1],6^3[4:1],3^8[4:1],8,,{16}4,5,4,5,{8}3/6,,

2/7,2-6[8:1]/7,,1,,8-4[8:1],,1,,3h[4:1],,1,2,3,4,5,
6,7-3[8:1],,8,,1-5[8:1],,8,,7h[4:1],,6,5,4,2/3,,
1/8,1-5[8:1]/8,,8,,6-8[8:1],,5,,4h[4:1],,{16}5,6,{8}7,7h[8:1],6,5,
4,3,2,1,8,7,6,5h[4:1],,4,,{16}1/8,2/7,{8}3/6,3/6,1b/8b,,
2/7,7-3[8:1]/2,,2-8[8:1],,6-4[8:1],,3-7[8:1],,5h[4:1],,8,7,6,5,4,
3,2-6[8:1],,7-1[8:1],,3-5[8:1],,6-2[8:1],,1h[4:1],,3,4,5,6/7,,

1,2-4[8:1]/8,,8-6[8:1],,1-5[8:1],,7,,6h[4:1],,{16}5,4,{8}3,6,4,2,
8,7-5[8:1]/1,,1-3[8:1],,8-4[8:1],,2,,3h[4:1],,{16}4,5,{8}6,6,5/7,,
2/4,3-7[8:1],,6-4[8:1],,2-8[8:1],,7-3[8:1],,1h[4:1],,4,3,2,1,8,
5/7,6-2[8:1],,3-5[8:1],,7-1[8:1],,2-6[8:1],,8h[4:1],,{16}4,3,{8}2,2h[8:1],3,4,
5,6-1[8:1],,4-8[8:1],,5-1[8:1],,3-8[8:1],,5h[4:1],,{16}4,3,2,,5,6,{8}7,2/7,
1/8,1-5[8:1]/8,,1b^6[8:1],,1b^4[8:1],,1b-5[8:1],,1b,,2/6,3/7,4/8,1b/5b,,

7h[8:3],,,6h[8:3],,,5h[8:3],,,4h[8:3],,,3,3,2/4,,1,1,,7,7,,3,3,,5,5,,4,5,4,5,
2h[8:3],,,3h[8:3],,,4h[8:3],,,5h[8:3],,,6,6,5/7,,8,8,,2,2,,6,6,,4,4,,8-5[8:1],4,4,4,
{1},,,,E


MASTER

(188){1},{16}1,,,2,,,3,,3,,,4,
{8},5,5,,,,,,1,1,,,,,,2,,3,{1},
{12}7,8,1,2,3,4,7,6,5,3,2,1,
{8}8,,,7,,,6,6p3[2:1],,,,,,,1^4[2:3],,
5,6,,6,7,,7,8,,8,7,,7,6,5^8[2:3],,
4,3,,3,2,,2,1,,1,2,,2,3,4^1[2:3],,
8,7,,7,6,,6,5,,5,6,,6,7,8^5[2:3],,
1,2,,2,3,,3,4,,4,3,,3,2,1/8,,
3/6,,,,,,,{16}1/8,2/7,

3/6,,5,,4,,7,5,,5,7,,3,,6,,2,,8,,4,,5,3,5,3,5,,2,1,8,7,
1/6,,3,,5,,2,4,,4,2,,6,,3,,7,,1,,5,,4,6,4,6,4,,7,8,1,2,
3/8,,6,,4,,7,5,,5,7,,4/6,,3/5,,
2,1,2,1,3,8,3,8,4,7,4,7,5,6,5,6,
3,4,3,4,2,5,2,5,1,6,1,6,8,7,8,7,
1,2,3,4,8,7,6,5,2,3,4,5,6,7,8,1,

2/6,,3,,5,,2,4,,4,2,,6,,3,,7,,1,,5,,4,6,4,6,4,,7,8,1,2,
3/8,,6,,4,,7,5,,5,7,,4,,6,,1/3,,2,,7,,6/8,,1,,8,,2/7,,{24}6,5,4,
{16}2/3,,4,,2,,1,8,1,8,1,,2/7,,3/6,,4,5,4,5,3,6,3,6,2,7,2,7,1,8,1,8,
{8}2/7,2/7,6,4/5,3,5/6,7,3/4,2,5/7,8,2/4,1/8,1/8,{16}2,7,2,7,
{8}1/8,1,1,2/7,2,2,3/6,3,3,{16}4,8,3,7,2,6,1-5[8:1],5,8,4,{8},,

1/5,6,4,4,7,3/8,2/7,1/6,5,5,1,6,3/8,3,2/7,7,
1/6,5,4/7,4/7,3,2/5,2/5,6,1/7,1/7,2/6,3/5,
{16}4,3,2,1,8,7,6,5,
1h[16:3],,,2h[16:3],,,3,,8h[16:3],,,7h[16:3],,,6,,4/5,,3,6,2,7,1,8,
1,,2/7,2/7,1/8,,,,{1}1b,,,{8},,,,
3,,,,6,6,,5,,4,,3,,2h[16:1],,1,8,7h[16:1],
1,2,5,5,,4h[16:1],4h[16:1],,,3/6,,5h[16:1],5h[16:1],,3/6,4,5,4,

3-6[4:5]/6,6,,6,,7,,7,,8,,8,7,6,5,4,6-3[4:5]/3,3,,3,,2,,2,,1,,1,1-5[8:1],,,,
7^2[4:5]/2,2,,2,,3,,3,,4,,4,3,2,1,8,2^7[4:5]/7,7,,7,,6,,6,,5,,5,5-1[8:1],,,,8,,,,,,
{16}1,5,1,5,2,6,2,6,3,7,3,7,4,8,4,8,5,1,5,1,{2}5-1[8:1],
{16}1,5,1,5,1,,2/6,3/7,

{8}
4/8,4^1[8:1]/8,,8-6[8:1]/4,,4^1[8:1]/8,,8-6[8:1]/4,,4h[4:1]/8,,{16}5,6,{8}7,4/8,3/7,2/6,
1/5,5^8[8:1]/1,,1-3[8:1]/5,,5^8[8:1]/1,,1-3[8:1]/5,,5h[4:1]/1,,{16}4,3,{8}2,1/5,2/6,3/7,
4/8,4^1[8:1]/8,,8-6[8:1]/4,,4^1[8:1]/8,,4/8,7,1/6,
{16}3,4,3,4,2,5,2,5,1,6,1,6,8,7,8,7,
2,1,2,1,3,8,3,8,4,7,4,7,5,6,4,5,3,4,2,5,1-5[8:1],6,8,7,1b,,,,

6,,6^1[8:1],,3,,2-5[8:1]/6,,,,6^1[8:1]/2,,,,3/6,,3,4,5,6,2,3,4,5,1,2,3,4,2,3,4,5,
3,,3^8[8:1],,6,,7-4[8:1]/3,,,,3^8[8:1]/7,,,,3/6,,6,5,4,3,7,6,5,4,8,7,6,5,7,6,5,4,
6,,6^1[8:1],,3,,2-5[8:1]/6,,,,6^1[8:1]/2,,,,2/6,,3,,4,8,4,8,4,8,3,7,3,7,2,6,2,6,
1,5,1,5,8,4,8,4,1,5,1,5,2,6,2,6,3,5,2,6,1,7,2,8,3,7,4,6,5,,,,

2/6,,7^4[8:1]/3,,4/8,,3-8[8:1]/7,,,,7^4[8:1]/3,,6,,2/7,,2,3,4,5,2,3,4,5,1,2,3,4,1,2,3,4,
2,,2^5[8:1],,8,7,6-1[8:1]/2,,,,2^5[8:1]/6,,3,,2/7,,7,6,5,4,7,6,5,4,8,7,6,5,8,7,6,5,
7,,7^4[8:1],,1,2,3^8[8:1]/7,,,,7^4[8:1]/3,,6,,2/7,,2,,4,5,3,6,2,7,1,8,2,7,3,6,4,5,
{8}3/6,3-6[8:1]/6,7,8-5[8:1]/3,,4-1[8:1]/8,,7-2[8:1]/4,,3/7,,
4/8,3-6[8:1]/7-2[8:1],2/6,3/7,,

{8}
3h[8:1],4,5,5h[8:1],4,5,3h[8:1]/6,6,5,4,
5h[8:1],4,5,3h[8:1],4,5,{16}6,6,5,5,{8}6,
6h[8:1],4,5,3h[8:1],4,3,5h[8:1],4,5,1,1,1,1,
6h[8:1],5,4,4h[8:1],5,4,6h[8:1]/3,3,4,5,
4h[8:1],5,4,6h[8:1],5,4,{16}3,3,4,4,{8}3,
3h[8:1],5,4,6h[8:1],5,6,4h[8:1],5,4,8,8,8,8,
{1},,,,E


Re:MASTER

(188){2},{4},6,,6,
{16}1,,,2,6,,3,,3,,,4,6,,5,,{8}5,,
6,,,,16,6,,,6,,,2,6,34,4,,6,,,4,6,,
{12}75,8,1,26,3,4,7,{24}6,4,{12}5,36,2,1,
{8}48,,6,7,,4,56,5,
{16}3,4,3,4,,6,5,,4,5,4,5,1>8[2:7],,,,
{8}
5,6,,6,7,,7,8,,8,7,,7,6,5<8[2:3],,
4,3,,3,2,,2,1,,1,2,,2,3,4>5[2:7],,
8,7,,7,6,,6,5,,5,6,,6,7,8<5[2:3],,
1,2,,2,3,,3,4,,4,3,,3,2,18,,
36,,,,,,,{16}8,7,

{8}
6,2/6<1[8:1],3,6/2-4[8:1],,2/6<1[8:1],,6/2-4[8:1],,26,6h[4:1],{16}4,3,{8}2,26,7,48,
3,7/3>8[8:1],6,3/7-5[8:1],,7/3>8[8:1],,3/7-5[8:1],,37,3h[4:1],{16}5,6,{8}7,37,2,15,
6,2/6<1[8:1],3,6/2-4[8:1],,2/6<1[8:1],,26,2,
{16}4,5,4,5,4,5,
3,4,2,5,1,6,8,7,
1,2,3,4,7,6,5,4,
8,7,6,5,48,37,26,15,
4,3,2,1,8,7,6,5,
2,1,3,8,4,7,5,6,
{8}
3,7/3>8[8:1],6,3/7-5[8:1],,7/3>8[8:1],,3/7-5[8:1],,37,3h[4:1],{16}5,6,{8}7,37,2,15,
4,2/6<1[8:1],3,6/2-4[8:1],,2/6<1[8:1],,6/2-4[8:1],,26,6h[4:1],{16}4,3,{8}2,26,7,48,
5,7/3>8[8:1],6,3/7-5[8:1],,7/3>8[8:1],,37,7,
{16}5,4,6,3,7,2,
5,4,6,3,7,2,8,1,
6,5,7,4,8,3,1,2,
7,8,6,1,5,2,4,3,
4,3,5,4,5,4,6,5,
6,4,7,3,8b,,,,

{8}6h[4:1]/2,2,2,7h[4:1]/3,3,3,8h[4:1]/4,4,4,{16}5,1,4,8,3,7,2-6[8:1],6-2[16:1],1,5,{8},,
5/1h[2:1],,6,6,,17,27,3h[8:3],8,8,,3,38,2,27,1,
1/6h[4:1],,5,5/2h[4:1],,4,4/7h[4:1],,1,18,,,
{16}26,37,48,15,2,3,4,5,
6/2h[16:3],,,3h[16:3],,,4,,7h[16:3]/3,,,6h[16:3],,,5,,
45,,3,6,2,7,1,8,
1,,27,36,4-1[4:1]/5-8[4:1],,,,{1},,,{8},,,,
3,,,,6,,,,,,,,,2h[16:1],,,,7h[16:1],,,,,,4h[16:1],4h[16:1],,,,,5h[16:1],5h[16:1],,,,,,

{4}3-6[4:5],5,,5,,5,{12}5,5,5,5,,,
{4}6-3[4:5],4,,4,,{12}4,4,4,4-1[8:1],,,,,,
{4}2v7[4:5],5,,5,,,{12}5,5,5,5,,,
{4}7v2[4:5],4,,4,,{12}4,4,4,4-8[8:1],,,,,,
{4}1p8[1:2],,,{16}4,5,4,5,
3,5,3,5,3,4,3,4,
2,4,2,4,2,3,2,3,
{2}1,{16}6,2,8,4,6,7,8,1,

2,1,2,1,2,,7,8,7,8,7,,1,8,1,,6,5,6,5,6,,3,4,3,4,3,,{24}5,4,5,{16}4,,
4,5,4,5,4,,5,4,5,4,5,,3,6,3,,7,2,7,2,7,,2,7,2,7,2,,{24}8,1,8,{16}1,,
2,1,2,1,2,,7,8,7,8,7,,1,8,1,8,3,4,3,4,3,,6,5,6,5,6,,{24}4,5,4,5,4,5,
{16}3,6,3,6,3,,7,2,7,2,7,,2,6,3,7,{24}4,8,4,{16}8,3,7,2,{24}6,2,6,{16}1-5[8:1],5,8,4,1,,6,7,

82,7,3,,6,,{24}4,5,3,{16}4,,8,,2,7,3,8,
{24}2,7,2,{16}7,,8,,{24}1,7,8,{16}7,,3,,7,2,6,3,
{24}45,6,4,{16}6,,7,,{24}4,5,3,{16}4,,7,,5,6,4,7,
{24}3,5,4,{16}5,,7,,{24}5,6,4,{16}5,,7,,6,7,8,1,
{24}27,8,1,{16}8,,8,,{24}2,7,3,{16}6,,6,,5,4,6,5,
{24}7,5,6,{16}4,,1,,{24}8,1,7,{16}2,,2,,6,3,5,4,
{24}35,6,4,{16}6,,7,,{24}1,8,2,{16}7,,6,,1,8,1,6,
{24}1,4,2,{16}5,,6,,3,,{24}5,4,5,{16}4,,4,5,6,7,
8,1,8,1,8,,72,27,18,,,,8b,,,,

2,7,1,,8,2,8,2,7,3,7,,4,5,3,6,
{24}7,4,8,{16}4,,2,1,2,1,3,4,3,,{24}6,5,6,4,7,4,
{16}6,5,6,,4,5,4,5,3,6,3,,6,3,7,2,
8,1,8,1,{24}7,2,7,2,7,2,{16}6,3,6,3,{24}5,4,5,4,5,4,
{16}6,3,7,2,{24}8,1,8,1,8,1,{16}7,2,6,3,{24}5,4,5,4,5,4,
{16}5,3,6,2,7,3,8,4,7,3,6,2,5,1,4,8,
3/7>6[2:1],4/8>7[2:1],5/1>8[2:1],6/2>1[2:1],7/3<2[2:1],,,,
7,8,1,2,3,4,5,6,

{2}7-3[4:15],,,,,,,{8}1,1,2-6[1:4],2,
{2},,,,,,,{8}8,8,7,7,
{1},E

名前:
コメント:

タグ:

+ タグ編集
  • タグ:

このサイトはreCAPTCHAによって保護されており、Googleの プライバシーポリシー利用規約 が適用されます。

最終更新:2020年06月21日 09:54