[宴]FREEDOM DiVE (tpz Overcute Remix)

BPM 属性 COMMENT
234.5 サファ太人間卒業シリーズ

属性:狂

(234.5){8}
6-8[8:1]/4,,2,,6-8[8:1]/5,5,1,,3-1[8:1]/4,,7,,3-1[8:1]/4,,8,,
5-1[8:1]/4,,2,,5-1[8:1]/4,4,2,,4-8[8:1]/5,,7,,1b-4[8:1]*-6[8:1],,,,
5h[4:1],,1,1,8h[4:1],4,4,,4h[4:1]/5,,8,8,1h[4:1],5,5,,
2/5,2/5,3/6,3/6,4/7,4/7,5/8,5/8,5/8,4/7,3/6,2/5,4-8[8:1]/1,,1b,,

2-7[8:1],2,6-3[8:1],6,2-7[8:1],2,6-3[8:1],6,2-5[8:1],2,6-1[8:1],6,2-5[8:1]*-7[8:1],2,2,,
6-1[8:1],6,2-5[8:1],2,6-1[8:1],6,2-5[8:1],2,6-3[8:1],6,2-7[8:1],2,5b-2[8:1]*-8[8:1],,5b,,
1^4[8:1],1,5^8[8:1],5,2^5[8:1],2,6^1[8:1],6,3^8[8:1],3,7^4[8:1],7,1,2,3b/8b,,
{16}4,5,4,5,3,6,3,6,2,7,2,7,1,8,1,8,1,2,8,7,2,3,7,6,2,3,7,6,3,4,6,5,

{2}2h[2:1],4h[2:1],5h[2:1],8h[2:1],6h[2:1],4h[2:1],1h[2:1],{8}5,5,4,4,
{4}6h[2:1]/3,,3h[4:1],2h[4:1],1h[4:1],8h[4:1],7h[4:1],
6h[4:1],4h[4:1],2h[4:1],8h[4:1],7V13[4:3]*V15[4:3],,,,,
3h[4:1]/4,{8}4,3,3/4,,2/5,,{12}4/6,5,4,{4}5h[4:1],3,4/6,
7h[4:1]/8,{8}8,7,7/8,,1/8,,2h[4:1]/1,,1,2,1/2,,3/8,,

6-8[8:1]/4,,2,2,3-1[8:1]/5,,7,7,6^8[8:1]/4,,2,2,
{16}3h[16:3],,,6h[16:3],{8},5,4,4,3/5,3/5,2,2,1/7,1/7,
{16}1,8,1,8,1,8,1,8,1,8,1,8,1,8,1,8,
1,2,3,4,7,6,5,4,2,3,4,5,8,7,6,5,
3,4,3,4,2,5,2,5,2,1,2,1,
{4}3b/8b,

7-5[8:1],1-3[8:1]/7,4-8[8:1]/1,2/4,
2-4[8:1],8-6[8:1]/2,5-1[8:1]/8,7h[1024:1]/5,
7-5[8:1],8-4[8:1]/7,1-5[8:1]/8,2-4[8:1]/1,
8-6[8:1]/2,5/8,5w1[8:1],5b,
3-8[8:1],6-1[8:1]/3,2-5[8:1]*-7[8:1]/6,2,
6-1[8:1],3-8[8:1]/6,3/5,
{24}1b/7b,2b/6b,3b/5b,4b,,,

{4}3-8[8:1],6-2[8:1]/3,4-8[8:1]/6,4/5,
1-3[8:1]/7-5[8:1],1-5[8:1]/7-3[8:1],1/7,2b/6b,
1-5[8:1],7^4[8:1]/1,3^8[8:1]/7,7^4[8:1]/3,3^8[8:1]/7,3/7,7w3[8:1]/3,7,
1-5[8:1],6^1[8:1]/1,2^5[8:1]/6,6^1[8:1]/2,2^5[8:1]/6,2/6,2w6[8:1]/6,2,
{8}
4/8,4/8,4/8,4/7,4/6,4/6,4/6,3/6,
2/6,2/6,2/6,2/5,2/4,2/4,3,2/4,
2b,1/3,4/8,5/7,7b,6/8,1/5,2/4,
{16}5b,4,6,3,7,2,8,1,8-4[8:1],1,7,2,{8}8b,,

2/5,8,3/6,4,3/8,6,2/5,4,
3/6,7,2/4,7,6/8,5,2/4,6,
1/5,3,7/8,5,2/3,1,6/8,4,
1/3,5,6/8,3,1/8,2/7,3/6,4/5,
3,2/7,5,3/6,1,3/6,8,5/7,
3,4/6,8,5/7,3,4/6,8,5/7,
6,3/5,1,2/4,6,3/5,1,2/4,
{16}8^3[8:1],7,6,5,{8}8b-4[8:1],,8b,,2b/6b,,

4/7,1,3/6,5,2/5,8,3/6,4,
{12}6,5,6,{8}4/7,3,2/5,1,2/7,5,
3/4,3/4,2/5,2/5,1/6,1/6,7/8,7/8,
1,2/8,3/7,4/6,7,6/8,1/5,2/4,

{16}3b,4,3,,6,5,6,,2,4,3,,7,5,6,,
1b,8,1,8,2,7,2,7,2,3,4,5,8,7,6,5,
2b,4,2,4,3,5,3,5,4,6,4,6,5-1[8:1],7,5,7,
{4}8-4[8:1]/5b,2-6[8:1]/8b,2b/1,4b/7b,

{8}
1^3[8:1],1,5^7[8:1],5,2^4[8:1],2,6^8[8:1],6,
3^5[8:1],3,7^1[8:1],7,5-1[8:1],5,5/8,,
8^6[8:1],8,4^2[8:1],4,7^5[8:1],7,3^1[8:1],3,
6^4[8:1],6,2^8[8:1],2,3-7[8:1],3,1b/3b,,

{32}
1,,,,1b,2,3,,5,,,,5b,6,7,,
2,,,,2b,3,4,,6,,,,6b,7,8,,
3,,,,3b,4,5,,7,,,,7,,,,7,6,5,4,3,2,1,8,3b/7b,,,,,,,,
8,,,,8b,7,6,,4,,,,4b,3,2,,
7,,,,7b,6,5,,3,,,,3b,2,1,,
6,,,,6b,5,4,,2,,,,2,,,,2,3,4,5,6,7,8,1,{8}6b/2b,,

6h[4:1],,5,,4/7,,,3h[8:3],,,4,,2/5,,,,6h[4:1],,5,,4/7,,,3h[8:3],,,4,,2/5,,,,
6h[4:1],,5,,4/7,,,3h[8:3],{4},4,2/5,,5h[4:1],4,3/6,,
5-8[8:5]/4,5,5,5,4-1[8:5]/5,4,4,4,
5-1[8:5]/4,5,5,5,4-8[8:5]/5,4,4,4,
5-7[4:1],4/5,4-2[4:1],4/5,
5-8[4:1],4/5,4-1[4:1],4/5,
5-1[4:1],4/5,4-8[4:1],4/5,
{16}5,,5,,4,,4,,4,5,4,5,3,6,2,7,1h[4:1]/8h[4:1],,,,,,,,
1-5[8:1],5,3,7,{8}1b,,

4/7,1,2/5,7,3/8,2,1/6,2/7,
3/8,7,2/5,1,3/8,5,1/6,3/5,
2/7,6,1/3,6,5/7,8,1/4,2/7,
4/8,2,1/5,7,4/8,3/7,2/6,1/5,
2/4,8,4/6,2,6/7,3,1/2,5,
6/8,4,1/5,3,6/8,5,1/2,3,
5/7,8,4,6,3/7,4,2/6,4/8,{16}1-5[8:1],2,3,4,
{8}1b^4[8:1]*^6[8:1],,1b,,3b/7b,,

2/5,8,3/6,1,4/7,1,5/8,4,
{12}3,4,3,{8}2/5,6,4/7,8,2/7,4,
5/6,5/6,4/7,4/7,3/8,3/8,1/2,1/2,
8,1/7,2/6,3/5,2,1/3,4/8,5/7,

{16}
6b,5,6,5,7,4,7,4,8,3,8,3,1,2,1,2,
4b,3,4,3,5,2,5,2,6,1,6,1,7,8,7,8,
7b,6,5,4,1,2,3,4,8,7,6,5,4,5,4,5,
{4}6b-1[8:1]/3b,2-5[8:1]/6b,8w4[8:1]/2b,8b,

{16}
2,5,2,5,3,6,3,6,4,7,4,7,5,8,5,8,
4,8,4,8,3,7,3,7,2,6,2,6,1,5,1,5,
3,4,3,4,8,6,8,6,4,6,4,6,4,1,4,1,
8,7,6,5,2,3,4,5,7,6,5,4,1,2,3,4,
6b,5,6,5,8,3,8,3,7,4,7,4,1,2,1,2,
4b,3,4,3,6,1,6,1,5,2,5,2,7,8,7,8,
{2}1b-4[8:1]/6b-2[8:1],3b-7[8:1]/8b-5[8:1],
{16}8-4[8:1],1,2,3,{4}8bw4[8:1],8b,2b/6b,

{16}1,5,1,5,3,7,3,7,2,6,2,6,4,8,4,8,
{12}3,4,3,{16}2/5,,1,,2,5,2,5,4,7,4,7,
2,8,2,8,4,6,4,6,1,7,1,7,3,5,3,5,
2,8,4,6,1,7,3,5,8,6,2,4,1,8,2,7,
1,2,3,4,8,7,6,5,2,3,4,5,6,5,6,5,
8,7,6,5,1,2,3,4,7,6,5,4,3,4,3,4,
2,1,3,8,4,7,5,6,3,4,2,5,1,6,8,7,
{4}1b^4[8:1]*^6[8:1],1bw5[8:1],1b,3b/7b,

{8}
2b/4,3/5,4/6,5/7,2b/4,3/5,4/6,5/7,
8b/6,5/7,4/6,3/5,7b/5,4/6,3/5,2/4,
{16}2b,4,3,5,4b,6,5,7,2b,4,3,5,4b,6,5,7,
{32}
1b,2,3,4,5,6,7,8,
1b,2,3,4,5,6,7,8,
1b/5,2,3,4,5,6,7,8,
1b/5,2,3,4,5,6,7,8,
{1}1b/5,,1b,,1b,,,,E



  • 修正箇所等ありましたら修正・加筆おねがいします。 -- Sea (2019-01-16 11:11:11)
名前:
コメント:

タグ:

+ タグ編集
  • タグ:

このサイトはreCAPTCHAによって保護されており、Googleの プライバシーポリシー利用規約 が適用されます。

最終更新:2019年01月16日 11:10