QZKago Requiem

BPM EASY BASIC ADVANCED EXPERT MASTER Re:MASTER
257 5 6 9+ 12 14+ 14+

EXPERT MASTER Re:MASTER
譜面制作者 小鳥遊さん チャン@DP皆伝 Garakuta Scramble!

EASY


BASIC

(257){1},,,,,,,,
{1}1-4[4:3],,
{1}8-5[4:3],,
{1}1-4[4:3],,
{1}8-5[4:3],,
{2}2,2,
{4}2,2,2,,
{2}3,3,
{4}3,3,3,,
{2}4,4,
{4}4,4,4,,
{4}5,5,5,5,
{1}5b,
{2}6,6,
{4}6,6,6,,
{2}7,7,
{4}7,7,7,,
{4}8,8,8b,,
{4}1,1,1b,,
{4}8,8,8,8,
{1}1/8,
{2}8,8,
{2}7/8,7/8,
{2}6,6,
{2}5/6,5/6,
{2}4,4,
{2}4/5,4/5,
{2}3,3,
{1}2/4,
{1}2h[2:3],,
{1}1h[2:3],,
{1}8h[2:3],,
{1}1b,,
{1}1-5[4:3],,
{1}6,
{1}6,
{1}8-3[4:3],,
{1}1,
{1}1,
{2}1/2,1/2,
{1}3/8,
{2}7/8,7/8,
{1}1/6,
{1}5h[2:1]/6h[2:1],
{1}3h[2:1]/4h[2:1],
{2}5h[4:1]/6h[4:1],3h[4:1]/4h[4:1],
{1}5/6,
{4}7,7,7,7,
{4}7,7,7,,
{4}8,8,8,8,
{4}8,8,8,,
{4}1,1,1,1,
{4}1,1,1,,
{4}2,2,2,2,
{1}2b,
{4}3,3,3,3,
{4}3,3,3,,
{4}4,4,4,4,
{4}4,4,4,,
{4}5,5,5,5,
{4}5,5,5,,
{1}6-1[4:3],,,,,,
{4},5b,,,{1},,,,
{2},1-4[4:3],{1},
{2},8-5[4:3],{1},
{2},1-4[4:3],{1},
{2},8-5[4:3],{1},
{2},1/2,
{2},1/2,
{2},7/8,
{2},7/8,
{2},1/2,
{2}1/2,7/8,
{2}7/8,1/8,
{2}2/7,3b/6b,{1},,
{4}1,1,1,1,
{4}2,2,2,,
{4}3,3,3,3,
{4}4,4,4,,
{4}5,5,5,5,
{4}6,6,6,,
{4}7,7,7,7,
{1}8b,
{4}8,8,8,8,
{4}7,7,7,,
{4}6,6,6,6,
{4}5,5,5,,
{4}4,4,4,4,
{4}3,3,3,,
{4}2,2,2,2,
{1}1b,
{4}1,1,1,1,
{4}2,2,2,2,
{4}3,3,3,3,
{4}4,4,4,4,
{4}5,5,5,5,
{4}6,6,6,6,
{4}7,7,7,7,
{1}8b,
{4}8,8,7,7,
{4}6,6,5,5,
{4}4,4,3,3,
{4}2,2,1,1,
{4}8,8,7,7,
{4}6,6,5,5,
{4}4,4,3,3,
{1}2b,
(265.0){4}1,8,1,8,
(270.0){4}1,(275.001)8,(280.001)1,(285.0)8,
(290.001){1}1h[1:2],,
{1}8b,
E

ADVANCED

(257)
{1}6p5[4:5],,
{1}3q4[4:5],,
{1}7p5[4:5],,
{1}2qq5[8:11],,
{1}6h[1:2],
{1}5,
{1}3h[1:2],
{1}4,
{1}6<3[4:7],,,
{4}4/5,3/6,1b/8b,,
{4}1/8,1/8,1/2,1/2,
{4}1/8,1/2,1/8b,,
{4}1/8,1/8,7/8,7/8,
{4}1/8,7/8,1b/8,,
{4}1/8,1/8,1/2,1/2,
{4}1/8,7/8,1b/8,,
{4}3/4,2,3/4,5w1[2:1],{1},
{4}1/8,1/8,7/8,7/8,
{4}6/7,5/6,4b/5,,
{4}1/8,1/8,1/2,1/2,
{4}2/3,3/4,4/5b,,
{4}5/7,5/7,5b/7b,,
{4}2/4,2/4,2b/4b,,
{4}4/5,3/6,2/7,1/8,
{1}2b/7b,
{4}8,7,5/6,5/6,
{4}4,3,1/2,1/2,
{4}8,1/2,3,1-6[2:1]/2-5[2:1],{1},
{4}1,2,3/4,3/4,
{4}5,6,7/8,7/8,
{4}6,7/8,1,7/8,
{2}1h[4:1]/6h[4:1],1b/6b,
{1}1p4[4:3]/8^5[4:3],
{2},1b/2b,
{4}3/4,2,3/4,5,
{4}3/4,2/5,1/6,,
{4}6,5,3/4,3/4,
{4}2/5,6,4/7,8w4[1:1],{1},,
{1}6h[1:1],
{1}5,
{1}2h[1:1],
{1}4,
{1}6h[1:1],
{1}7,
{1}3h[1:1],
{1}2,
{4}1/2,3,4,5^8[2:1],{1},
{4}1/2,3,4/5,6^1[2:1],{1},
{4}2h[4:1]/4h[4:1],,2/4,3,
{4}4h[4:1]/5h[4:1],,4/5,6,
{4}5h[4:1]/7h[4:1],,5/7,8z4[4:3],{1},
{4}3,3,2/4,1,
{4}8,7,5/6,5/6,
{4}4,3,2/5,2/5,
{4}6,5,4/7,,
{4}6,6,5/7,8,
{4}1,2,3/4,3/4,
{4}2/5,3/6,4/7,8z4[4:3],{1},
{4}2,2,3/4,4/5,
{4}7,7,5/6,4/5,
{4}3,3,1/2,1/8,
{4}7/8,7/8,1/6,,
{4}4,5,3/6,4/5,
{1}5/4>5[4:17],,,,,,,
{4},5b,,,{1},,,,
{2},6p5[4:5],{1},
{2},3q4[4:5],{1},
{2},7p5[4:5],{1},
{2},2qq5[8:11],{1},
{4},,6b,6,
{4}6,6,6,6,
{4}5/6,4/5,3b,3,
{4}3,3,3,2/4,
{2}1/5,5h[4:1]/7h[4:1],
{2}4h[4:1]/5h[4:1],2h[4:1]/4h[4:1],
{4}4h[4:1]/5h[4:1],,4/5,5/7,
{4}4/5,2/4,4/5,3/6,
{1}1bp5[4:5]/8bq4[4:5],,
{4}2/4,2/4,3,4,
{4}5/7,5/7,6,5,
{8}3,3,4,,6,6,5,,
{4}2/4,5/7,3/6,,
{4}7/8,7/8,5/6,3/4,
{4}1/2,1/2,3/4,5/6,
{4}7/8,1/6,2/7,3V51[4:3],{1},
{4}2,3/4,5/6,7/8,
{4}5/6,3/4,1/2,1/2,
{8}7,7,8,,2,2,1,,
{4}7/8,1/2,3b/8b,,
{4}3/4,4/5,5/6,4/5,
{4}2/4,4/5,5/7,4/5,
{4}1/3,4/5,6/8,1V35[4:3],{1},
{8}6,6,5,,3,3,4,,
{8}6,6,4,,3,3,5,,
{8}6,6,1,,3,3,8,,
{4}1/2,3/8,4/7,,
{8}7,7,8,,2,2,1,,
{8}7,7,1,,2,2,8,,
{8}7,7,4,,2,2,5,,
{4}3/4,5/6,2b/7b,,
{8}3,3,5,5,4,4,6,6,
{8}8,8,7/8,,1/2,,3/8,,
{8}7,7,1,1,8,8,2,2,
{8}4,4,3/4,,2b/5b,,,,
{8}3/4,3/4,3/4,,5/6,5/6,5/6,,
{8}2/4,2/4,2/4,,5/7,5/7,5/7,,
{8}1/6,1/6,1/6,,3/8,3/8,3/8,,
{4}2b/7b,4b/5b,1b/8b,,
(265.0){8}1,1,8,8,2,2,7,7,
(270.0){8}2,3,(275.001)4,5,(280.001)6,7,(285.0)8,1,
(290.001){1}2h[2:3]/7h[1:1],,
{1}2b/7b,
E

EXPERT

(257)
{1} 2h[1:1],4h[1:1],5h[1:1],7h[1:1],1h[1:1],3h[1:1],
{4} 8h[4:3],,,6p5[4:3],
{1} ,
{4} 3,4,5,6,7,7h[2:1],,8,1,1,2,2,3,4,8,,
6,5,4,3,3,4,5,6,7,8,1,2,3-8[4:1]/6-1[4:1],,,2b/7b,
{8} 3,6,4,5,3,6,4,5,3,6,4,5,4,,12,,2,5,3,4,2,5,3,4,2,5,3,4,3,,45,,
6,3,5,4,6,3,5,4,6,3,5,4,5,,78,,7,4,6,5,7,4,6,5,
{1} 7>5[2:1]*q5[2:1],
{8} 2,7,1,8,2,7,1,8,2,7,1,8,1,,34,,3,8,2,1,3,8,2,1,3,8,2,1,2,,18,,
{8} 6,1,7,8,6h[4:1],,5b,,3,8,2,1,3h[4:1],,4b,,
5,4,6,3,7,2,8,1,
{4} 2h[2:1]/7h[2:1],,,1b/8b,

34,34,12,12,78,78,56,56,34,57,34,57,
{1} 2^7[4:1]/4-7[4:1],
{4} 56,56,78,78,12,12,34,34,56,24,56,24,
{1} 6^3[4:1]/8^3[4:1],
{8} 1h[8:3]/8,,,3h[8:3],,,5h[8:3],,,7h[8:3],,,
{2} 8,
{4} 56,24,56,13,
{1} 5>1[4:1]/6p1[4:1],
{4} 34,57,34,68,
{8} 2,2,7,7,1,1,8,8,
{2} 1w5[4:3],,,5b,
{8} 3h[8:3],,,4h[8:3],,,5h[2:1],,,,6,,6,,6,,6h[8:3],,,5h[8:3],,,4h[2:1],,,,3,,3,,3,,
2h[8:3],,,3h[8:3],,,4h[2:1],,,,5,,5,,5,,5h[8:3],,,6h[8:3],,,7h[2:1],,,,8,,1,,2,,
3h[4:1]/8h[4:1],,,3h[4:1]/8h[4:1],,,3V52[2:1]/8V61[2:1],,
{1} ,
{8} 1h[4:1]/6h[4:1],,,1h[4:1]/6h[4:1],,,1V38[2:1]/6V47[2:1],,
{1} ,
{8} 2h[4:1]/8h[4:1],,,3h[4:1]/4h[4:1],,,45,,
1h[4:1]/7h[4:1],,,5h[4:1]/6h[4:1],,,45,,
{4} 34,1,56,8,
{1} 2V41[2:1]/7V58[2:1],

{8} 34,,7,78,,1,18,,2,1,2,1,2-5[8:1],,8,,6,,2,12,,8,18,,7,8,7,8,7-4[8:1],,1,,
3,,7,78,,1,18,,2,1,2,8,2-6[8:1],,7,,8,,6,56,,3,34,,
{4} 1-5[4:1]/8-4[4:1],,,3b/6b,12,
{8} 6,56,,4,45,,3,4,3,4,3-8[8:1],,5,,7,,3,34,,5,45,,6,5,6,5,6-1[8:1],,4,,
2,,6,56,,4,4,,1,1,1,1,,,,
{6} 27,27,27,
{8} ,
{4} 1<1[4:11]/8h[1:3],,,,,,,,,,,,

,,,,,,,,,,,5b,,,
{0.25} ,
{4} 1,2,
{1} 3q5[4:3]/4,
{4} ,,8,7,
{2} 5/6p4[4:3],,,18,2q4[4:3]/3,,,45,6/7p5[4:3],,,
{4} 1,2,3b/8-4[4:3],3,3,3,3,3,3,3,1-5[4:3]/3b,3,3,3,3,3,3,3,
1-6[4:1]/6b,6,6,6,6b/8-4[4:1],6,6,6,5b/6b,57,3b/4b,24,1b/8b,3b-6[8:1]/7b-2[8:1],
{0.5} ,

{4} 2-4[8:1],8-6[8:1],1-5[8:1],,7-5[8:1],1-3[8:1],8-4[8:1],,
2,2-5[8:1],1,1-6[8:1],3,3-8[8:1],7b,,5/6h[4:1],7h[4:1],8h[4:1],
{8} 1,1,,3,4,3,
{4} 4,1/2h[4:1],3h[4:1],4h[4:1],5h[4:1],6q1[2:1],
{1} ,
{4} 7-5[8:1],1-3[8:1],8-4[8:1],,2-4[8:1],8-6[8:1],1-5[8:1],,
7,7-4[8:1],8,8-3[8:1],6,6-1[8:1],2b,,3h[4:1]/4,2h[4:1],1h[4:1],
{8} 8,8,,4,4,4,6,5,6,5,,8,8,8,1,2,7,8,
{4} 1w5[4:1],,,3b/7b,

{8} 1,1,2,2,3,3,4,4,5,5,6,6,
{2} 5-1[8:1]/6-1[8:1],
{8} 8,8,7,7,6,6,5,5,4,4,3,3,
{2} 3-8[8:1]/4-8[8:1],
{8} 2,2,2,,7,7,7,,13,13,13,,68,68,68,,4,4,5,5,
{1} 3>5[4:3]/6<4[4:3],
{4} ,1b/8b,
{8} 2,2,2,2,3,3,3,3,4,4,4,4,48,48,48,,7,7,7,7,6,6,6,6,5,5,5,5,15,15,15,,
1,1,2,2,3,3,4,4,5,5,6,6,7,7,8,8,1,1,3,3,5,5,7,7,
{1} 1>8[2:1],

{8} 34,34,34,34,34,,18,,56,56,56,56,56,,18,,
(290)
{16} 1,2,3,4,5,6,7,8,1,2,3,4,5,6,7,8,
{1} 1b,4b>5[4:11]/8b,,,4b,,,E

MASTER

(257){4}
1/5,2,3,4,1/5,8,7,6,1/5,2,3,4,1/5,8,7,7,
4/8,7,6,5,4/8,1,2,3,4/8,7,6,1z5[8:5]/5z1[8:5],,,,,
5-8[2:1]/1,2,3,4,5-2[2:1]/1,8,7,6,5-8[2:1]/1,2,3,4,5-2[2:1]/1,8,7,,
4-1[2:1]/8,7,6,5,4-7[2:1]/8,1,2,3,4-1[2:1]/8,7,6,5,
{16}7,,7,,2,,2,,8,7,6,5,1,2,3,4,

{8}
7,7,1,1,8,8,2,2,8-4[8:1],8,2-6[8:1],2,1<5[8:1],,{16}1/5,4,3,2,
{8}1,1,7,7,2,2,8-3[8:1],8,1-5[8:1],1,7-4[8:1],7,2-5[8:1],2,8,8,
2,2,8,8,1,1,7,7,1-5[8:1],1,7-3[8:1],7,8>4[8:1],,{16}4/8,5,6,7,
8,,8,,2,,2,,7,,7,,4,3,2,1,{8}8w4[8:1],,8,,1w5[8:1],,1b,,
2,2,8,8,1,1,7,7,1-5[8:1],1,7-3[8:1],7,8>4[8:1],,{16}4/8,5,6,7,
{8}8,8,2,2,7,7,1-6[8:1],1,8-4[8:1],8,2-6[8:1],2,7-4[8:1],7,1,1,
7,7,1,1,8-5[8:1],8,8b,,3,3,8-5[8:1],8,8b-3[8:1],,8b,,
4/8,4/8,3/7,3/7,2/6,2/6,1/5,1/5,
{4}4h[4:1]/8h[4:1],,2/7,1b/8b,

7-4[8:1],2/7,1-5[8:1],1/6,8-4[8:1],3/8,2-5[8:1],2/7,
4v2[8:1]/8v6[8:1],4/8,1v3[8:1]/5v7[8:1],1/5,4>8[8:1],{16}4/8,7,6,5,{4}4,2b/6b,
8-4[8:1],3/8,2-5[8:1],2/7,7-4[8:1],1-6[8:1]/7,8-4[8:1]/1,2/8,
1v3[8:1]/5v7[8:1],1/5,4v2[8:1]/8v6[8:1],4/8,1h[4:1],2h[4:1],3h[4:1],8b,

{8}3/7,,,2/6,,,1/5,,,2/6,{4},2^5[8:1]/8^5[8:1],,
{4}3-8[8:1],3/6,5-1[8:1],2/5,4-8[8:1],4/7,6-1[8:1],3/6,
2-6[8:1]/8v6[8:1],2/8,1v3[8:1]/7-3[8:1],1/7,
{8}1,8,1-3[8:1],8-6[8:1],1-4[8:1],8-5[8:1],1,8,
{1}1h[8:4],2h[4:2]/6h[4:2],

{4}
7q6[4:3],,,,,1,2,3,2p3[4:3],,,,,5,6,7,
2q1[4:3],,,,,7,6,5,7p8[4:3],,,,,2,1,2,
{8}1/5,,,2/6,,,3V16[2:1]/7V52[2:1],,{1},
{8}4/8,,,3/7,,,2V47[2:1]/6V83[2:1],,{1},
{4}8,4>8[4:1],{16}4/8,7,6,5,4,3,2,1,
{4}8,5<1[4:1],{16}1/5,2,3,4,5,6,7,8,
{4}1w5[8:1],1b,8w4[8:1],8b,1b,,,,

{8}
7-3[8:1],,7/8,1-5[8:1],,1,8,,2-5[8:1]/1,2,7pp4[8:3],7,3,,3,,
2-6[8:1],,1/2,8-4[8:1],,8,1,,7-4[8:1]/8,7,2qq5[8:3],2,6,,6,,
7-3[8:1],,7/8,1-5[8:1],,1,8,,2-5[8:1]/1,2,6qq1[8:3],6,2,,2,,
2-6[8:1],,1/2,8-4[8:1],,8,1,,{1}8b,
{8}
6-2[8:1],,5/6,4-8[8:1],,4,5,,3-8[8:1]/4,3,6qq1[8:3],6,2,,2,,
3-7[8:1],,3/4,5-1[8:1],,5,4,,6-1[8:1]/5,6,3pp8[8:3],3,7,,7,,
6-2[8:1],,5/6,4-8[8:1],,4,5,,3-8[8:1]/4,3,6,6,,,,6,
{6}2,2,2,{16},
8,7,6,5,4,3,2,1,8,7,6,5,4,3,2,1,8,7,6,5,4,3,2,1,
8,7,6,5,4,3,2,1,8,7,6,5,4,3,2,1,8,7,6,5,4,3,2,{1}1,,

{4},,,5b,,,
{1},,,,

{8}1b/2b,,7b/8b-4[8:1],,
1b/8b,,3,,4,,5,5,,4,,4,5-7[8:1],,5,,
2,,2,,1,,8,8,,1,,1,8-6[8:1],,8,,
3,,3,,4,,5,5,,4,4-8[4:1],8,8-3[4:1],,7,,
7,,8,8,1h[4:1],,8h[4:3],,,,,,1,,7/8,,

1b-6[4:3]/2b,,3,,4,,5,5,,4,,4,5-7[8:1],,5,,
8b-5[4:3]/2b,,2,,1,,8,8,,1,,1,{4}8h[4:1],,
4b-2[8:1]/5,8,5b-7[8:1]/4,1,
4b-1[8:1]/5,8,5b-8[8:1]/4,1,
{8}1b,8,1b,8,
{16}1b,8,7,6,5,4,3,2,
{4}1b/8b,7b-4[8:1]/8b-3[8:1],7b/8b,,,,


3b/7b,2b/6b,4b/5b,8b-4[8:1]/1b,
3-8[8:1]/8b,6-3[8:1],2-6[8:1],5-2[8:1],
1-5[8:1],6-1[8:1],3-6[8:1],8-3[8:1],
4-8[8:1],7-4[8:1],3-7[8:1],6-3[8:1],
1-6[8:1],5-1[8:1],2-5[8:1],8,
7,2-6[8:1],8,{8}1-6[8:1],2,,3,3-7[8:1],5,5,,4-7[8:1],,3,,2,1,{4}2,4/8,
4^1[8:1]/8^5[8:1],4-8[8:1]/8-4[8:1],,1b-5[8:1],
6-1[8:1]/1b,3-6[8:1],7-3[8:1],4-7[8:1],
8-4[8:1],3-8[8:1],6-3[8:1],1-6[8:1],
5-1[8:1],2-5[8:1],6-2[8:1],3-6[8:1],
8-3[8:1],4-8[8:1],7-4[8:1],1,
2,7-3[8:1],1,{8}8-3[8:1],7,,6,6,6,3,3,7,7,
4/8,4/8,3/7,3/7,2/6,2/6,1/5,1/5,
{4}1^4[8:1]/5^8[8:1],1-5[8:1]/5-1[8:1],,3b/7b,

{16}
7-4[8:1],,7,,1-6[8:1],,1,,8-4[8:1],,8,,4,3,2,1,8,,8,,5<1[8:1],,5,,1,2,3,4,5b,,,,
2-5[8:1],,2,,8-3[8:1],,8,,1-5[8:1],,1,,5,6,7,8,1,,1,,4>8[8:1],,4,,8,7,6,5,4b,,,,
7-4[8:1],,7,,1-6[8:1],,1,,8-4[8:1],,8,,4,3,2,1,8,,8,,5<1[8:1],,5,,1,2,3,4,5b,,,,
2-5[8:1],,2,,8-3[8:1],,8,,1-5[8:1],,1,,8,,8,,8,7,6,5,8w4[8:1],1,2,3,8b,,,,,,,,

7-4[8:1],,7,,1-6[8:1],,1,,8-4[8:1],,8,,4-7[8:1],3,2,1,8,,8,,1>5[8:1],,1,,5,6,7,8,1b,,,,
2-5[8:1],,2,,8-3[8:1],,8,,1-5[8:1],,1,,5-2[8:1],6,7,8,1,,1,,8<4[8:1],,8,,4,3,2,1,8b,,,,
7-4[8:1],,7,,1-6[8:1],,1,,8-4[8:1],,8,,4-7[8:1],3,2,1,8,,8,,1>5[8:1],,1,,5,6,7,8,1b,,,,
{8}4/8,4/8,3/7,3/7,2/6,2/6,1/5,1/5,1b/5b,,1b/8b,,
{16}1,2,3,4,1,8,7,6,

3b,4,3,4,3,4,3,4,2,5,2,5,2,5,2,5,
1b,6,1,6,1,6,1,6,8,7,8,7,8,7,8,7,
(290){24}
1b,2,3,4,5,6,7,8,
1,2,3,4,5,6,7,8,
1,2,3,4,5,6,7,8,
{8}1,5,1,5,8,4,7,3,
{1}1h[1:3],,,,,,E


Re:MASTER

(257)
{4}37,3,4,4,25,5h[2:1],,6,62,2,3,3,47,4,5,5,26,6,5,5,47,4h[2:1],,3,37,7,6,2s6[4:3]/6s2[4:3],,,,,
3/7^5[2:1],3,4,4,4^2[2:1]/5,5,,6,2/6^8[2:1],2,1,1,1^3[2:1]/8,8,1,,
4/5^8[2:1],4,3,3,1/2^5[2:1],1,8,8,6/7^2[2:1],5,4,3,{8}2,2,7,7,{24}1b,2,3,4,5,6,7,8,1,2,3,4,

{8}7-4[8:1],7,2-5[8:1],2,8-4[8:1],8,1-5[8:1],1,7-3[8:1],7,2-6[8:1],2,8^5[8:1],,{16}84,3,2,1,
{8}8-3[8:1],8,7-4[8:1],7,1-4[8:1],1,8-5[8:1],8,2-5[8:1],2,1-6[8:1],1,4,4,3,3,
2-5[8:1],2,7-4[8:1],7,1-5[8:1],1,8-4[8:1],8,2-6[8:1],2,7-3[8:1],7,1^4[8:1],,{16}15,6,7,8,
{8}1-5[8:1],1,2-4[8:1],2,8-6[8:1],8,1-5[8:1],1,7b^1[8:1],,7b/1b,,4bw8[8:1],,,,
2-5[8:1],2,7-4[8:1],7,1-5[8:1],1,8-4[8:1],8,2-6[8:1],2,7-3[8:1],7,1^4[8:1],,{16}15,6,7,8,
{8}1-6[8:1],1,2-5[8:1],2,8-5[8:1],8,1-4[8:1],1,7-4[8:1],7,8-3[8:1],8,5,5,6,6,
7b/8b,78,78,78,1b/6b,16,1b/6b,,1b/2b,12,12,12,3b-1[8:1]/8b-4[8:1],,3b/8b,,
5,5,46,46,37,37,28,28,1b-5[8:1],,5b-1[8:1],,1bw5[8:1],,,,

3-7[8:1]/7,,5,,4-8[8:1]/8,,5-1[8:1],5,2-5[8:1],,6-2[8:1],6,3,3,37,,
{4}1-7[4:1],7-2[4:1],2-6[4:1],6-3[4:1],3V51[8:3],5h[8:1],,3b/7b,
{8}6-2[8:1]/2,,4,,5-1[8:1]/1,,4-8[8:1],4,7-4[8:1],,3-7[8:1],3,,5,15,,
{4}4v2[8:1]/8v6[8:1],48,1v3[8:1]/5v7[8:1],15,4h[4:1]/8-5[8:5],8,1-4[8:1],1b,
{8}2h[4:1]/6b,,,1h[4:1]/5b,,,8h[4:1]/4b,,,7h[4:1]/3b,,,2b^5[8:1]/8b^5[8:1],,,,
3-7[8:1]/7,,5,,4-8[8:1]/8,,5-1[8:1],,2-5[8:1],2,6-2[8:1],6,1b-6[8:1],,7b,,
4-8[8:1]/8-4[8:1],,48,,26,,1,1,1,1,1-3[8:1],1-7[8:1],1-4[8:1],1-6[8:1],1-5[8:7],1,{1},3h[2:1]/7h[2:1],

5^3[4:3],5,4^6[4:3],4,6^3[4:3],6,3^6[4:3],3,
{8}6,5,6,5,6,,45,,3h[2:1]/4h[2:1],,,,,,,,3,4,3,4,3,,45,,5h[2:1]/6h[2:1],,,,,,,,
45,,3,4,3-5[8:1],4,3,,6,5,6-4[8:1],5,6,,27,,,,18,18,2-5[8:1]/7-4[8:1],,27,,13,,68,68,,27,2b/7b,,
7-3[8:1],,78,1-5[8:1],,1,8,,1/2-5[8:1],2,7pp4[8:3],7,3,,3,,
2-6[8:1],,12,8-4[8:1],,8,1,,8/7-4[8:1],7,2qq5[8:3],2,6,,6,,
7-3[8:1],,78,1-5[8:1],,1,8,,1/2-5[8:1],2,6qq1[8:3],6,2,,2,,2-6[8:1],,12,8-4[8:1],,8,1,,8b,,,,,,,,
6-2[8:1],,56,4-8[8:1],,4,5,,4/3-8[8:1],3,6qq1[8:3],6,2,,2,,
3-7[8:1],,34,5-1[8:1],,5,4,,5/6-1[8:1],6,3pp8[8:3],3,7,,7,,6-2[8:1],,56,4-8[8:1],,4,5h[16:1],,
4/3-8[8:1],3,6,6h[16:1],,6v7[8:1],6h[16:1],{16}2h[16:1],,,2v3[8:1],,,{4}2h[16:1],
{8}8,8b,8,7,6,5,4,3,{12}2,1,8,7,6,5,{16}4,3,2,1,8,7,6,5,{24}4,3,2,1,8,7,6,5,4,3,2,1,
{32}8,7,6,5,4,3,2,1,8,7,6,5,4,3,2,1,

(8.03125)
{32}8b-4[256:1],,{128},,,5b,{32},,,,

(257)
{4},,7b/8b,1b/2b,{1}1b/8b,,2/7p5[4:3],{8},,,,1,8,1,8,{1}7p5[4:3]/2,{8},,,,4,5,3,6,{1}7p5[4:3]/2,
{4},,5,4qq1[1:1],4/5b,5,5,5,5,5,5,5pp8[1:1],5/4b,4,4,4,4,4,4,4p1[4:3],4/5b,5,5b,5q8[4:3],5/4b,4,
4b,4-1[8:1],4/5b,5,{16}45,6,7,8,1,2,3,4,{4}5b/1b,3b-6[8:1]/7b-2[8:1],,,,,

1b/2b,7b/8b,4b-1[8:1]/5b-8[8:1],4b/5b,
2-4[8:1],1-5[8:1],8-4[8:1],7-5[8:1],8-4[8:1],1-5[8:1],2-4[8:1],
{8}7,7,1-3[8:1]/8-4[8:1],,18,,1-5[8:1]/8-6[8:1],,18,,8/1^4[8:1],,{16}15,6,7,8,1,,1,,{8}2b/8b,,
4-6[8:1],,4/8-4[8:1],,8/2-8[8:1],,26,6,,7-4[8:1],8-3[8:1],7,8,,26,,
48,,2^5[8:1],1,{4}2/8^5[8:1],8-4[8:1],8^3[8:1],8-4[8:1],8b,2b/6b,
7-5[8:1],8-4[8:1],1-5[8:1],2-4[8:1],1-5[8:1],8-4[8:1],7-5[8:1],
{8}2,2,1-5[8:1]/8-6[8:1],,18,,1-3[8:1]/8-4[8:1],,18,,1/8^5[8:1],,{16}84,3,2,1,8,,8,,{8}1b/7b,,
5-3[8:1],,1-5[8:1]/5,,1/7-1[8:1],,37,3,,5,4,5,2-5[8:1],1-6[8:1],2,1,,
4,5,4,36,27,1pp4[8:5]/8qq5[8:5],18,{4}1b/8b,,,2b/7b,

{8}1-5[8:1]/8,1,6-1[8:1],6,4,4,{16}48,37,26,15,{4}8/4-8[8:1],4/2-5[8:1],2/6^1[8:1],{16}61,2,3,4,
{8}8-4[8:1],8,3-8[8:1],3,5,5,{16}51,62,73,84,{4}1/5-1[8:1],5/7-4[8:1],7/3^8[8:1],{16}38,7,6,5,
{8}1-5[8:1],1,8-6[8:1],8,2-4[8:1],2,1-5[8:1],1,,3,24,15,8b-4[8:1],,8b,,
26,,3/7-4[8:1],37,3-8[8:1]/7b,,3b,,{24}5,6,7,8,1,2,3,4,5,6,7,8,1,2,3,4,5,6,{8}2b/7b,,
1/8-4[8:1],8,8/3-8[8:1],3,53,5,{16}51,62,73,84,{4}1/5-1[8:1],5/7-4[8:1],7/3^8[8:1],{16}38,7,6,5,
{8}1-5[8:1],1,1/6-1[8:1],6,46,4,{16}48,37,26,15,{4}8/4-8[8:1],4/2-5[8:1],2/6^1[8:1],{16}61,2,3,4,
{8}8-4[8:1],8,1-3[8:1],1,7-5[8:1],7,8-4[8:1],8,,6,57,48,1bw5[8:1],,1b,,
37,37,26,26,15,15,84,84,{16}73,8,1,2,3,2,1,8,{32}1,2,3,4,5,6,7,8,1,2,3,4,5,6,7,{64}8,1,
(265)
{16}2,1,2,1,2,1,2,1,3,8,3,8,3,8,3,8,
(270)
{16}4,7,4,7,
(275)
{16}4,7,4,7,
(280)
{16}5,6,5,6,
(285)
{16}5,6,5,6,
(290)
{16}5,6,5,6,5,6,5,6,5,6,5,6,
{32}4b,3,2,1,8,7,6,5,4b,3,2,1,8,7,6,5,{8}4b,8b,3b,7b,2b,6b,
(24)
1bw5[86:1],,,,,,,E

  • 修正箇所等ありましたら修正・加筆おねがいします。 -- Sea (2019-01-16 15:43:15)
  • 7-3[8:1],,7/8,1-5[8:1],,1,8,,2-5[8:1]/1,2,7pp4[8:3],7,3,,3,,  の箇所でエラーはきました... -- ichi329 (2019-01-23 23:14:29)
  • Re:MASTER追加しました。修正等ありましたらよろしくお願いします。 -- けもがみ (2021-05-22 12:15:12)
  • Re:MASTER最後の連打のBPMを修正しました。 -- TYIL(2023-09-09 13:25:55)
名前:
コメント:

タグ:

+ タグ編集
  • タグ:

このサイトはreCAPTCHAによって保護されており、Googleの プライバシーポリシー利用規約 が適用されます。

最終更新:2023年09月09日 13:26