[宴]Oshama Scramble! (Cranky Remix)

BPM 属性 COMMENT
190 ぼくらのかんがえたさいきょうのまいまい

属性:宴

(190){4}
3h[4:14],,4,,4h[4:8],,5,,5h[4:6],,6,,6h[4:2],,4b,,
6h[4:14],,5,,5h[4:8],,4,,4h[4:6],,3,,3h[4:2],,5b,,

{8}
6,,,,2-8[8:1]/3-8[8:1]/4-8[8:1],,,,6,,6,6,2-8[8:1]/3-8[18:1]/4-8[8:1],,,,
6,,,,2-8[8:1]/3-8[8:1]/4-8[8:1],,,,,6,,6,2-8[8:1]/3-8[8:1]/4-8[8:1],6,432,,

3,,,,5-1[8:1]/6-1[8:1]/7-1[8:1],,,3,,3,,3,5-1[8:1]/6-1[8:1]/7-1[8:1],,,,
3,,,,5-1[8:1]/6-1[8:1]/7-1[8:1],,3,,

{4}3>1[8:1]/4p8[8:1],,5q1[8:1]/6<8[8:1],,
{16}45,,34,56,34,56,34,56,3-8[8:1]/4-8[8:1],,,,7b,,,,

45,,2,4,3,,7,5,6,,2,4,3,,7,5,6,,2,4,3,,7,5,6b<1[8:1],,,,2,,,,
45,,7,8,7,,45,,45,,2,1,2,,45,,3456,,3456,,2367,,2367,,
1/2-4[8:1]*-5[8:1]/7-4[8:1]*-5[8:1]/8,,,,2b/7b,,,,

45,,7,5,6,,2,4,3,,7,5,6,,2,4,3,,56,,78,,12,,3b>8[8:1]/4b,,,,7,,7,,
{8}6,57,48,1h[8:2]/3,,8,26,35,,
3478,,1256,,1h[8:2]/4h[8:2]/5h[8:2]/8h[8:2],,,

{4}
5w1[8:1],5,4w8[8:1],4,5w1[8:1],1?w5[8:1],5?w1[8:1],,

{16}
45,,7,5,6,,47,,56,,2,4,3,,25,,
{4}3p7[8:1]*-8[8:1]/4-7[8:1]*q8[8:1],,
1-3[8:1]*-4[8:1]*-5[8:1]*-6[8:1]*-7[8:1],1b,

4w8[8:1],4,5w1[8:1],5,
{8}1256,1256,2367,2367,3-1[8:1]/4-1[8:1]/7-5[8:1]/8-5[8:1],,,,
2-4[8:1]*-5[8:1]/8-5[8:1]*-6[8:1],,28,,1-3[8:1]*-4[8:1]/7-4[8:1]*-5[8:1],,17,,
{32}1b$,2$,3$,4$,5$,6$,7$,8$,1b$,2$,3$,4$,5$,6$,7$,8$,{4}1b-5[8:1],,

{8}
37,1-5[8:1],,1>3[8:1]*<7[8:1],,1-4[8:1]*-5[8:1]*-6[8:1],,1,,4,5,6,78,1,78,6,
{16}7-4[8:1]*-5[8:1],8,7,8,7,,,,2-4[8:1]*-5[8:1],1,2,1,2,,,,
13,,,,68,,,,{32}3456,2,7,1,8,,,,,2b/7b,,,,,,,

{8}
26,8-4[8:1],,8>2[8:1]*<6[8:1],,8-3[8:1]*-4[8:1]*-5[8:1],,8,,
5,4,3,12,8,12,3,12,3,4,5,78,6,5,4,18,,,,45,,1b/2b/7b/8b,,

{8}
4/8<5[8:1],,4/8>3[8:1],,4/8-5[8:1],,4/8-3[8:1],,4/8V64[8:1],,4/8V24[8:1],,
58,6,7,8,
1-5[8:1]/2-4[8:1],,1-7[8:1]/2-6[8:1],,1-5[8:1]/2-4[8:1],,1-7[8:1]/2-6[8:1],,
12,,4,4,5,28,4,71,

1>4[8:1]/5,,1<6[8:1]/5,,1-4[8:1]/5,,1-6[8:1]/5,,1V35[8:1]/5,,1V75[8:1]/5,,
14,3,2,1,
78,6,45,3,12,3,45,6,1278,,,,45,,1b/2b/3b/6b/7b/8b,,

1>4[8:1]*-4[8:1]/5,,1<6[8:1]*-6[8:1]/5,,1>4[8:1]*-4[8:1]/5,,1<6[8:1]*-6[8:1]/5,,
1>4[8:1]*-4[8:1]/5,,1<6[8:1]*-6[8:1]/5,,14,3,2,1,

1-6[8:1]/2-6[8:1]/7<6[8:1]/8-6[8:1],,1-4[8:1]/2>4[8:1]/7v4[8:1]/8-4[8:1],,
1-6[8:1]/2-6[8:1]/7<6[8:1]/8-6[8:1],,1-4[8:1]/2>4[8:1]/7v4[8:1]/8-4[8:1],,
1278,,35,35,4,17,5,28,

4/8<5[8:1]*-5[8:1],,4/8>3[8:1]*-3[8:1],,4/8<5[8:1]*-5[8:1],,4/8>3[8:1]*-3[8:1],,
4/8<5[8:1]*-5[8:1],,4/8>3[8:1]*-3[8:1],,48,5,6,7,

{16}
8,1,7,2,8,1,7,2,{32}8,7,6,5,4,3,2,1,8,7,6,5,4,3,2,1,8b,,,,,,,,
{12}3,4,2,6,5,7,{32}56,12,7,3,8,4,1,5,{8}2b/6b,,

7,5,8h[8:2],,1h[8:2],,4h[1:1],,2,,3,,4,,3,,
2,4,1h[8:2],,8h[8:2],,5h[1:1],,7,,6,,5,,6,,
7,5,8h[8:2],,2h[8:2],,6h[8:2],,34,,3h[8:2],,56,,
6h[8:2]/7h[8:2],,45,,2h[8:2]/3h[8:2],,45,,
18,,1-5[8:1]/2-5[8:1]/7-4[8:1]/8-4[8:1],,1278,,,,3b/6b,,

2,4,1h[8:2],,8h[8:2],,5h[1:1]/6h[1:1],,7,,6,,5,,6,,
7,5,8h[8:2],,1h[8:2],,3h[1:1]/4h[1:1],,2,,3,,4,,3,,
2,4,1h[8:2],,7h[8:2],,5h[1:1]/6h[1:1],,6,,5,,6,,
7h[8:4]/8h[8:4],,1,,6,,18,18,,1,1,2,34,2,56,7,

{1}
4$/5w1[8:4]/5qq1[8:4]/5pp1[8:4],
{16}27,,4,5,4,,45,,67,,,,23,,,,
{1}4w8[8:4]/4qq8[8:4]/4pp8[8:4],
{16}27,,4,5,4,5,4,5,34,,,,8b,8b,8b,8b,

8b,,,57,,,2/4h[8:3]/5h[8:3],,,,1b,,1b,,,,
18,,,24,,,4h[8:3]/5h[8:3]/7,,,,8b,,8b,,,,
18,,,57,,,2/4h[8:3]/5h[8:3],,,,1b,,1b,,,,
18,,,23,,,457,,8b,,4b,5b,4b,5b,4b,5b,

{8}
4h[8:2],1,5h[8:2],8,4h[8:2],1,5h[8:2],8,
4h[8:2],18,5h[8:2],18,4h[8:2],18,5h[8:2],18,
48,48,37,37,26,26,15,15,

{16}
2,7,2,7,2,7,2,7,23,67,23,67,23,67,23,67,
1w5[8:22],1,1,1,1,1,1,1,1,1,1,1,1,1,1,1,
1,1,1,1,1,,,,1,1,1,1,1,,,,1,1,1,1,1-5[8:1],,,,{4}1b/2b/8b,,

{16}
18,,2,4,3,,7,5,6,,2,1,2,,7,8,7,,
2,1,4-2[8:1]*-1[8:1]*-6[8:1]*-7[8:1]*-8[8:1],,,,3b/4b/5b,,,,,,,,
{32}12,,,,,,,,6h[8:1]/8,7,6,5,,,,,78,,,,,,,,1/3h[8:1],2,3,4,,,,,
{8}18,27,36,45,
4>1[8:1]*-1[8:1]*-2[8:1]*-8[8:1]/5-1[8:1]*-7[8:1]*-8[8:1]*<8[8:1],,4b/5b,,

{16}
18,,2,4,3,,7,5,6,,2,1,2,,7,8,7,,2,1,4,,
7,8,5-1[8:1]*-2[8:1]*-3[8:1]*-7[8:1]*-8[8:1],,,,4b/5b/6b,,,,
18,,7,8,7,,2,1,2,,48,,37,,1/2/5h[32:26]/6h[32:26],,,,
{32}1,2,3,4,,,,,2,1,8,7,,,,,1,2,3,4,,,,,,,,,

{16}
12,,3,4,3,,6,5,6,,8,7,8,,1,2,1>4[8:1],,,,
{32}1<6[8:1],2,3,4,,,,,
1w5[8:1]*-5[8:1]*s5[8:1]*z5[8:1],8,7,6,,,,,1b,,,,,,,,,

1<5[8:1]/8,,,,,,,,1/6h[8:1]8,7,6,5,,,,1/8>4[8:1],,,,,,,,2h[8:1]/8,1,2,3,4,,,,
{8}18,27,36,45,
4>1[8:1]*-1[8:1]*-2[8:1]*-8[8:1]*w8[8:1]/5-1[8:1]*w1[8:1]*-7[8:1]*<8[8:1]*-8[8:1],,3b/4b/5b/6b,,

{16}
45,,2,4,3,,7,5,6,,1,4,3,,
{8}78,24,57,13,68,2b/3b/6b/7b,,1b/4b/5b/8b,,

{32}
1b,2,3,4,5h[8:3],,,,18,,,,18,,,,8b,7,6,5,4h[8:3],,,,18,,,,18,,,,
{16}1,8,2,7,1,8,3,6h[8:4],{32}1b,2,3,4,5,6,7,8,1b,2,3,4,5,6,7,8,

{8}
1b>8[4:5],,,,,,,,1<5[4:1],,,,,,,
{16}8z4[4:3],8,{8}8,{4},,,,

(47.5){32}
,2h[16:4]/6h[16:4]/2?-6[32:1],

{4},,,E




  • 深夜テンションで作ったのでちょっと違うところがあるかもしれません。 -- MIRACLE (2020-03-28 02:18:57)
名前:
コメント:

タグ:

+ タグ編集
  • タグ:

このサイトはreCAPTCHAによって保護されており、Googleの プライバシーポリシー利用規約 が適用されます。

最終更新:2020年03月28日 02:29