ナイト・オブ・ナイツ

アーティスト ビートまりお(COOL&CREATE)

BPM EASY BASIC ADVANCED EXPERT MASTER Re:MASTER
180 2 4 7 11+ 13 14

EASY


BASIC

(180.0){1}3,
{1}3,
{1}4,
{1}4,
{1}5,
{1}5,
{2}6,6,
{1}6,
{1}6,
{1}6,
{1}5,
{1}5,
{1}4,
{1}4,
{2}3,3,
{2}2,2b,
{2}2,2,
{2}1,1,
{2}8,8,
{2}7,7,
{2}7,7,
{2}8,8,
{2}1,1,
{1}2h[2:1],
{2}3/4,3,
{2}4,4,
{2}5,5,
{2}6,6,
{2}5/6,6,
{2}5,5,
{2}4,4,
{1}4h[2:1],
{1}5,
{1}5,
{1}6,
{1}6,
{1}7,
{1}7,
{2}7/8,7/8,
{1}7/8,
{1}1,
{1}1,
{1}2,
{1}2,
{1}3,
{1}3,
{2}4,3/4,
{2}4,3/4,
{1}3-6[4:3],,
{1}7-2[4:3],,
{1}1-5[4:3],,
{1}8-4[4:3],,
{2}1,1,
{1}2h[2:1],
{2}8,8,
{1}7h[2:1],
{2}2,2,
{1}3h[2:1],
{2}7,7,
{1}6h[2:1],
{4}3,3,3,,
{4}4,4,4,,
{4}5,5,5,,
{4}6,6,6,,
{4}6,6,6,,
{4}5,5,5,,
{2}4,3,
{4}2,2,2b,,
{4}1,1,1,,
{4}8,8,8,,
{4}2,2,2,,
{4}7,7,7,,
{1}1h[2:1],
{1}8h[2:1],
{2}7,8,
{1}1h[1:1],,
E

ADVANCED

(180.0){4}1,2,3,4,
{4}5,6,7,,
{4}8,7,6,5,
{4}4,3,2,,
{4}1,2,3,4,
{4}8,7,6,5,
{4}3,3,2,2,
{4}1,1,8,8b,
{4}7,8,1,2,
{4}2,1,8,7,
{4}6,5,4,3,
{4}3,4,5,6,
{4}7,7,8,8,
{4}1,1,2,2,
{4}3,4,5,6,
{4}7,8,1,2b,
{4}2,2,1,1,
{4}8,8,7/8,7/8,
{4}7,7,8,8,
{4}1,1,1/2,1/2,
{4}2,2,7,7,
{4}1,1,1h[4:1]/8h[4:1],,
{2}2h[4:1],7h[4:1],
{4}1h[4:1],8h[4:1],1b,,
{4}3,3,5,5,
{4}4,4,6,5/6,
{4}7,7,1,1,
{4}8,8,2,1/2,
{4}3,3,4,4,
{4}5,5,6h[4:1],,
{2}4/5,2/7,
{4}1/2,1/8,7/8,1b/8b,
{4}2,2,1,1,
{4}7,7,8,8,
{4}1,8,1,8,
{4}2,7,1/8,1/8,
{4}1,7,4,8,
{4}3,5,2,6,
{2}3/4,5/6,
{4}3/4,4/5,5b/6b,,
{4}7,6,5,4,
{4}3,4,5,6,
{4}2,1,8,7,
{4}8,1,2,1/2,
{4}3,2,1,8,
{4}6,7,8,1,
{2}1/8,1/2,
{4}7/8,5/6,3/4,1b/2b,
{4}2,2,,3,
{4},4,,5,
{4},1,,8,
{4},7,,6,
{1}6-3[2:1],
{1}2-7[2:1],
{2}8,8,
{4}2,2,1,1/8,
{4}1,2,3,2,
{4}1,8,1,2,
{4}3,4,5,6,
{4}5,4,3,2,
{4}1,8,7,8,
{4}1,8,7,6,
{2}5h[2:1],4h[2:1],
{4}7,8,1,1b/8,
{4}7,7,7-3[4:1],,
{4}1,1,1-5[4:1],,
{4}8,8,8-4[4:1],,
{4}2,2,2-6[4:1],,
{4}7,8,8-4[4:1],,
{4}2,1,1-5[4:1],,
{2}4h[2:1],5h[2:1],
{4}2,1,1/8,,
{4}1,3,5,7/8,
{4}8,6,4,1/2,
{4}2,1,8,7/8,
{4}6,5,4,3/4,
{1}1-4[2:1],
{1}8-5[2:1],
{2}4/5,2/7,
{4}1/5,2/6,3/7,4/8,
{1}1b/5b,
E

EXPERT

(180){8}
2,2,1,,8,,8,,
7,7,6,,6,5,4,,
2,2,3,,4,,4,,
5,5,6,,6,7,8,,
7,7,6,,5,,5,,
4,4,3,,3,2,1,,
18,,,,36,,,,
45,,36,,27,,1b/8b,,
2,2,1,,8,1,8,,
7,7,6,,6,5,4,3,
2,2,3,,4,3,4,,
5,5,6,,6,7,8,1,
7,7,6,,5,6,5,,
4,4,3,,3,2,1,,
6,7,6,,3,2,3,,
4b/5b,,3b/6b,,2b/7b,,1b/8b,,

2,2,1,1,8,8,7,7,
6,5,4,3,2-6[8:1],,,,
7,7,8,8,1,1,2,2,
3,4,5,6,7,3,5,1,
2,2,1,1,8,8,7,7,
6,5,4,3,2-6[8:1],,,,
35,,,,46,,,,
28,,37,,46,,5b,,
6,6,5,5,4,4,3,3,
2,1,8,7,6-2[8:1],,,,
3,3,4,4,5,5,6,6,
7,8,1,2,3,7,1,5,
6,6,5,5,4,4,3,3,
2,1,8,7,6-2[8:1],,,,
1,,,3,5,{16}4,5,{8}4,6,
3^6[4:1],,,,,,,,

2,2,6,6,4,4,8,8,
2,1,8,7,8-4[8:1],,,,
1,1,5,5,3,3,7,7,
2,1,8,7,1,{16}8,1,{8}8,,
1,8,2,7,3,6,4,,
5,4,6,3,7,2,8,,
3,3,4,4,5,5,6,6,
7,8,1,2,1b,,8b,,
7,7,3,3,5,5,1,1,
7,8,1,2,1-5[8:1],,,,
8,8,4,4,6,6,2,2,
7,8,1,2,8,{16}1,8,{8}1,,
8,1,7,2,6,3,5,,
4,5,3,6,2,7,1,,
4,5,6,7,8,1,2,3,
4b/5b,45,3b/6b,36,2b/7b,27,1b/8b,,

8h[4:1],,7,,6h[8:3],,7,7,
,,4h[4:1],,5h[4:1],,4,,
1h[4:1],,2,,3h[8:3],,2,2,
,,5h[4:1],,4h[4:1],,5,6,
8h[4:1],,7,,6h[8:3],,7,7,
,,4h[4:1],,5h[4:1],,4,,
1h[4:1],,2,,3h[8:3],,2,2,
,,5h[4:1],,4h[4:1],,5,,
78,,12,,27,,45,45,
,,28,,37,,46,,
21,,87,,72,36,,54,
,,71,,62,,53,,
78,,12,,27,,78,78,
12,,78,,27,,45,45,
36,,,,18,,,,
5,{16}4,5,4,,6,3,6b,,,,3b,,,,

2,,1,,2,1,2,,7,,8,,7,8,7,,
6,,5,,4,,3,,2-6[8:1],,,,,,,,
7,,8,,7,8,7,,2,,1,,2,1,2,,
3,,4,,5,,6,,7b,,5b,,3b,,1b,,
7,,8,,7,8,7,,2,,1,,2,1,2,,
3,,4,,5,,6,,7-4[8:1]/8-3[8:1],,,,,,,,
36,,,,,,,,27,,,,,,,,
1,8,1,8,2,7,2,7,3b,,,,6b,,,,

2,,1,,2,1,2,,7,,8,,7,8,7,,
1,,8,,1,8,1,,2b/7b,,2b/7b,,4b/5b,,4b/5b,,
3,,4,,3,4,3,,6,,5,,6,5,6,,
4,,5,,4,5,4,,3b/6b,,3b/6b,,1b/8b,,1b/8b,,
1^4[8:1]/8^5[8:1],,,,,,,,4,,5,4,5,,3,,
,,4,,5,,6,,5,,4,,3,,2,,
1,,,,,,,,1,,8,1,8,,1^6[8:1],,
{1}
6^3[8:1],
,,,,
E

MASTER

(180){4}
2,3,4,5,
7,6,5,4,
2,1,8,7,
5,6,7,8,
17,8,6,4,
35,4,6,8,
17,4,35,8,
56,34,12,7b/8b,
{8}1,1,3,3,5,5,7,7,
8,8,6,6,4,4,2,2,
3,7,3,7,2,6,2,6,
1,5,1,5,8,4,8,4,
37,8,1,2,3,4,5,6,
37,2,1,8,7,6,5,4,
23,4,5,6,78,1,2,3,
{4}15,48,37,2b/6b,

{16}
1,,8,,2,1,3,,5,,4,,6,5,7,,
3,,4,,4,5,3,,5b,,7b,,1b,,3b,,
8,,1,,7,8,6,,4,,5,,3,4,2,,
6,,5,,5,4,6,,4b,,2b,,8b,,6b,,
2,,1,,3,4,3,,7,,8,,6,5,6,,
4,,5,,2,8,1,,3b,,5b,,7b,,1b,,
8,,1,,7,,2,,6,,3,,5,,4,,
5,3,6,4,7,5,6,4,5,3,4,2,8b,,,,

8,,2,,6,5,7,,1,,7,,3,4,2,,
6,,8,,2,4,2,,8b,,6b,,4b,,2b,,
3,,2,,1,8,2,,8,,2,,6,4,5,,
3,,5,,8,7,1,,3b,,5b,,7b,,1b,,
5,,1,,6,7,6,,4,,8,,2,1,2,,
6,,2,,4,3,4,,3b,,1b,,7b,,5b,,
{8}1,2,3,4,5,6,7,8,
12,,47,,38,,5b/6b,,

2,3,6,5,7,6,8,1,
3,8,2,1,7,8,1,2,
2,1,6,5,3,4,7,8,
3,6,1,8,6,5,4,3,
46,5,4,3,24,3,4,5,
46,5,6,7,68,7,8,1,
{2}28,18,
{4}14,27,58,3b/6b,

{16}
2,,5,,3,4,2,,7,,4,,6,5,7,,
2,,1,,8,7,1,,8,,4,,2,,6,,
1,,5,,4,6,4,,8,,4,,5,3,5,,
3,,7,,8,6,8,,7,,3,,6,,4,,
3,,8,1,8,,3,,2,,1,,8,,7,,
{8}6,5,4,5,6,7,8,1,
12,2,1,1,78,7,8,8,
{4}23,34,56,6b/7b,

{8}
3,,2,,1,,8,8h[8:3],
,,6-1[8:1],,8^3[8:1],,,,
6,,7,,8,,1,2h[8:3],
,,3-8[8:1],,1^6[8:1],,,,
7,,1,,3,,5,4h[8:3],
,,3^8[8:1],,4-1[8:1],,,,
8h[4:1],,6h[4:1],,4h[4:1],,2,8h[8:5],
,,6,,3h[4:1],,1b,1b,

3,4,6,5,3,5,4,6,
2,1,7,8,2,8,1,7,
1,2,3,4,5,6,7,8,
8,7,6,5,4,3,2,1,
2,18,7,18,3,18,6,18,
3,24,4,35,6,57,5,46,
{16}
2,1,3,8,2,,7,8,6,1,7,,1,8,2,7,
4,5,3,6,4,7,2,5,3,6,4,5,3b,,,,

3,,2,,1,7,2,8,4,,6,,8,1,7,2,
6,,4,,8,3,1,2,8b,,6b,,4b,,2b,,
6,,1,,7,1,8,2,5,,3,,7,8,6,1,
7,,3,,1,2,8,3,4b,,6b,,8b,,2b,,
8,,3,,6,5,7,4,5,,1,,4,3,5,2,
6,,7,,3,6,4,5,1b,,3b,,5b,,7b,,
{2}8h[4:3],1h[4:1],
{16}2,1,3,8,4,7,5,6,4h[4:1],,,,6b,,,,

8,,2,,6,5,6,5,7,,1,,4,3,4,3,
6,,8,,3,1,3,1,3b,,7b,,1b,,5b,,
3,,2,,1,7,2,8,3,,5,,1,5,3,7,
4,,7,,2,8,3,5,4,8,1,6,2,8,1,7,
1h[8:3],,,,,,8,2,8,,6,,4,,2h[8:3],,
,,1,,8,,7,,3,4,2,5,1,6,8,7,
1b,,,,,,,,18,,4,5,4,,18,,
{4}1-4[8:1],1-6[8:1],1-5[8:1],1^6[8:3],
{1},,,,
E

Re:MASTER

(180){16}
26,,7,,4,5,,3,,7,,2,8,1,7,2,
,6,5,,3,4,,6,,3,,7,4,,5,,
37,,2,,5,4,,6,,2,,7,1,8,2,7,
,3,4,,6,5,,3,,6,,2,5,,4,,
26,,7,,4,5,,3,,7,,2,8,1,7,2,
,6,5,,3,4,,6,,3,,7,4,,5,,
37,,2,,5,4,,6,,2,,7,1,8,2,7,
,3,4,,6,5,,27,,8,1,7,2,6,3,5,
46,,3,,8,1,,7,,3,,6,4,5,3,6,
,2,1,,7,8,,2,,7,,3,8,,1,,
37,,5,,1,8,,2,,6,,3,5,4,6,3,
,7,8,,2,1,,7,,2,,6,1,,8,,
26,,3,,8,1,,7,,3,,6,4,5,3,6,
,2,1,,7,8,,2,,7,,3,8,,1,,
37,,5,,1,8,,2,,6,,3,5,4,6,3,
,7,8,,2,1,,36,,45,,5,4,6,3,7,
2b/8b,,6,,3,4,3,,26,,3,,6,5,6,5,
46,,7,,1,8,1,8,17,,17,,28,,28,,
17,,3,,6,5,6,,37,,6,,3,4,3,4,
35,,2,,8,1,8,1,28,,28,,17,,17,,
25,,7,,2,1,2,,37,,2,,7,8,7,8,
17,,6,,4,5,4,5,46,,{24}8,7,6,{16}5,,36,,
47,,6,5,6,,3,,25,,3,4,3,,6,,
37,,4,5,36,,27,,{24}1-5[16:1]/8-4[16:1],27,36,{16}45,,1b/8b,,,,
37,,2,,7,8,7,,16,,7,,3,4,3,4,
25,,6,,2,1,2,1,38,,38,,27,,27,,
25,,6,,2,1,2,,38,,2,,6,5,6,5,
47,,3,,7,8,7,8,16,,16,,27,,27,,
46,,3,,6,5,6,,47,,6,,2,1,2,1,
38,,7,,3,4,3,4,25,,{24}1,2,3,{16}4,,18,,
25,,3,4,3,,6,,47,,{24}18,27,36,{8}45,26,
4^1[16:1]/8^5[16:1],,4q8[16:1]/8q4[16:1],,4^1[16:1]/8^5[16:1],,4b/8b,,{16}
4,,6,,2,1,2,,8,,3,,5,4,5,4,
6,,2,,7,8,7,8,16,,25,,34,,16,,
5,,3,,7,8,7,,1,,6,,4,5,4,5,
3,,7,,2,1,2,1,38,,{24}18,27,36,{16}45,,27,,
18,,2,1,2,,3,,4,5,4,,6,,7,,
48,,37,,26,,15,,48,,37,,26,,15,,
28,,1,,6,5,6,,17,,8,,3,4,3,4,
25,,3,,8,1,7,2,18,,{24}18,27,36,{16}45,,37,,
1,,7,,3,4,3,,5,,2,,8,1,8,1,
7,,3,,6,5,6,5,47,,38,,12,,47,,
8,,2,,6,5,6,,4,,7,,1,8,1,8,
2,,6,,3,4,3,4,25,,{24}18,27,36,{16}45,,27,,
18,,7,8,7,,6,,5,4,5,,3,,2,,
15,,26,,37,,48,,15,,26,,37,,48,,
17,,8,,3,4,3,,28,,1,,6,5,6,5,
47,,6,,1,8,2,7,{8}4-1[16:1]/5-8[16:1],36,4b/5b,,
6h[4:1],5,4h[4:1],5,7h[4:1],5,3h[8:1],1h[8:3],
,,8^3[16:1],,8^5[16:1],,8,1,
3h[4:1],4,5h[4:1],4,2h[4:1],4,6h[8:1],8h[8:3],
,,1^6[16:1],,1^4[16:1],,1,8,
6h[4:1],4,3h[4:1],5,7h[4:1],4,2h[8:1],1h[8:3],
,,8^3[16:1],,8^5[16:1],,8,1,
37,4,5,1,26,5,3,8,{16}
2,1,3,8,4,7,5,6,3,4,2,5,1b/6b,,,,{8}
2h[4:1],1,8h[4:1],1,3h[4:1],1,7h[8:1],5h[8:3],
,,4^7[16:1],,4^1[16:1],,4,5,
7h[4:1],8,1h[4:1],8,6h[4:1],8,2h[8:1],4h[8:3],
,,5^2[16:1],,5^8[16:1],,5,4,
1b/3b,2,7,4,1,6,3,8,
1b/6b,7,2,5,8,3,6,1,{16}
7b,8,6,1,5,2,4,3,6b,5,7,4,38,,2b/7b,,
,,{24}18,27,36,{16}4b-8[16:1]/5b-1[16:1],,3b/6b,,4b/5b,,,,2b/7b,,,,
35,,2,,7,5,6,,37,,8,,2,5,3,4,
25,,1,,6,5,7,4,35,,68,,13,,25,,
46,,7,,2,4,3,,26,,1,,7,4,6,5,
37,,8,,3,4,2,5,46,,13,,68,,47,,
28,,3,,6,8,7,,26,,5,,3,8,2,1,
37,,4,,7,8,6,1,28,,{24}1,2,3,{16}4-8[16:1],,8,,
4b,,7,1,7-3[16:1],,2,,7b,,2,5,2-6[16:1],,7,,
2b,,7,8,7b,,1,,{32}1b,2,3,4,5,6,7,8,{16}1b/5b,,,,
46,,3,,1,2,1,,25,,6,,8,7,8,7,
26,,7,,1-3[16:1],1,8-4[16:1],8,1-5[16:1],,8-6[16:1],,1,,8,,
35,,6,,8,7,8,,47,,3,,1,2,1,2,
37,,2,,8-6[16:1],8,1-5[16:1],1,8-4[16:1],,1-3[16:1],,8,,1,,{32}
8b,7,6,5,4,3,2,1,{16}48,,8,1,8,,1-5[16:1],,2,,1/3h[4:1],,
,,6,,7,,8,1,7,2,6,3,5-1[16:1],,4,,
5b,,2,3,4-8[16:1],,7,,4b,,7,6,15,,37,,
{4}1-4[16:1]/5-8[16:1],1-6[16:1]/5-2[16:1],1^4[16:1]/5^8[16:1],1qq6[1:1]/5qq2[1:1],
1b/5b,,,,
{1},,
E

  • 今更の白譜面追加 -- 名無しさん (2016-07-30 17:21:49)
名前:
コメント:

タグ:

+ タグ編集
  • タグ:

このサイトはreCAPTCHAによって保護されており、Googleの プライバシーポリシー利用規約 が適用されます。

最終更新:2022年07月15日 15:25