39

アーティスト sasakure.UK × DECO*27

BPM EASY BASIC ADVANCED EXPERT MASTER Re:MASTER
175 2 5 7+ 11 13 13

EASY


BASIC

(175.0){1},,,,,
{4}8h[8:3],,,1h[8:3],
{2},2h[8:3],
{2},1h[8:3],
{4},8h[8:3],,,
{1}7h[8:3],
{4},,7,7,
{4},,8,8,
{4},,1,1,
{4},,2,2,
{4},,3,3,
{4},,2,2,
{2},1h[8:3],
{4},8h[8:3],,,
{4}8,8,,,
{4}7,7,,,
{4}8,8,,,
{4}1,1,,,
{4}2,2,,,
{4}3,3,,,
{8}4h[2:1],,,,,,,2h[8:3],
{2},8-4[2:1],
{4},,,3h[2:1],
{4},,,2h[2:1],
{4},,,1h[2:1],
{4},,,8,
{4}8,,,7,
{4}7,,,8h[4:3],
{8},,,,,,8,8,
{8},1,,1b,,,,,
{2}2,2,
{2}3,3,
{2}2,2,
{2}1,1,
{2}8,8,
{2}7,7,
{2}6,6,
{4}7,,1/8,1b/2b,
{2}8,7,
{2}8,1,
{2}2,3,
{4}4,,5,6h[4:3],
{4},,,4,
{4}4,2,2b,,
{4}3,3,4,,
{4}3,3,2,,
{4}8,8,7,,
{4}8,8,1,,
{4}2,2,2,,
{4}3,3,3,,
{2}1,7,
{4}5,,3,2-5[2:1],{1},
{4},,,6-1[2:1],{1},
{4},,,2h[4:3],
{4},,,3h[4:3],
{4},,,2h[8:3],
{2},1h[8:3],
{4},8h[8:3],,,
{4},1h[8:3],,,
{4}2h[8:3],,,3h[8:3],
{2},4h[8:3],
{4},2h[8:3],,,
{4}1h[8:3],,,8h[8:3],
{4},,,2h[8:3],
{2},4h[8:3],
{4},6h[8:3],,,
{4}8h[8:3],,,1-4[2:1],{1},,,,,,,
{4},,,5-8[2:1],,,,
E

ADVANCED

(175.0){1},,,,,
{1}1-4[2:1],,
{2},5-8[2:1],{1},,
{4},,2,2,
{4}2,2,3,3,
{4}3,3,2,2,
{4}2,2,1,1,
{4}1,1,8,8,
{4}8,8,7,7,
{4}7,7,8h[4:3],,
{4},1h[4:3],,,
{4}8,8,8,8,
{4}7,7,7,7,
{4}8,8,8,8,
{4}1,1,1,1,
{4}2,2,2,2,
{4}3,3,3,3,
{1}2h[4:5],
{2},8-5[2:1],
{4},8h[2:1],,1h[2:1],
{4},2h[2:1],,3h[2:1],
{4},2h[2:1],,1h[2:1],
{4},8h[2:1],,7,
{4}7h[4:3],,,1,
{4}1h[4:3],,,8-5[2:1],
{8},,,,,,1,1,
{8},8,,1b/8b,,2h[8:3],,,
{8}3,3,,2,,8h[8:3],,,
{8}7,7,,8,,1h[8:3],,,
{8}2,2,,1,,8,8,,
{8}7,7,,6,,5,5,,
{8}6,6,,7h[4:1],,8,,1,
{8},2,,3,,4h[1:1],,,
{8},,,,,5h[8:3],,,
{8}4,4h[8:3],,,3,,2b,,
{4}1/8,7,1/8,2,
{4}1/8,7,1/8,3,
{4}4/5,6,4/5,3,
{4}4/5,7,1/8,2h[2:1],
{4},3h[2:1],,2,
{4}2,1,1b,8h[4:1],
{8}7,7,,8,,2h[8:3],,,
{8}3,3,,2,,8h[8:3],,,
{8}7,6,,8,,1,1,,
{8}2,2,,3,,4,4,,
{721}3,,,,,,,,,,,,,,,,,,,,,,,,,,,,,,,,,,,,,,,,,,,,,,,,,,,,,,,,,,,,,,,,,,,,,,,,,,,,,,,,,,,,,,,,,,,,{865}3,,,,,,,,,,,,,,,,,,,,,,,,,,,,,,,,,,,,,,,,,,,,,,,,,,,,,,,,,,,,,,,,,,,,,,,,,,,,,,,,,,,,,,,,,,,,,,,,,,,,,,,,,,,,,,,,,,,,,,,,,,,,,,,,,,,,,,,,,,,,,,,,,,,,,,,,,,,,,,,,,,,,,,,,,,,,,,,,,,,,,,,,,,,,,,,,,,,,,,,,,,,,,,,,,,,,,,{4}2h[4:1],1,{8}8,
{8},7,,6,,8h[8:3],,,
{8}1,1h[8:3],,,8,8h[8:7],,,
{4}7,7,7b,1,
{4}1,2,2,3,
{4}3,4,4,2,
{4}2,1,1,8,
{4}8,7,7,6h[2:1],
{4},5h[2:1],,6,
{8}7,7h[8:3],,,8b,,{4}1^6[2:1],{1},
{8},,,,,,,7,
{8},8,{4}8^3[2:1],,,{1},,
{4},3-8[2:1],,,{1},
{4},,,8-5[2:1],{1},,
{4},,,7h[8:3],
{2},7h[8:3],
{4},7h[8:3],,,
{4},6h[8:3],,,
{4}6h[8:3],,,6h[8:3],
{2},6h[8:3],
{4},6h[8:3],,,
{4}7h[8:3],,,8h[8:3],
{8},,,1,,2,2h[8:3],,
{2},2h[8:3],
{4},2h[8:3],,,
{8}2h[8:3],,,,
E

EXPERT

(175.0){4}7h[8:3],,,7h[8:3],
{2},7h[8:3],
{8},6,,5,7h[8:3],,,,
{4},7h[8:3],,,
{8}7h[8:3],,,,,8,,1,
{8}2h[8:3],,,1,,8,7h[8:3],,
{8},6,,5,6h[8:3],,,7,
{8},1,3,5,4h[8:3],,,3,
{8},1,8h[8:3],,,7,,7,
{8}8h[8:3],,,1,,2,8,6,
{8}7,8b,,,1h[8:3],,,2,
{8}3,2,,1,,8,,7,
{8},6,,,7h[8:3],,,8,
{8}1,8,,7,,6,,5,
{8},4,,,3h[8:3],,,2,
{8}1,2,,3,,4,,5,
{8},6,,,5h[8:3],,,3h[4:1],
{8},,8h[8:3],,,6h[4:1],,7b,
{8}7h[8:3],,,6,5,6,,7,
{8},8,,1,,2,,,
{8}1h[8:3],,,8,7,8,,7,
{8},5,,3,,1,,8,
{8}8h[8:3],,,1,2,1,,8,
{8},6,,4,,5,,7,
{8}7^4[4:1],,,,3h[8:3],,,2-5[4:1],
{8},,,1,1-6[4:1],,,,
{4},7h[2:1],,1h[2:1],
{4},8,,6/2h[2:1],
{4},4h[2:1],,5h[2:1],
{8},,6,,,7,7,,
{8}1,1,,2,,8,7,,
{8}8,1,,2,,,7h[8:7]/8^3[2:1],,
{8},,,,,5,6,5,
{8},2b/4b,,1b/3b,,1/8h[4:1],,7,
{8}6,7,,8,,1/2h[4:1],,3,
{8}4,5,,4,,3/2h[4:1],,1,
{8}8,7,,8,,1,2,3,
{8}4,3,,1,8,7,6h[4:1],,
{8}3,7,,1,,8h[577:290],,6,
{8},4h[2:1],,2^7[2:1],,,,,
{8},,,,,1h[4:1],,2,
{8}3,2,,1,1-4[4:1]/8^5[4:1],,,,
{8},3,3h[8:3],,,2,1h[8:3],,
{8},7,7h[8:3],,,6,5h[8:3],,
{8},3,3h[8:3],,,7,7h[4:1],,
{4}8,1h[4:1],3h[4:1],5h[2:1],
{4},7h[2:1],,6,
{4}5^2[4:1],,1b,1/2h[4:1],
{8}3,3,,8,,7,6h[4:1],,
{8}7,7,,8,,2,3h[4:1],,
{8}1,1,,8,,1,2,3,
{8}4,3,,2,,8,8/7h[4:1],,
{8}6,6,,7,,1h[4:1],,2,
{8}3,2/8h[4:1],,7,,6/2h[8:3],,,
{8}8,8h[8:3],,,1,1h[4:1],,2,
{8}3,4,3,2,1,,1/7,,
{8}6,6/2h[8:3],,,3,3/7h[4:1],,8,
{8}1,8,7,6,5,,1/6,,
{8}8,8/2h[8:3],,,3,3/7h[8:3],,,
{4}6,5/1h[4:1],2h[4:1],3h[2:1],
{4},7h[2:1],,1,
{8}2,2h[8:3],,,8b,,7h[8:3]/8^3[2:1],,
{2},7h[8:3],
{8},,7h[8:3],,,,,1,
{8},2,2h[8:3]/1^6[2:1],,,,,,
{4}2h[8:3],,,2h[8:3],
{2},2h[8:3],
{4},2h[8:3]/3^6[2:1],,,
{4}2h[8:3],,,2h[8:3],
{4},,,7h[8:3]/6^3[2:1],
{2},7h[8:3],
{4},7h[8:3],,,
{4}7h[8:3],,,8^3[2:1],{1},,
{4},4^7[2:1],,,{1},,,,
{4},,,1^6[1:2],{1},,,
E

MASTER

(175){8}
2h[8:3],,,3,,,
4h[8:3],,,5,,,
6h[8:3],,,7,,8,1,8,
7h[8:3],,,6,,,
5h[8:3],,,4,,,
3h[8:3],,,2,,1,8,1,
7,7,7,6-3[8:1],,,
2,2,2,3-6[8:1],,,
7,7,7,6-3[8:1],,2-7[8:1],,,
1,1,1,2-7[8:1],,,
8,8,8,7-2[8:1],,,
1,1,1,2-7[8:1],,6,5,4,
37,2b/6b,,,

{4}
4,34,45,34,
45,24,46,34,
5,56,45,56,
35,13,17,57,
4,56,34,45,
46,35,47,25,
{8}
7-4[8:1],,,2-5[8:1],,,
8-3[8:1],,,1-6[8:1],,,8,,
8,1,8,1,,12,
,18,,78,,1,18,,
2,,6,3,5,4,,67,
,18,,23,,45,,,
3,,3,4,5,6,,78,
,34,,12,,6,56,,
2-5[8:1],,2,7-4[8:1],,7,
1-6[8:1],,1,8-3[8:1],,8,
4,4,
4h[8:3],,,6,
7h[2:1],,,,
5h[8:3],,,3,
2h[2:1],,,,
1h[8:3],,,8,
6h[2:1],,,,
8h[8:3],,,2,
3h[8:3],,,5,
4h[8:3],,,3,
4h[8:3],,,6,
5h[8:3],,,4,
5h[8:3],,,8,
1h[8:7],,,,
,,,
8,18,1b/8b,,2b/7b,,1b/8b,,26,
,34,,78,,45,,37,
,56,,12,,45,,16,
,38,,14,,58,,12,
1,8,1,78,,34,,18,
,56,,12,,67,,4h[4:1],
,6h[4:1],,2h[4:1],,1^4[4:1],,8^5[4:1],
,,,,,,,8-3[8:1],
,1,1,1^6[8:1],,,3b,,1b/8b,
{16}
,,,,7,6,5h[4:1],,,,,,2,,1h[4:1],,
,,,,8,1,2h[4:1],,,,,,1,,8h[4:1],,
,,,,6,5,4h[4:1],,,,,,4,,5h[4:1],,
,,3h[4:1],,,,7h[4:1],,,,1h[4:1],,,,8h[4:1],,
,,,,7,6,5h[4:1],,,,,,,,{8}3,
3,3,3,7,7,7,7,1,
7,8,16,,38,,16,8,
2,1,38,,16,,38,6,
7,8,16,,38,,16,3,
2,1,38,,16,,38,2,
7,2,16,,38,,25,,
47,,16,,38,,27,8^5[8:1],
,2,1^4[8:1],,,7,8^5[8:1],,
8,1,2,1,8,7,,
1b/8b,2,1b/2b,8,1b/8b,7,7b/8b,1,
1b/8b,7,1b/7b,2,2b/8b,7,2b/7b,1,
1b/2b,8,1b/8b,7,7b/8b,1,1b/8b,7,
1b/7b,2,2b/8b,7,7b/8b,2,1b/2b,7,
5-1[8:1],,3,,4-8[8:1],,6,,
5h[4:3],,,,,,,,

7,7,7,6-3[8:1],,,
2,2,2,3-6[8:1],,,
7,7,7,6-3[8:1],,2-7[8:1],,,
1,1,1,2-7[8:1],,,
8,8,8,7-2[8:1],,,
4,4,4,3-6[8:1],,,
5,5,5,6-3[8:1],,,
2,2,2,1-6[8:1],,,
7,7,7,8-3[8:1],,,
2,2,2,1-5[8:1],,4-8[8:1],,,
7,7,7,8-3[8:1],,,
2,2,2,1-6[8:1],,,
8,8,8,7-4[8:1],,,
1,1,1,2-5[8:1],,,
8h[8:3],,,7h[8:3],,,
1h[8:3],,,2h[8:3],,,
8h[8:3],,,7h[8:2],,6,7,8,
1h[8:3],,,2h[8:3],,,
8h[8:3],,,7h[8:3],,,
4h[8:3],,,3h[8:3],,,
5h[8:3],,,6h[8:3],,,
1h[8:6],,,2,,,
8h[8:6],,,7,,,
1h[8:8],,,2,,8,,2,
7h[8:6],,,8,,,
2h[8:6],,,1,,,
6h[8:6],,,5,,,
3h[8:3],,,4,,,
{1},,,
E

名前:
コメント:

タグ:

+ タグ編集
  • タグ:

このサイトはreCAPTCHAによって保護されており、Googleの プライバシーポリシー利用規約 が適用されます。

最終更新:2022年07月10日 14:27