天国と地獄

BPM EASY BASIC ADVANCED EXPERT MASTER
175 2 5 7 8 10

EASY


BASIC


ADVANCED


EXPERT

(175){8}
1,1,8,8,1,1,8,8,
1,8,1,8,1-5[8:1],,,,

2,,3,,4,5,4,,
6,,7,,8,1,8,,
8,,4,,1,,5,,
3,4,3,4,6,5,6,5,

7,,6,,5,4,5,,
3,,2,,1,8,1,,
1,,5,,8,,4,,
8,7,8,7,1,2,1,2,

7,,7,,8,7,1,8,
2,,2,,1,2,8,1,
7,,7,,7,2,1,8,
7,3,2,1,8,7,6,5,

2,,2,,1,2,8,1,
7,,7,,8,7,1,8,
2,,2,,2,8,1,7,
2,8,1,7,2,,,,

1,8,,8,,78,,18,
,12,,12,,18,,12,
,18,,18,,78,,18,
,7,8,1,3,2,1,8,
,18,,18,,12,,18,
,78,,78,,18,,78,
,18,,18,,12,,18,
,2,8,1,7,,,,

{4}1b/2b,1b/8b,7b/8b,6b/7b,
{8}6,5,4,3,4,5,6,,
{4}7b/8b,1b/8b,1b/2b,2b/3b,
{8}3,4,5,6,5,4,4,,
{4}1b/8b,7b/8b,6b/7b,5b/6b,
{8}4,5,6,3,4,5,6,,
{4}1b/8b,1b/2b,2b/3b,3b/4b,
{8}7,6,5,2,3,4,4,,
{4}2b/8b,1b/8b,1b/7b,7b/8b,
{8}4,5,6,5,3,4,5,,
{4}1b/7b,1b/8b,2b/8b,1b/2b,
{8}4,3,2,4,5,4,4,,
{4}6b/8b,1b/7b,2b/8b,1b/3b,
{8}4,5,6,4,3,5,6,,
{4}1b/3b,2b/8b,1b/7b,6b/8b,
{8}4,5,6,7,1,8,8,,

2,2,7,7,2,2,7,7,
1,8,1,8,1-5[8:1],,,,

3h[4:1],,6h[4:1],,4,5,3,6,
2h[4:1],,7h[4:1],,1,8,2,7,
3h[4:1],,6h[4:1],,4,5,3,6,
2,6,7,8,1,2,3,4,
5h[4:1],,4h[4:1],,6,3,7,2,
8h[4:1],,1h[4:1],,7,2,6,3,
5h[4:1],,4h[4:1],,6,3,7,2,
8,2,6,4,5,,,,

8,8,1,1,8,8,1,1,
2,2,1,1,8,8,1,1,
7,7,8,8,1,1,8,8,
7,3,2,1,8,7,6,5,
1,1,7,7,2,2,8,8,
7,7,8,8,1,8,1,1,
2,2,1,1,8,1,7,7,
2,8,1,7,7,,,,

{4}1b/2b,7b/8b,5b/6b,3b/4b,
{8}1,2,3,8,7,6,5,,
{4}7b/8b,1b/2b,3b/4b,5b/6b,
{8}8,7,6,1,2,3,3,,
{4}1b/8b,6b/7b,4b/5b,2b/3b,
{8}1,2,1,8,7,6,5,,
{4}1b/8b,2b/3b,4b/5b,6b/7b,
{8}8,7,8,1,3,2,2,,
{4}1b/8b,2b/3b,6b/7b,4b/5b,
{8}2,3,4,7,6,5,4,,
{4}1b/8b,6b/7b,2b/3b,4b/5b,
{8}7,7,6,2,3,4,4,,
{4}1b/7b,3b/5b,2b/8b,4b/6b,
{8}3,4,3,6,5,6,4,,
{4}2b/8b,6b/8b,4b/6b,2b/4b,
{8}8,7,8,1,2^7[8:1],,,,
2,1,8,1,7,8,1,8,
1,2,8,7,1-5[8:1],,,,
{1},,
E

MASTER

(175){8}
1,1,1,,2,2,2,,
{16}8,7,6,5,4,3,2,1,8b,,,,,,,,

{8}
1,2,1,1,8,7,6,5,
6,1,4,7,2,5,8,,
1,2,3,2,1,8,7,6,
45,3,37,7,17,1,18,2,
3,2,3,3,4,5,6,7,
8,5,2,7,5,1,6,,
68,7,1b/7b,,13,2,2b/8b,,
78,7,67,6,56,5,45,4,

3h[4:2],,8,,7,6,5,4,
2h[4:2],,5,,6,7,8,1,
3h[4:2],,2,,8,7,6,5,
4-8[8:1],,6-1[8:1],,3-8[8:1],,,,
6h[4:2],,1,,2,3,4,5,
7h[4:2],,4,,3,2,1,8,
6h[4:2],,7,,1,2,3,4,
3,2,1,8,7,,,,

8,8-5[8:1],,1-6[8:1],,8-3[8:1],,1-4[8:1],
,8-5[8:1],,1-6[8:1],,8-3[8:1],,1-4[8:1],
,8-5[8:1],,1-6[8:1],,8-3[8:1],,,
2,1,8,7,8,1,2,3,
4,4-1[8:1],,5-2[8:1],,4-7[8:1],,5-8[8:1],
,4-1[8:1],,5-2[8:1],,4-7[8:1],,5-8[8:1],
,4-1[8:1],,5-2[8:1],,4-7[8:1],,,
1,2,3,2,1b,,,,

47,,16,,38,,25,,
6,7,6,5,4,3,2,,
38,,25,,47,,16,,
7,6,7,8,1,2,3,,
25,,38,,16,,47,,
3,2,3,4,5,6,7,,
16,,47,,25,,38,,
2,3,2,1,8,7,6,,

{16}67,,8,2,8,,2,4,2,,4,6,4,,,,
{8}6,7,6,5,4,3,2,,
{16}23,,4,6,4,,6,8,6,,8,2,8,,,,
{8}7,6,7,8,1,2,3,,
{16}23,,1,7,1,,7,5,7,,5,3,5,,,,
{8}3,2,3,4,5,6,7,,
{16}7,8,7,8,7,6,7,6,5,6,5,6,5,,,,
{8}2,3,2,1,8,7,6,,

18,2,3,2,18,7,6,5,
45,3,2,1,8,1b/7b,2b/8b,,

3h[4:2],,8,,7,6,5,4,
2h[4:2],,5,,6,7,8,1,
3h[4:2],,2,,8,7,6,5,
4-8[8:1],,6-1[8:1],,3-8[8:1],,,,
6h[4:2],,1,,2,3,4,5,
7h[4:2],,4,,3,2,1,8,
6h[4:2],,7,,1,2,3,4,
3,2,1,8,7,,,,

8,8-5[8:1],,1-6[8:1],,8-3[8:1],,1-4[8:1],
,8-5[8:1],,1-6[8:1],,8-3[8:1],,1-4[8:1],
,8-5[8:1],,1-6[8:1],,8-3[8:1],,,
2,1,8,7,8,1,2,3,
4,4-1[8:1],,5-2[8:1],,4-7[8:1],,5-8[8:1],
,4-1[8:1],,5-2[8:1],,4-7[8:1],,5-8[8:1],
,4-1[8:1],,5-2[8:1],,4-7[8:1],,,
1,2,3,2,1b,,,,

47,,16,,38,,25,,
6,7,6,5,4,3,2,,
38,,25,,47,,16,,
7,6,7,8,1,2,3,,
25,,38,,16,,47,,
3,2,3,4,5,6,7,,
16,,47,,25,,38,,
2,3,2,1,8,7,6,,

{16}67,,8,2,8,,2,4,2,,4,6,4,,,,
{8}6,7,6,5,4,3,2,,
{16}23,,4,6,4,,6,8,6,,8,2,8,,,,
{8}7,6,7,8,1,2,3,,
{16}23,,1,7,1,,7,5,7,,5,3,5,,,,
{8}3,2,3,4,5,6,7,,
{16}7,8,7,8,7,6,7,6,5,6,5,6,5,,,,
{8}2,3,2,1,8,7,6,,

18,2,3,2,18,7,6,5,
45,3,2,1,8,1b/7b,2b/8b,,
{1},,
E

名前:
コメント:

タグ:

+ タグ編集
  • タグ:

このサイトはreCAPTCHAによって保護されており、Googleの プライバシーポリシー利用規約 が適用されます。

最終更新:2013年08月22日 15:20