脳漿炸裂ガール

BPM EASY BASIC ADVANCED EXPERT MASTER
155 3 4 6 11+ 13+

EASY


BASIC

(155.0){1},,,,
{2}8,8,
{1}8h[2:1],
{2}1,1,
{1}1h[2:1],
{2}7,7,
{1}7h[2:1],
{2}2,2,
{1}2h[2:1],
{4}3,3,,,
{4}4,4,,,
{4}5,5,,,
{4}6,6,,,
{1}6h[2:1],
{1}5h[2:1],
{1}4h[2:1],
{1}3h[2:1],
{1}2-5[4:3],,
{1}7-4[4:3],,
{4}6,6,,,
{4}4,4,,,
{4}2,2,,,
{4}8,8,,,
{4}1/8,1/8,,,
{4}5/6,5/6,,,
{4}3/4,3/4,,,
{1}4h[2:1]/5h[2:1],
{4}3,3-6[2:1],,,{1},
{4}7,7-2[2:1],,,{1},
{4}1,1-5[2:1],,,{1},
{2}3,7,
{4}1h[2:1]/8h[2:1],,,1b/8b,
{4},,8,8,
{4}7,7,6h[2:1],,
{4},,1,1,
{4}2,2,3h[2:1],,
{4},,5,5,
{4}4,4,3h[2:1]/6h[2:1],,
{2},4h[4:1],
{2}6h[4:1],2h[4:1],
{4}8h[4:1],,2,2,
{4}2h[4:1],,3,3,
{4}3,,5,5,
{4}5h[4:1],,4,4,
{4}4b,,7,7,
{4}7h[4:1],,6,6,
{2}6,4h[4:1],
{2}3h[4:1],2h[4:1],
{4}1,1-5[4:3],,,{1},
{4},,,1,
{4},8,,2,
{4},7,,4,
{4},5,,3,
{4},6,,1/2,
{4},1/8,,7/8,
{4},1/8,8,8,
{4}2,2-6[2:1],,,,
E

ADVANCED

(155.0){1},,,,
{4}1,1,2,2,
{4}8,8,7,7,
{4}6,6,5,5,
{4}3,3,4,4,
{4}8,8,7,5/6,
{4}1,1,2,3/4,
{4}8,8,7,5/6,
{4}1,1,2,3/4,
{4}8,8,6,6,
{4}7,7,5,5/6,
{4}1,1,3,3,
{4}2,2,3/4,3/4,
{4}2,2,1,1,
{4}8,8,7,7/8,
{4}6,6,5,5,
{4}4,4,3,3^6[2:1],{1},
{1}7h[1:1],
{1}8h[2:3],
{4},,1,2,
{4}3,3,4,4,
{4}3,4,3,3/4,
{4}6,6,5,5,
{4}6,5,6,5/6,
{4}7,7,2,2,
{4}8,1,8,1/8,
{4}1,2,3,4^7[2:1],{1},
{2}3h[2:1],4,
{2}6h[2:1],5,
{4}3,3/4,6,5/6,
{4}3,3/4,6,5/6,
{2}7h[2:1],6,
{2}2h[2:1],3,
{2}7b,2b,
{8}1,1,8,8,1,1,8b,,
{4},,1/8,1/2,
{4}1/8,7/8,1/8,1-6[4:1]/2-5[4:1],
{4},,3,3/4,
{4}6,5/6,3,3/4,
{4}5/6,5/6,1/8,7/8,
{4}1/8,1/2,1/8,7-4[4:1]/8-3[4:1],
{4},,6,5/6,
{4}3,3/4,6,5/6,
{4}3/4,3/4,4/5,5/6,
{4}4/5,3/4,4/5,5-2[4:1]/6-1[4:1],
{8},,,,7,7,7,,
{8}1,1,1,,8,8,8,,
{8}2,2,2,,4/5,,3/4,,
{4}4/5,5/6,4/5,3-8[4:1]/4-7[4:1],
{8},,,,2,2,2,,
{8}8,8,8,,1,1,1,,
{8}7,7,7b,,6,,5/6,,
{4}3,3/4,6,5/6,
{4}3,3/4,5,5/6,
{4}4,3/4,5,5/6,
{4}4,3/4,6,5/7,
{4}6,5/7,3,2/4,
{4}3,2/4,6,5/7,
{4}3,2/4,6,5/7,
{4}3,2/4,3,2,
{4}1,8-4[4:1],,,
E

EXPERT

(155.0){16}8h[4:1],,,,6h[4:1],,,,5,,,6,,,{8}7,{1},
{16}1h[4:1],,,,3h[4:1],,,,4,,,3,,,{8}2,{1},
{16}8h[4:1],,,,6h[4:1],,,,5,,,6,,,7,,
{16}8-4[8:1],,,,,,,,5,,,6,,,7,,
{16}1h[4:1],,,,3h[4:1],,,,4,,,3,,,2,,
{16}1-5[8:1],,,,,,,,4,,,3,,,2,,
{16}8h[4:1],,,,6h[4:1],,,,5,,,6,,,7,,
{16}8^3[8:1],,,,,,,,5h[16:3],,,6h[16:3],,,7,,
{16}1h[4:1],,,,3h[4:1],,,,4,,,3,,,2,,
{16}1^6[8:1],,,,,,,,4h[16:3],,,3h[16:3],,,2b,,
{8}6,8,4,4,3,1,5,5,
{8}7,5,6,6,2,8,7,8,
{8}3,1,5,5,4,6,2,2,
{8}3,7,2,1,8,7,2,6,
{8}5,6,2,2,4,3,7,7,
{8}8,7,3,3,6,7,8,1,
{8}4,3,7,7,5,6,2,2,
{8}6,5,4,3,2^7[2:1],3^6[2:1],,,
{8},,,,,,4^1[2:1],5^8[2:1],
{8},,,,,,6^3[2:1],7^2[2:1],{1},,
{8}6,6,2,4,3,3,7,5,
{8}3/4,4/5,5/6,4,7,8,1,2,
{8}3,3,7,5,6,6,2,4,
{8}3,1,8,7,6,8,1,2,
{8}3,5,3,4,6,4,6,5,
{8}7,2,5,4,7-3[8:1],2-6[8:1],,,
{8}3,4,5,6,3,5,4,,
{16}3,4,3,2,3,4,3,2,3,,,,,,,,
{16}1,,3,,3,,5,,5,,{721}7,,,,,,,,,,,,,,,,,,,,,,,,,,,,,,,,,,,,,,,,,,,,,,,,,,,,,,,,,,,,,,,,,,,,,,,,,,,,,,,,,,,,,,,,,,,,{817}7,,,,,,,,,,,,,,,,,,,,,,,,,,,,,,,,,,,,,,,,,,,,,,,,,,,,,,,,,,,,,,,,,,,,,,,,,,,,,,,,,,,,,,,,,,,,,,,,,,,,{8}1,
{8}8,6,6,4,4,2,2,8,
{8}1-6[8:1],6-1[8:1],,,8-3[8:1],3-8[8:1],,,
{8}1,7,2,8,1^4[8:1]/7^4[8:1],,,,
{8}4h[2:1]/8h[2:1],,,,,7,3,7,
{8}2,6,2,6,1-5[8:1],,,,
{12}4,{995}6,,,,,,,,,,,,,,,,,,,,,,,,,,,,,,,,,,,,,,,,,,,,,,,,,,,,,,,,,,,,,,,,,,,,,,,,,,,,,,,,,,,{12}3,7,{995}2,,,,,,,,,,,,,,,,,,,,,,,,,,,,,,,,,,,,,,,,,,,,,,,,,,,,,,,,,,,,,,,,,,,,,,,,,,,,,,,,,,,{12}8,1,{995}7,,,,,,,,,,,,,,,,,,,,,,,,,,,,,,,,,,,,,,,,,,,,,,,,,,,,,,,,,,,,,,,,,,,,,,,,,,,,,,,,,,,{12}2,6,{995}3,,,,,,,,,,,,,,,,,,,,,,,,,,,,,,,,,,,,,,,,,,,,,,,,,,,,,,,,,,,,,,,,,,,,,,,,,,,,,,,,,,,{48}7,,,,
{16}4,8,3,7,2,6,1,5,2,6,3,7,4,8,,,
{4},,3b/8b,1b/6b,
{16}4,3,,3,6,,6,,3,,8,,4,7^4[16:3],,7,
{8},,,,6,5,3,4,
{8}6,3/4,3,5/6,7,6,2,3,
{8}2/8,1,1/7,8,1b/6b,,3b/8b,,
{16}5,6,,6,3,,3,,6,,1,,5,2^5[16:3],,2,
{8},,,,2,5,2/4,3/5,
{8}7,4,5/7,4/6,7,1,7/8,1/8,
{8}2,8,1/2,1/8,1b/2b,,7b/8b,,
{16}4,3,,3,6,,6,,3,,8,,4,7^4[16:3],,7,
{4},,2-5[8:1],7-4[8:1],
{4}1-6[8:1],8-3[8:1],2-6[8:1],7-3[8:1],
{4}1-5[8:1],,7b/8b,1b/2b,
{16}4,3,4,3,6,5,6,5,6,,1,,5,2^5[16:3],,2,
{16},,,,,,,,2,3,2,,6,5,6,,
{16}3,4,3,,7,6,7,,2,1,2,8,1,7,8,7,
{8}3,4,5,6-2[8:7],,,,,{1},
{16},,,,,,,,8,,8h[16:3],,,1h[16:3],,,
{16}2h[16:3],,,3h[16:3],,,4-8[8:1],,4,,,,,,,,
{16}7,,,6,,,5,,1,,1h[16:3],,,8h[16:3],,,
{16}7h[16:3],,,6h[16:3],,,5-1[8:1],,5,,,,,,,,
{16}2,,,3,,,4,,6,,6h[16:3],,,5h[16:3],,,
{16}4h[16:3],,,3h[16:3],,,2-6[8:1],,2,,,,,,,,
{16}7,,,8,,,1,,8,,1,,7,2,,6,
{16}3,,5,4,,6,3/6,
E

MASTER

(155){16}
2,,2,,2,3,,3,4,,4,5,,,56,,
7,,7,,7,6,,6,5,,5,4,,,34,,
1,,1,,1,2,,2,3,,3,4,,,56,,
8,,8,,8,7,,7,6,,6,5,,,34,,

2,,2,,2,3,,3,4,,4,5,,5,6,,
7,,7,,7,6,,6,5,,5,4,,4,3,,
1,,1,,1,2,,2,3,,3,4,,4,5,,
8,,8,,8,7,,7,6,,6,5,,5,4,,

1,,78,,6,5,,3,4,,7,8,,2,1,,
8,,12,,3,4,,6,5,,2,1,,7,8,,
1,,78,,1,2,,8,7,,4,3,,5,6,,
8,,12,,8,7,,1,2,,5,6,,4,3b,,

2,,1,,2,3,2,,5,,6,,5,4,5,,
7,,6,,7,8,7,,1,,8,,1,2,1,,
3,,2,,3,4,3,,5,,4,,5,6,5,,
4,,3,,2,3,2,,4h[8:1],,6h[8:1],,8h[8:1],,2,,
1,,78,,6,7,6,,5,,45,,3,4,3,,
2,,23,,1,2,1,,6,,67,,8,7,8,,
6,,56,,6,7,6,,7,,78,,8,1,8,,
2h[8:1],,4h[8:1],,6h[8:1],,8h[8:1],,7h[8:1],,5h[8:1],,2h[16:3],,,6h[16:13],
,,,,,,,,,,,,,,7,8,
1,2h[16:11],,,,,,,,,,,1,8,7,6,
{24}5,6,7,8,1,2,{16}3,2h[16:17],,,{4},,
,{8},{24}3,4,5,6,7,8,1,2,3,{16}4,3,2,1,
4h[16:3],,,5,6,,6,7,8h[16:3],,,1,8,,8,7,
6h[16:3],,,5,4,,4,3,4h[16:3],,,5,6,,6,7,
6h[16:3],,,5,6,,6,7,8h[16:3],,,7,6,,6,5,
4h[16:3],,,5,4,,4,3,4h[8:1],,6h[8:1],,8h[8:1],,2,,
3h[16:3],,,4,3,,3,2,1h[16:3],,,2,1,,1,8,
7h[16:3],,,8,1,,1,2,3h[16:3],,,4,5,,5,4,
3h[16:3],,,2,1,,1,8,7h[16:3],,,8,7,,7,,
{24}6,7,8,1,2,3,4,5,6,7,8,1,2,3,4,5,6,7,8,1,2,3,4,5,
{2}6h[2:1],{24},,,8,,,8,,,8,,7,
,,,6,,,5,,,5,,6,,,,7,,7,8,,8,,,1,
2,,2,3,,3,4,,4,5,,5,6,,6,7,,7,8,,8,7,,7,
6,,6,5,,5,4,,4,3,,3,2,,,2,,,1,,1,8,,8,
{2}7h[2:1],{24},,8,7,,7,5,,5,3,,3,1,,1,
2,,2,4,,4,6,,6,{8}7,8,1,2,
{12}1b/6b,7,8,2b/5b,3,4,3b/8b,1,2,4b/7b,6,5,
{16}4,5,6,7,8,1,2,3,4,5,6,7,8-4[8:1],,,,
{2},

{8}
8^5[8:1],2,4^7[8:1],2,8^5[8:1],2,4^7[8:1],2,
8^5[8:1],2,4^1[16:1],1^6[16:1],,,,,
{16}
8,,7,6,7,,6,5,6,,5,4,5,,4,3,
4,,3,2,3,,2b,1,2^7[8:1],,,,,,,,
{8}
1^4[8:1],7,5^2[8:1],7,1^4[8:1],7,5^2[8:1],7,
1^4[8:1],7,5^8[16:1],8^3[16:1],,,,,
{16}
1,,2,3,2,,3,4,3,,4,5,4,,5,6,
5,,6,7,6,,7b,8,7-3[8:1],,,,,,,,
{8}
7^4[8:1],1,3^6[8:1],1,7^4[8:1],1,3^6[8:1],1,
7^4[8:1],1,3^6[16:1],6^1[16:1],,,,,
{16}
1,,7,6,8,,6,5,7,,5,4,6,,4,3,
5,,3,2,4,,2b,1,3-7[8:1],,,,,,,,
{8}
2^5[8:1],8,6^3[8:1],8,2^5[8:1],8,6^3[8:1],8,
2^5[8:1],8,6^3[16:1],3^8[16:1],,,,,
{16}
8,,2,3,1,,3,4,2,,4,5,3,,5,6,
4,,6,7,5,,7b,8,6^3[8:1],,,,,,,,

8,,78,,7,6,,6,5,,5,4,,4,3,,
3,,23,,2,1,,1,8,,8,7,,7,6,,
6,,78,,1,2,,2,3,,3,4,,4,5,,
5,,67,,8,1,,1,2,,2,3,,3,2,,
2,,28,,8,7,,7,6,,6,5,,5,4,,
4,,13,,8,1,,1,2,,2,3,,3,4,,
4,,57,,8,1,,1,2,,2,3,,3,4,,
4,,57,,8,7,,7,6,,6,5,,5,4,,
4,,23,,4,6,,6,8,,8,1,,1,2,3b,
{1},
E

  • EACHで、5/6みたいにしてください -- 名無しさん (2013-08-05 20:59:52)
  • EXPERTほしいです -- なこ (2014-03-20 19:41:59)
名前:
コメント:

タグ:

+ タグ編集
  • タグ:

このサイトはreCAPTCHAによって保護されており、Googleの プライバシーポリシー利用規約 が適用されます。

最終更新:2023年01月03日 12:27