ワールズエンド・ダンスホール

BPM EASY BASIC ADVANCED EXPERT MASTER Re:MASTER
171 3 5 7 8+ 12 13

EASY


BASIC

(171.0){1},,
{1}8h[4:7],,
{2}8,7,
{2}6,5,
{1}1h[4:7],,
{2}1,2,
{2}3,4,
{1}8h[4:3],
{2}3,3,
{1}6h[4:3],
{2}5,6,
{1}7h[4:3],
{2}3,3,
{1}6h[4:3],
{4}2,1,2,1,
{1}3h[4:3]/6h[4:3],
{2}3,6,
{1}3h[4:3]/6h[4:3],
{4}6,4/5,3,4,
{1}3h[4:3],
{1}2-7[2:1],
{4}8,6,1,3,
{1}7h[4:3],
{4}7,7-2[2:1],,,
{4},3-6[2:1],,,
{4},7-2[2:1],,,{1},
{4}2h[4:1],,5,4,{1},
{4}7h[4:1],,4,5,
{1}2-7[2:1],
{4},7h[2:1],,,
{2}6,6,
{2}2h[4:1]/7h[4:1],4/5,
{2}1/7,2/8,
{2}6/7,8,
{2}2/3,1,
{4}7,8,1,2,
{1}2-7[2:1],
{4},7,,2,
{4},3/6,,3/6,
{4},2/6,,1,
{1}2-7[2:1],
{4}8,2,6,7,
{2}3/6,2/7,
{1}7-2[2:1],
{4},,2/7,3/6,
{4},1/6,,1/6,
{4},2/3,,6/7,
{4},5/6,,5/6,
{4},6,1,1,
{4},3,,1,
{4},6,7,8,
{4},2/8,,1/7,
{4},1/8,1/8,1/8,
{4}8,3,1,6,
{4}8,3,1-6[2:1],,
{4},,,5,
{4},4/5,,3/6,
{4},1/8,,1/8,
{4},2/7,,2/7,
{4},2-7[2:1],,,
{4},1,,1b,
{4}7b,7-2[2:1],,,
{4},3-6[2:1],,,
{4},7-2[2:1],,,
{4},3-6[2:1],,,,
E

ADVANCED

(171.0){1},,
{4}1,2,1,2,
{4}3,4,3,4,
{4}6,5,6,5,
{4}8,7,8,7,
{4}1,2,3,4,
{4}5,6,7,8,
{4}8,7,6,5,
{4}4,3,2-7[4:1],,
{4},3,,4,
{4},3,,2,
{4},1,,8,
{4}8,7,7,6,
{4},6,,5,
{4},6,,7,
{4},8,,1,
{4}1,2,2,3,
{4}2h[4:3],1,,1,
{4}8h[4:3],1,,1,
{4}2h[4:3],3,,3,
{4}2,1,2/7,3/6,
{4}7h[4:3],8,,8,
{4}1h[4:3],8,,8,
{4}7h[4:3],6,,6,
{4}3/6,2/7,2/7,1/8,
{4},2h[4:1],8-4[4:1],,
{4},7h[4:1],1-5[4:1],,
{4},3h[4:1],5-1[4:1],,
{4},6h[4:1],4-8[4:1],,
{4},1h[4:1],3-7[4:1],,
{4},8h[4:1],6-2[4:1],,
{4},4h[4:1],2-6[4:1],,
{4},5h[4:1],7-3[4:1],,
{4},3,,4,
{4},3,,2,
{4},1,,8,
{4}7h[4:1],6h[4:1],5h[4:1],4h[4:1],
{4},6,,5,
{4},6,,7,
{4},8,,1,
{4}2h[4:1],3h[4:1],4h[4:1],5h[4:1],
{4}7,6,7,1/8,
{4}2,3,2,1/8,
{4}7,6,5,4/5,
{4}3/4,4/5,5/6,4/5,
{4}3,2,1,1/8,
{4}7,6,7,1/8,
{4}2,6,8,4,
{4}2/3,1-4[4:1],,,
{4}6/7,2h[4:1],3,1,
{4}8,7h[4:1],6,1/8,
{2}3h[2:1],4h[2:1],
{4}3,2,1,1b/8,
{4}1/2,3h[4:1],2,1,
{4}8h[2:1],7,6,5,
{2}3/6,1,
{4}2,3,3/4,2b/7,
{4}7/8,6h[4:1],7,8,
{4}1h[2:1],2,3,4,
{2}3/6,8,
{4}7,6,4/5,3b/6,
{4}1/2,1,7/8,8,
{4}1/2,1/8,7/8,6,
{2}7h[2:1],6h[2:1],
{4}5,4,3,2b/7,
{4}1,2,3,4,
{4}5,6,7,8,
{4}8,7,6,5,
{4}4,3,2,1,
E

EXPERT

(171.0){1},,
{4}1/6h[4:11],2,1,2,
{4}3,2,3,2,
{4}1,2,1,2,
{4}1,8,7,6,
{4}8/2h[4:7],7,8,7,
{4}6,7,6,7,
{4}1/6h[4:7],2,1,2,
{4}3,2,3,2,
{4}7/8,1,2,3,
{4}2/3,4,2/3,4,
{4}6/7,5,6,7,
{4}1/8,7,6,8,
{4}2/7,3,4,5,
{4}3,4/5,3,4/5,
{4}2/3,4,5,6/7,
{4}7,6/8,1/3,4/5,
{4}2/7,3,4,5,
{4}2,3/6,7,3/6,
{4}2/7,1,2,1,
{4}1/8,2/8,1/7,2/7,
{4}6,5,4,3,
{4}2/4,3/5,4/6,3/6,
{4}8,6,1,3,
{4}3/6h[4:3],4,5,3-6[8:1],
{4},,,7-2[8:1],
{4},,,3-6[8:1],
{4},,,7-2[8:1],{1},
{4}2h[2:1],,6,3,
{4}8,1,2,3-7[4:1],
{4},,3,6,
{1}3^6[2:1]/7^2[2:1],
{4}2/6,7,7,7,
{4}3/6,2,3,2,
{4}3/8,2,4/5,2/7,
{4}1/8,2/8,1/7,1/8,
{4}7,2,1/8,4/5,
{4}2,7,1/8,3/6,
{4}7,8,1,2,
{4}3/6,3/4,5/6,3/6,
{4}7h[4:1],6,2h[4:1],3,
{4}5h[4:1],4,1h[4:1],8,
{4}6h[4:1],5,3h[4:1],4,
{4}3/8,1/6,3/6,4/5,
{4}2h[4:1],3,7h[4:1],6b,
{4}4h[4:1],5,8h[4:1],1b,
{4}4,3/5,5,4/6,
{4}4/5,2/7,4b/5b,,
{4}1/6,3,5/7,2/4,
{4}3h[4:1],4,3h[4:1],4,
{2}2-5[8:1],1-6[8:1],
{4}2h[4:1],,1,1/2,
{4}3/6,1,1/6,3,
{2}6h[4:1]/7h[4:1],3/6,
{2}2h[4:1]/8h[4:1],1h[4:1]/7h[4:1],
{4}2/8,1/7,2/8,1/8,
{2}8-4[8:1],1-5[8:1],
{4}1,2,3,4/6,
{4}6h[4:1],5,3h[4:1],4h[4:1],
{4}3,2,2/6,3/7,
{4}2/8,1/7,1/2,7/8,
{8}5,4,5,4,3/6,,2/7,,
{2}7^2[8:1],3^6[8:1],
{4}8,2,4/5,3-6[8:1],
{4},,,7-2[8:1],
{4},,,3-6[8:1],
{4},,,7-2[8:1],
{4},,,6,
E

MASTER

(171){1},,{4}
4-7[4:3],,2,2,
5-2[4:3],,7,7,
8-3[4:3],,1,1,
1-6[4:3],,8,8,
5-2[4:3],,7,7,
4-7[4:3],,2,2,
1-6[4:3],,8,8,
8-3[4:3],,1,1,

{16}
2,,,3,,,2,,,,1,,1,,8,,
7,,,6,,,7,,,,8,,8,,1,,
2,,,3,,,2,,,,1,,1,,8,,
{4}58,36,14,27,{16}
3,,,2,,,3,,,,4,,4,,5,,
6,,,7,,,6,,,,5,,5,,4,,
3,,,2,,,3,,,,4,,4,,5,,
{4}15,37,48,26,{16}
18,,,67,,,45,,,,3,,4,,3,,
4,,,67,,,18,,,,7,,8,,7,,
8,,,23,,,45,,,,6,,5,,6,,
{4}5,45,1b/6,2/8ページ名またはURLページ名またはURLページ名またはURLb,{16}
18,,,23,,,45,,,,6,,5,,6,,
5,,,23,,,18,,,,2,,1,,2,,
1,,,67,,,45,,,,3,,4,,3,,
{4}4,34,3b/8b,1b/7b,

{16}
8,,7,8,,,6-2[8:1],,,,,,,,,,
1,,2,1,,,3-7[8:1],,,,,,,,,,
5,,6,5,,,7-3[8:1],,,,,,,,,,
4,,3,4,,,2-6[8:1],,,,,,,,,,
{2}
2-7[8:1],6-3[8:1],
8-3[8:1],4-7[8:1],
7-2[8:1],3-7[8:1],
1-6[8:1],5-2[8:1],

{16}
8,,4,3,4,,2,,,,8,,8,,,,
1,,5,6,5,,7,,,,1,,1,,,,
5,,1,2,1,,3,,,,5,,5,,,,
4,,8,7,8,,6,,,,4,,4,,,,
8,,4,3,4,,2,,,,8,,8,,,,
1,,5,6,5,,7,,,,1,,1,,,,
6,,4,5,4,,3,,,,7,,7,,,,
{4}3,6,78,18,

{8}
3,1,3,2,3,1,18,,
6,8,6,7,6,8,18,,
7,1,5,4,8,1,8,7,
18,,23,,45,,67,,
1,2,3,4,3,12,1b/8b,,
8,7,6,5,6,78,1b/8b,,
2,,6,7,6,,8,8,
1b/5,4/8b,3/7b,2/6b,1/5b,,27,,

1,,5,2,8,7,78,1,
2,12,8,4,6,7,8,,
18,,,47,16,,,25,
38,1,12,8,18,,36,,
27,,1,2,1,,8,8,
7,6,5,6,67,8,18,,
36,,,48,26,,,15,
37,8,1,13,28,,1b/8b,,
27,,4,7,1,2,12,8,
7,78,1,2,1,8,18,,
36,,,15,37,,45,,
12,,8,68,17,,18,,
2b/3b,,6b/7b,,3b/4b,,5b/6b,,
1b/8b,2,3,4,3b,,36,,
18,,,2,2,,,6,
5,6,5,6,{16}2,1,2,,18,,,,

8,,,3,2,,2,,,,8,,8,,,,
1,,,6,7,,7,,,,1,,1,,,,
5,,,2,3,,3,,,,5,,5,,,,
4,,,7,6,,6,,,,4,,4,,,,
E

Re:MASTER

(171){16}
5h[16:3],,,6h[16:3],,,7h[4:1],,,,6,,6,,5,,
4h[16:3],,,3h[16:3],,,2,,,,78,,16,,,,
4h[16:3],,,3h[16:3],,,2h[4:1],,,,3,,3,,4,,
5h[16:3],,,6h[16:3],,,7,,,,21,,83,,,,
6h[16:3],,,7h[16:3],,,8h[4:1],,,,6,,5,,4,,
3h[16:3],,,2h[16:3],,,1,,,,65,,47,,,,
3h[16:3],,,2h[16:3],,,1h[4:1],,,,3,,4,,5,,
6h[16:3],,,7h[16:3],,,8,,,,34,,52,,,,


1h[16:3],,,7h[16:3],,,5-1[8:1],,,,6,,6,,,,
8h[16:3],,,2h[16:3],,,4-8[8:1],,,,3,,3,,,,
1h[16:3],,,7h[16:3],,,5-1[8:1],,,,6,,6,,,,
8h[16:3],,,2h[16:3],,,4<2[8:1],,,,,,,,,,
1h[16:3],,,7h[16:3],,,5-1[8:1],,,,7,,4,,,,
8h[16:3],,,2h[16:3],,,4-8[8:1],,,,2,,5,,,,
1h[16:3],,,7h[16:3],,,5-1[8:1],,,,7,,4,,4,,
2-5[8:1],,,,2/6-1[8:1],,,,6/3-8[8:1],,,,37,,,,

3h[16:3],,,4,2-5[8:1],,5p8[8:1],,,,7,,6,,,,
6h[16:3],,,5,7-4[8:1],,4q1[8:1],,,,2,,3,,,,
3h[16:3],,,4,2-5[8:1],,5p8[8:1],,,,7,,6,,6,,
2-5[8:1],,,,2/6-1[8:1],,,,6/3-8[8:1],,,,3/7b,,,,
6h[16:3],,,5,7-3[8:1],,3q8[8:1],,,,1,,2,,,,
3h[16:3],,,4,2-6[8:1],,6p1[8:1],,,,8,,7,,,,
6h[16:3],,,5,7-3[8:1],,3q8[8:1],,,,1,,2,,2,,
7-3[8:1],,,,7/2-6[8:1],,,,2/8-4[8:1],,,,8/1b,,,,


3h[16:3],,,4,3,,25,,,,8,,17,,,,
6h[16:3],,,5,6,,74,,,,2,1,3,8,2,4,
3h[16:3],,,4,3,,25,,,,1,,82,,,,
6h[16:3],,,5,6,,74,,,,8,1,7,2,8,1,
7h[16:3],,,8,7,,61,,,,4,,53,,,,
2h[16:3],,,1,2,,38,,,,7,8,6,1,7,5,
6h[16:3],,,8,7,,61,,,,5,,46,,,,
2h[16:3],,,1,2,,38,,,,1,8,2,7,1,8,


2h[16:3],,,1,2^5[16:3],,4^7[16:3],,6^1[16:3],,1,,1,,,,
7h[16:3],,,8,7^4[16:3],,5^2[16:3],,3^8[16:3],,8,,8,,,,
2h[16:3],,,1,2^5[16:3],,4^7[16:3],,6^1[16:3],,1,,1,,,,
5p4[4:1],,,,5/4>5[4:1],,,,,,,,,,,,
3h[16:3],,,4,3^8[16:3],,1^6[16:3],,7^4[16:3],,4,,4,,,,
6h[16:3],,,5,6^1[16:3],,8^3[16:3],,2^5[16:3],,5,,5,,,,
3h[16:3],,,4,3^8[16:3],,1^6[16:3],,7^4[16:3],,4,,4,,,,
7-3[8:1],,,,78,,,,1-5[8:1]/2-6[8:1],,,,12,,,,


3,4,3,4,2,5,2,5,1,7,1,7,2,1,3,,
6,5,6,5,7,4,7,4,8,2,8,2,7,8,6,,
3,4,2,5,1,,6,5,7,4,8,,4,5,3,6,
2-5[8:1],,,,2/6-1[8:1],,,,6/3-8[8:1],,,,3/7b,,,,
2,1,2,1,3,8,3,8,21,,38,,47,,,,
7,8,7,8,6,1,6,1,78,,61,,52,,,,
45,,,,1^4[8:1]/8^5[8:1],,27,,18,,,,36,,15,,
26,,37,,4^1[8:1]/8^5[8:1],,15,,,,,,4b/5b,,,,


{8}
2-5[8:1],2,8,8,7-4[8:1],7,1,1^6[16:3],
7<1[8:3],5q1[4:1],5,,,,28,,
{16}45,,7,5,7,,1,,8,,2,4,2,,8,,
{8}1,7,5,6,1-4[8:1]/5-8[8:1],,15,,
7-4[8:1],7,1,1,2-5[8:1],2,8,8^3[16:3],
2>8[8:3],4p8[4:1],4,,,,71,,
{16}54,,2,4,2,,8,,1,,7,5,7,,1,,
{8}8,2,6,4,2b/6b,,4b/8b,,

8,2-5[8:1],1,7-4[8:1],8,2-5[8:1],1,7-4[8:1],
8,2^5[8:1],1,7^4[8:1],8,2^5[8:1],1,7^4[8:1],
8,2-6[8:1],1,7-3[8:1],8,2-6[8:1],1,7-3[8:1],
8,2,1,7,26,,4^1[8:1]/8^5[8:1],,
4q8[8:1]/8q4[8:1],,4^1[8:1]/8^5[8:1],,48,,1^4[8:1]/5^8[8:1],,
1p5[8:1]/5p1[8:1],,1^4[8:1]/5^8[8:1],,1b/5b,,3^8[8:1]/7^4[8:1],,
37,,,2^5[8:1]/6^1[8:1],26,,,15,
48,37,26,15,8-3[8:1]/4-7[8:1],,8b/4b,,


{16}
6h[16:3],,,5,7,,1h[4:1],,,,2,,8,,7,,
3h[16:3],,,4,2,,8h[4:1],,,,7,,16,,,,
7h[16:3],,,8,6,,4h[4:1],,,,3,,5,,6,,
2h[16:3],,,1,3,,5h[4:1],,,,4,,36,,27,,


名前:
コメント:

タグ:

+ タグ編集
  • タグ:

このサイトはreCAPTCHAによって保護されており、Googleの プライバシーポリシー利用規約 が適用されます。

最終更新:2023年09月15日 15:00