YA・DA・YO [Reborn]

BPM EASY BASIC ADVANCED EXPERT MASTER
105 2 4 7 10 10

EASY


BASIC


ADVANCED


EXPERT

(105){8}
,,18,,,2,18,,
,,18,,{32},,,7,{8}7,18,,
4,4,27,,,{32},,,7,2,,,7,{8}2,
,,27,,,8,27,,
2,,18,,{32},,,2,2,,,8,{8}18,,
7,7,18,,2,2,18,{16},2,
2-6[16:1],,,,,,,7,7-3[16:1],,,,,,,2,
2-6[16:1],,,7,7-3[16:1],,,,,,18,,1b/8b,,,,

2,,2,,3,,,4,,,4,,5,,,,
7,,7,,6,,,5,,5,5,,4,,,,
8,,8,,{32}1,,,1,,,1,,{16},2,2,,3,,,,
{8}1,1,8,8,8,7,6,6,
1,1,2,{16}2,2,,3,3,,4,,4,,
8,,8,8,7,,7,7,6,,6,6,5,,,,
1,,1,1,2,,2,8,,8,8,8,7,,7,,
1,,1,1,8,,8,8,,1,1-4[16:1]/8-5[16:1],,,,,,

2,,2,2,3,,3,4,,4,4,,5,,,,
7,,7,7,6,,6,5,,5,5,,4,,,,
8,,8,,{32}1,,,1,,,1,,{16},2,2,2,3,,3,3,
1,1,1,,8,8,8,8,8,7,6,,6,,6,,
1,,1,,2,2,2,3,,3,3,3,4,,4,4,
{32}8,,,8,{16}8,8,7,,7,6,,6,6,6,5,,,,
1,,1,1,2,,2,8,,8,8,8,7,,7,,
1,,1,1,8,,8,8,,18,1-4[16:1]/8-5[16:1],,,,,,

8,1,8,1,7,1,8,1,8,1,8,2,8,1,8,1,
7,8,7,1,8,1,8,2,1,2,8,1,8,1,8,1,
7,2,8,1,8,1,7,2,8,1,8,1,7,2,8,1,
7,1,8,1,8,2,8,1,8,1,7,1,8,1,8,1,
8,2,1,2,8,2,1,2,8,1,8,1,8,2,1,2,
8,1,8,1,7,8,7,1,8,1,8,1,7,8,7,1,
8,1,8,1,7,2,7,2,6,3,6,3,7,2,7,2,
8,3,8,3,7,2,7,2,6,1,6,1,7,2,7,2,
4,3,4,3,5,2,5,2,6,5,6,5,7,4,7,4,
5,4,5,4,6,4,5,4,5,3,5,4,6,4,5,4,
7,5,7,5,6,4,6,4,5,3,5,3,4,2,4,2,
7,3,7,3,7,4,5,4,6,2,6,2,6,4,5,4,
7,3,7,3,6,4,6,4,5b,5b,5b,4,6,4,6,4,
7,4,7,4,5,3,5,3,6,5,5,3,4,4,5,3,
6,5,6,5,4,3,4,3,4,5,4,5,6,3,6,3,
8,4,8,4,7,3,7,3,6,2,6,2,5,1,5,1,
6,3,6,3,5,4,5,4,8,5,8,5,6,3,6,3,
7,2,7,2,8,1,8,1,5,8,5,8,7,2,7,2,
1,2,1,2,8,3,8,3,7,4,7,4,6,5,6,5,
7,8,6b,8,6,1b,6,1,5b,1,5,2b,5,2,4b,3,
{1}4h[1:1],
,,
E

MASTER

(105){4}
36,4,36,4,
36,5,36,5,
{32}
2,,,5,2,,,,,,,2,5,,,2,,,,,,,,5,2,,,5,2,,,,
{8}
1,,8,,7,7,6,6,
{32}
7,,,4,7,,,,,,,7,4,,,7,,,,,,,,4,7,,,4,7,,,,
{8}
2,3,7,6,1,2,8,{32}7,,,1,
{8}8b,,,{32},,,1,{8}8b,,,{32},,,1,
8b,,,,,,,1,{8}8b,,,18,45,,

{16}
2,5,4,5,4,4,5,3,,6,5,6,2,3,2,,
1,,7,6,7,4,3,4,,3,4,6,5-2[8:1],,,,
8,,8,,7,1,2,1,,7,8,7,1,1,8,2,
7,,58,,4,5,4,5,4,5,8,,5,,2,,
6,,68,,7,7,7,1,,5,3,5,4,6,4,5,
3,4,3,4,6,5,6,5,3,4,5,6,7,,,,
5,,7,6,5,,3,4,,6,5,6,1,,4,,
3,,3,3,2,,2,2,,,18,,45,,,,

2b,5,4,5,4,4,5,3,,6,5,6,2,3,2,,
1b,,7,6,7,4,3,4,,3,4,6,5-2[8:1],,,,
8b,,8,,7,1,2,1,,7,8,7,1,1,8,2,
7b,,58,,4,5,4,5,4,5,8,,5,,2,,
6b,,68,,7,7,7,1,,5,3,5,4,6,4,5,
3,4,3,4,6,5,6,5,3,4,5,6,7,,,,
5b,,7,6,5,,3,4b,,6,5,6,1,,4,,
3b,,3,3,2b,,2,2,,,1b/8,,45,,,,

7,,6,,8,6,7,8,5,7,6,8,7,5,8,7,
1,6,8,8,7,5,8,1,6,,8,,7,,,,
2,,3,,2,4,3,1,2,4,1,3,5,2,4,3,
8,2,4,1,5,3,8,2,4,,2,,3,,,,
1,1,8,1,8,1,8,8,1,8,1,1,8,8,1,8,
3,,6,,4,6,3,5,4,6,5,3,6,4,3,,
8,8,1,8,1,1,8,8,8,1,1,1,8,1,8,8,
4,,5,,3,4,6,6,3,3,5,3,4,6,5,,

{8}
7h[16:3],6h[16:3],8h[16:3],7h[16:3],5h[16:3],6h[16:3],7h[16:3],6h[16:3],
3h[16:3],1h[16:3],2h[16:3],4h[16:3],3h[16:3],2h[16:3],1h[16:3],3h[8:1],
{16}
4,,5,6,5,4,3,4,5,4,5,6,5,4,5,,
1,,2,1,8,7,6,7,8,1,8,1,2,3,,,
2,6,2,6,3,7,3,7,2,2,6,6,3,3,7,7,
2,2,2,2,6,6,6,6,1,1,1,1,1,1,1,1,
{8}7,8,1,2,3,4,5,6,
{16}7,8,1,2,3,4,5,6,{24}7,8,1,2,3,4,5,6,7,8,1,2,

{4}14,27,58,36,
{8}25,36,47,36,{16}45,34,45,56,45,45,45,,
{4}
3-6[8:1],6-2[8:1],2-7[8:1],7-4[8:1],
4-1[8:1],1-5[8:1],5-8[8:1],8-4[1:1],
{1},,,
E

名前:
コメント:

タグ:

+ タグ編集
  • タグ:

このサイトはreCAPTCHAによって保護されており、Googleの プライバシーポリシー利用規約 が適用されます。

最終更新:2013年08月22日 15:20