みんなのマイマイマー

BPM EASY BASIC ADVANCED EXPERT MASTER
175 2 4 7+ 10 13

EASY


BASIC


ADVANCED


EXPERT


MASTER

(175){1},
{8},,,,,,,3h[4:1],
,4,4,,5h[4:1]/6h[4:1],,,4h[4:1],
,3,3,,1h[4:1]/2h[4:1],,,4h[4:1],
,5,5,,6h[4:1]/7h[4:1],,,5h[4:1],
,4,4,,2h[4:1]/3h[4:1],,,4h[4:1],
,5,5,,6h[4:1]/7h[4:1],,,5h[4:1],
,4,4,,2h[4:1]/3h[4:1],,,,
,5,7h[4:1],,6,5,4,3,
{16}12,,,78,,,{8}34,56,,,,

78,6,5,,34,5,6,,
18,7,6,,45,6,7,,
12,3,4,,56,4,3,,
1/2h[4:1],,8b,7,7b/8h[4:1],,1b,,
1,1,2,2,3,3,4,4,
5,5,6,6,7,7,8,8,
{32}1,8,7,6,5,4,3,2,{16}1b,,8,,6h[16:3],,,5,,,7,,
8,,1,,2,2h[16:3],,,{8}3-8[8:1],,,,

,8,7,8,,3,4,3,
,2,1,2,3,4,5,6,
,7,8,7,,4,3,4,
5,6,7,8,12,8,7,6,
4,5,6,7,8h[4:1],,,,
6,5,4,3,2h[4:1],,,,
34,34,56,,78,78,56,,
7b/8b,5b/6b,3b/4b,1b/2b,7b/8b,,,,
,1,23,1,,6,45,6,
,8,12,8,7,67,5,45,
,7,78,7,,4,23,4,
56,7,6,5,34,56,78,12,
,3,4,5,6,7,8,1h[4:1],
,8,7,6,5,4,3,2,
12,12,23,18,17,68,15,26,
3^6[8:1]/7^2[8:1],,7-3[8:1],,,,2b/7b,,

1h[4:1]/4,,2,2,,8,7b,,
7,{16}6,5,{8}6,7,8,1,1b,,
1h[4:1]/8,7,6,5,4h[4:1],5,6,7,
8,7,6,5,4,3,2b,,
2^5[8:1]/6^1[8:1],,,,1-5[8:1],1,,,
8h[4:1],,7-4[8:1],,1-5[8:1]/7b,,1b,,
5/6h[4:1],,2,2,,8,8b,,
1,2,{16}2,1,8,7,{8}5b/6b,7b/8b,1b/2b,,
8,7,6,5,23,23,23,,
4,{16}5,5,{8}6,6,6h[4:1]/7h[4:1],,,,
1^4[8:1]/5^8[8:1],,,,1^6[8:1]/5^2[8:1],,,,
2b/6b,3b/7b,4b/8b,1b/5b,2b/6b,,,,
4/8h[4:1],,6,6,,2,2b,,
8,2,6,4,6,2,8b,,
1/5h[4:1],,3,3,,7,7-3[8:1],,
8-4[8:1],,1-5[8:1],,,,2,23,
,12,12,,7h[4:1]/8h[4:1],,,12,
,23,23,,4h[4:1]/5h[4:1],,,12,
,18,18,,6h[4:1]/7h[4:1],,,23,
,34,34,,5h[4:1]/6h[4:1],,,3b/4b,
,1b/2b,1b/2b,,7h[4:1]/8h[4:1],,,1b/2b,
,3b/4b,3b/4b,,5h[4:1]/6h[4:1],,,,
{12}34,,18,,78,,56,,23,{8},1h[8:7],
{1},

{8}
18,,26,,37,,15,,
78,,34,,12,,8,7b/8b,
,1,2h[4:1],,3,4,5,6,
7b/8b,,1b/2b,,7b/8b,,,,
18,,37,,26,,48,,
12,,56,,78,,1,1b/2b,
,8,7h[4:1],,6,5,4,3,
{16}1b/2b,,,3b/4b,,,{8}6b/7b,1b/8b,,,,

2-5[8:1]/8,,8b,,7-4[8:1]/1,,1b,,
1-5[8:1]/2,,2b,,7/8-4[8:1],,1b,1b,
,8,7h[4:1],,6,5,4,3,
3-8[8:1],,1-5[8:1]/3b,,1b/7-3[8:1],,7b,,
1/7-4[8:1],,1b,,2-5[8:1]/8,,7b,,
7/8-4[8:1],,7b,,1-5[8:1]/2,,8b,8b,
,1,2h[4:1],,3,4,5,6,
{16}7b/8b,,,5b/6b,,,{8}2b/3b,1b/8b,,,,

56,,45,,4h[4:1]/5h[4:1],,,6,
,7,7h[4:1],,1h[4:1],,{32}8,7,6,5,{16}4b,,
3,,2,3,,3,4,5,{8}6,78,18,12,
2/8-4[8:1],,8b,,1-5[8:1]/7,,1b,,
8,8,7,7,6,6,5,5,
4,4,3,3,2,2,1,1,
{32}8,1,2,3,4,5,6,7,{16}8b,,1,,3h[16:3],,,4,,,2,,
1,,8,,7,7h[16:3],,,{8}6-1[8:1],8b,8b,,
{1},,
E

名前:
コメント:

タグ:

+ タグ編集
  • タグ:

このサイトはreCAPTCHAによって保護されており、Googleの プライバシーポリシー利用規約 が適用されます。

最終更新:2021年05月09日 15:49