サブリナ

BPM EASY BASIC ADVANCED EXPERT MASTER
136 2 4 6 8 11

EASY


BASIC


ADVANCED


EXPERT

(136){1},,,,{4},,
{8},7,8,1,
{4}2,,,,
{8},5/6,,3/4,,5/6,,3/4,5/6,,,,,2,1,8,
{4}7,,,,,,

{8}2h[8:3],,,1,1<6[8:3],,,,
{4},,,{8},8,7,
6h[4:1],,5h[4:1],,4h[4:1],,1,2,
3h[4:1],,4h[4:1],,5,,,

{8}7h[8:3],,,8,8>3[8:3],,,,
{4},,,{8}7,8,1,
8h[4:1],,3h[4:1],,2h[4:1],,1-4[4:1],,
,,,5,5,,3,3,
,,3/4,3/4,,,4/5,4/5,
,,5/6,5-2[4:1]/6,,,,1,
,,1/2,1/2,,,1/8,1/8,
,,7/8,7-4[4:1]/8,,,,2h[4:1],
,1,1h[4:1],,8h[4:1],,7h[8:3],,
,8h[4:1],,1,1h[4:1],,,4/8,
1/5,2h[2:3]/6,,,,6b,,,
,,,6>3[4:1],,,,

{4}1h[4:1],7h[4:1],5h[4:1],,8h[4:1],
2h[4:1],4h[4:1],,
{8}1,1,8,8,2,3,7,6,
4,5,,2/4,,5/7,,,
{4}1h[4:1],3h[4:1],5h[4:1],,
8h[4:1],6h[4:1],4h[4:1],{8},

5/6,5h[4:1]/6h[4:1],,,3/4,3h[4:1]/4h[4:1],,,
5/7,5h[4:1]/7h[4:1],,,2/4,2h[4:1]/4h[4:1],,,,

{4}7h[4:1],5h[4:1],3h[4:1],,
2h[4:1],4h[4:1],6h[4:1],,
{8}8,7,8,1,8,1,2,1,
8,7h[4:1],,6h[4:1],,5,,,
1h[4:1],,3,3h[4:1],,5h[4:1],,7h[4:5],,
{4}8>3[4:3],,,,,,
{8}7,8,1,2b,{1},
{8}5/6,,3/4,,5/6,,3/4,
5/6,,,,,2,1,8,7,,{4},,,

{8}7h[8:3],,,8,8>3[8:3],,
{1},{8},6,6,
5h[4:1],,4h[4:1],,3h[4:1],,4,4,
4h[4:1],,5h[4:1],,6,,,

{8}2h[8:3],,,1,1<6[8:3],,
{1},{8}6,7,8,
7h[4:1],,6h[4:1],,5-2[2:1],,
,,,,,3,3,,7,7,
,,7/8,7/8,,,1/8,1/8,
,,1/2,1/2-5[4:1],,,6,6,
,,5/6,5/6,,,4/5,4/5,
,,3/4,3-8[4:1]/4,,,,
6h[4:1],,5h[4:1],,4,4h[4:1],,3h[8:3],,
,4h[4:1],,5,5h[4:1],,,
1/5,4/8,3/7h[2:3],,,,3b,,,

,,,3<6[4:1],,,,2h[4:1],,
{4}5h[4:1],8h[4:1],,1h[4:1],
4h[4:1],7h[4:1],,
{8}8,8,7,7,6,5,4,3,
2,1h[4:1],,3h[4:1],,5h[4:1],,
7h[4:1],,8,7<4[4:1],,,,,,
3h[4:1],,2>5[4:1],,,,,

1/2,1h[4:1]/2h[4:1],,,7/8,7h[4:1]/8h[4:1],,,
1/3,1h[4:1]/3h[4:1],,,6/8,6h[4:1]/8h[4:1],,,,
{4}8>3[4:1],7-4[4:1],,,1<6[4:1],2-5[4:1],,,
{8}1,1,2,2,3,4,5,6,
7,8h[4:1],,6h[4:1],,4,,,
7h[4:1],,8,8h[4:1],,1-6[4:1],,,,
{4}8-3[2:1],,,,,,
{8}1,2<7[8:1],3b,,
{1},,,
E

MASTER

(136){1},{4}
8,12,2,18,
7,78,12,78,
17,8,7,6,
28,1,{8}2,8,8,8,
{4}1b/6b,6,6,6,
{8}6,7-3[8:1],,8-4[8:1],,1-5[8:1],,2,
2-6[8:1],,,,,1,1,1,
{4}3-6[8:1]/8,,8h[4:3],,
,,

6-1[8:1]/7-2[8:1],,2-7[8:1]/3-8[8:1],,
6,5,3,{8}4,7-2[8:1],
6,3-6[8:1],,,,,,2-7[8:1],
3,6-3[8:1],,,,,,,
{4}1-5[8:1]/2-7[8:1],,7-2[8:1]/8-4[8:1],,
3,4,6,{8}5,3-7[8:1],
4h[8:3],,,5h[2:1],,6-2[8:1],,,
,,,,8h[4:1],1h[4:1],,8-4[8:1],
1-5[8:1],,,2-6[8:1],3-7[8:1],,,4-8[8:1],
5-1[8:1],,,6-2[8:1],7h[8:3],,,1-5[8:1],
8-4[8:1],,,7-3[8:1],6-2[8:1],,,5-1[8:1],
4-8[8:1],,,3-6[8:1],2h[2:1],,,,
8h[8:3],,7-4[4:1],6h[2:1],,,,1h[4:3],
,,2-5[4:1],,,3h[4:1],,,
45,1-6[4:1]/8,4/5-2[4:1],,,,3b,,
4,,5,,6h[2:1],,,,

{16}
1h[4:1],,,2-5[4:1],2-6[16:3],,,,,,,,,,8h[8:3],,
,,,7-4[4:1],7-3[16:3],,,,,,,,,,,,
{8}
6,2h[4:1],3,7,3,7h[4:1],6,4,
6h[4:1],7-3[8:1],,8-4[8:1],,,,1-6[4:1],
,,7-2[8:1],8,,,,8-3[4:1],
,,2-7[8:1],1,,,,5-2[8:1],
5h[4:1],,,4-7[8:1],4h[4:1],,,6-1[8:1],
6h[4:1],,,3-8[8:1],3h[4:1],,,,
{16}
18,,,7-4[8:1],6-1[8:1],,,,,,,,,,18,,
,,,2-5[8:1],3-8[8:1],,,,,,,,,,,,
{8}
8,1h[4:1],4,8,1,8h[4:1],5,1,
2^7[8:1],6^3[4:1],,,,,,,
8h[8:3],,7,1-5[4:3],,,,2,
,6-2[4:3],,,,,,,
,,,,,18,1-6[8:1]/8,8-3[8:1]/1,
1b/8b,,,,,,,,

,56,1,34,8,56,1,34,
56,,6,,6,2,6-1[4:1],2-5[4:1],
6,,,,8h[2:1],,,,
5-1[8:1],,3-6[2:1],4-8[8:1],,,,,
,,,,,,,7,
2,7^2[4:1],,2-6[4:1],,6^3[4:1],,,
7,2^7[4:1],,7-3[4:1],,,,,
8h[8:3],,,1h[8:9],8h[1:1],,,,
,,,,,,8^5[8:1],
8,8^3[8:1],,,1^6[8:1],,1^4[8:5],,,

,,,,,,,7^4[8:1]/8,
7/8h[4:1],,,1/2^5[8:1],1h[4:1]/2,,,7/8-4[8:1],
7/8h[4:1],,,1-5[8:1]/2,1h[4:1]/2,,,4-8[8:1],
4h[2:1],,,5-1[8:1],5h[2:1],,,3^8[8:1],
3h[2:1],,,6^1[8:1],6h[2:1],,,,

2h[4:1],,1h[4:1],,8h[8:5],7h[8:1],,7h[8:3],
,,8h[4:1],,1h[4:1],2h[8:1],,,
7-4[4:1]/8,78,7/8-3[4:1],,,,,,
5-1[2:1],,,,,,,,

13,2,17,8,12,3,18,7,
68,7,28,1,78,6,18,2,
12,3,13,4,78,6,68,5,
18,2-5[8:1],,7-4[8:1],,,,8h[4:1],
,7,68,5,78,1,28,1h[4:1],
,2,13,4,12,7,13,2,
2h[4:1]/4h[4:1],,,4,4h[4:1]/6h[4:1],,,6,
6h[4:1]/8h[4:1],,,8,2h[4:1]/8h[4:1],,,,
1h[8:3]/6h[8:1],,2,8h[8:3],7h[4:1],,,8h[8:4]/3h[4:1],
,,7,1h[8:3],2h[4:1],,,,
8h[4:1],7,1h[4:1],2,8h[4:1],7,1h[4:1],2,
8h[8:5],7-2[4:1],,,,,,,
4-8[8:1],,5-1[8:1],6^3[8:1],,,,4-7[8:1],
,4-8[8:1],,4-1[8:3],,,,,
{1},
8b,
,,
E

  • 終盤の一部のホールドを修正 -- 名無しさん (2021-02-18 02:21:06)
  • なぜ俺はこのタイミングでエキスパート譜面を採譜しようと思ったのか -- 名無しさん (2021-02-18 05:29:48)
名前:
コメント:

タグ:

+ タグ編集
  • タグ:

このサイトはreCAPTCHAによって保護されており、Googleの プライバシーポリシー利用規約 が適用されます。

最終更新:2021年02月18日 05:29