ゴーゴー幽霊船

BPM EASY BASIC ADVANCED EXPERT MASTER
180 2 4 7 10 12

EASY


BASIC

(180.0){1},,,,,,,,
{4}1,1,1b,,
{2}2,2,
{2}1,8,
{2}7,7,
{2}6,5,
{2}6,6,
{2}7,8,
{2}1,1,
{2}2,3,
{2}1,1,
{2}8,8,
{2}1,1,
{2}2,2,
{2}3,3,
{2}2,2,
{2}1,1,
{4}8,,8,7h[8:3],
{4},,,6h[8:3],
{4},,,7h[8:3],
{4},,,8h[8:3],
{4},,,1,
{8},1,,,,,2,,
{8},2,,,,,1,,
{8},1,,,,,8,,
{8},8,,,,,8b,,
{2},7,
{2}7,5,
{2}5,7,
{2}7,1,
{2}1,2,
{2}2,4,
{2}4,2,
{2}2,8,
{4}8,7h[8:3],,,
{4},5h[8:3],,,
{4},7h[8:3],,,
{4},1h[8:3],,,
{8},,8,,,8,,,
{8},,6,,,6,,,
{8},,8,,,8,,,
{8},,1,,,1,,,
{4},2h[4:3],,,
{4},3h[4:3],,,
{4},2h[4:3],,,
{4},1h[4:3],,,
{4},8,,8,
{4},7,,7,
{4},8,,2,
{4},4,,6,
{4},7b,,,
{4},1h[8:3],,,
{4},2,2,2,
{2},1,
{2}1,8,
{4}8,7h[8:3],,,
{4},6,6,6,
{2},7,
{2}8,1,
{4}2,3h[8:3],,,
{4},4,4,4,
{2},3,
{2}3,2,
{4}2,1h[8:3],,,
{4},8,8,8,
{2},1,
{2}2,1,
{1}8-5[4:3],
{8},,,,,,,1,
{1}1b,
E

ADVANCED

(180.0){4}1h[4:3],,,8,
{4}1h[4:3],,,8,
{4}8h[4:3],,,7,
{4}7h[4:3],,,6,
{4}6h[4:3],,,5,
{4}5h[4:3],,,4,
{4}3h[4:3],,,4,
{4}2h[4:3],,,3,
{4}3,2,1b,2h[8:3],
{8},3,,3,3,,7h[8:3],,
{8},6,,6,6,,5h[8:3],,
{8},4,,6,6,,8h[8:3],,
{8},1,,2,2,,2h[8:3],,
{8},3,,5,5,,4h[8:3],,
{8},5,,6,6,,6h[8:3],,
{8},5,,7,7,,7h[8:3],,
{8},6,,8,8,,2,,
{8}8,8,,,7,,6,,
{8}4,4,,,5,,6,,
{8}8,8,,,7,,5,,
{8}3,3,,,4,,5,,
{8}6,6h[8:3],,,,,4,,
{8}3,3h[8:3],,,,,5,,
{8}7,7h[8:3],,,,,8,,
{8}1,1b,,,,,8,,
{8}7,7h[8:3],,,6,,8,,
{8}1,1h[8:3],,,2,,1,,
{8}8,8h[8:3],,,7,,8,,
{8}2,2h[8:3],,,3,,2,,
{8}1,1h[8:3],,,8,,7,,
{8}6,6h[8:3],,,5,,6,,
{8}8,8,,,1,,2,,
{8}3,3,,,1,,1/8,,
{8},,8,,7,7h[8:3],,,
{8}6,,8,,1,1h[8:3],,,
{8}2,,3,,4,4h[8:3],,,
{8}5,,3,,2,2h[8:3],,,
{8}1,,1,,8,8h[8:3],,,
{8}7,,8,,1,1,,,
{8}2,,3,,3,4h[8:3],,,
{8}5,,4,,3,3h[8:3],,,
{8}2b,,8,,7,7h[8:3],,,
{8}6,,8,,1,1h[8:3],,,
{8}2,,4,,5,5h[8:3],,,
{8}6,,3,,2,1-4[4:1],,,
{8},,5,,6,6,,,
{8}4/5,,3,,2,2,,,
{8}1/8,,7,,6,6h[625:236],,,
{8}5,,6,,7,7h[8:3],,,
{4}8,6,5,4,
{4}3,2,1,1/8,
{4},2,6,3,
{4}7,4,5,1/8,
{4}1/8,1,8,7,
{4}6,5,4,2/3,
{4},4,5,6,
{4}7,5/6,4/5,3/4,
{1}1b/2b,
{8},,2h[8:3],,,3h[8:3],,,
{4}5,7,7,7h[4:1]/8h[4:1],
{4},4,5,6,
{4}7,8,1,1h[4:1]/2h[4:1],
{8},,8h[8:3],,,7h[8:3],,,
{4}6,2,1,1/2,
{4},8,7,6,
{4}5,4,4/5,1b/8b,
{8},,2h[8:3],,,7h[8:3],,,
{4}6,5,4,2h[4:1]/7h[4:1],
{4},7,8,1,
{4}2,3,4,4h[4:1]/5h[4:1],
{8},,7h[8:3],,,2h[8:3],,,
{4}3,4,5,4/5,
{4},3,6,2,
{4}7,4,5,1b/8b,
{4},2,3,4,
{4}5,6,7,1/8,
E

EXPERT

(180){4}
5h[1:2],,,4-1[4:3],
,,,,
1h[1:2],,,8-5[4:3],
,,,,
7h[1:2],,,6-3[4:3],
,,,,
3h[1:2],,,2-7[4:3],
,,,,
1,7,5b,

{8}
7,8,,2,,8,8,7,
6,,3,4,,6,5,,
2,1,,7,,1,1,2,
3,,6,5,,3,4,,
7,8,,12,,8,8,7,
6,,3,4,,6,5,,
2,1,,78,,1,1,2,
3,,6,5,,3,4,,

8h[8:3],,,7,,6h[4:1],,5,
4h[8:3],,,3,,2h[4:1],,1,
2h[8:3],,,3,,4h[4:1],,5,
6h[8:3],,,7,,8h[4:1],,1,
2h[8:3],,,1,,8h[4:1],,7,
6h[8:3],,,4,,3h[4:1],,4,
5h[8:3],,,6,,7h[4:1],,8,
1h[8:3],,,2,,3h[4:1],,4,
8h[8:3],,,7h[4:1],,4,,5,
1h[8:3],,,2h[4:1],,5,,4,
7h[8:3],,,8h[4:1],,5,,4,
2h[8:3],,,1h[4:1],,4,,5,
8h[8:3],,,7,,56,,4,
1h[8:3],,,2,,34,,5,
7h[8:3],,,8,,46,,5,
2h[8:3],,,1,,35,,46,
5b,,,,

8^3[4:1],,,,,6,,4,
1^6[4:1],,,,,3,,5,
8^3[4:1],,,,,6,,3,
1^6[4:1],,,,,3,,6,
8^3[4:1],,,,,56,,4,
1^6[4:1],,,,,34,,5,
8^3[4:1],,,,,46,,5,
1^6[4:1],,,,,35,,46,
5,,7^2[4:1],7,,,,4,
4,,2^7[4:1],2,,,,5,
5,,8^3[4:1],8,,,,5,
5,,3^8[4:1],3,,,,4,
4,,6^1[4:1],6,,,,3,
3,,1^6[4:1],1,,,,4,
4,,6^3[4:1],6,,,,1,
1,,3^6[4:1],3,,,,,

{4}
1h[4:1],3h[4:1],5h[4:1],7h[4:1],
6h[4:1],4h[4:1],2,,
1-4[8:1]/5-8[8:1],,4-1[8:1]/8-5[8:1],,
1-4[8:1]/5-8[8:1],,4-1[8:1]/8-5[8:1],,
8h[4:1],6h[4:1],4h[4:1],2h[4:1],
3h[4:1],5h[4:1],7,,
3^8[4:1],8^5[4:1],5,,
6^1[4:1],1^4[4:1],4,,

{8}
,,,,,5b,6b,7b,
8h[8:3],,,2h[4:1],,4h[4:1],,3,
2,1,2,3,2,1,,2h[4:1],
,4,5,6,7h[4:1],,5,4,
3h[4:1],,1,8,7,6,,,
1h[8:3],,,7h[4:1],,5h[4:1],,6,
7,8,7,6,7,8,,8h[4:1],
,7,6,5,1h[4:1],,2,3,
,6,5,4,3b,,,,
8-4[4:1],,,1-5[4:1],,,,8,
7,8,1,2,1,8,,1h[4:1],
,2,3,4,5h[4:1],,8,7,
6h[4:1],,8,1,2,3,,,
1-5[4:1],,,8-4[4:1],,,,1,
2,1,8,7,8,1,,8h[4:1],
,4,3,2,1h[4:1],,8,4h[4:1],
,5,6,7,8,,,1^6[4:1]/5^2[4:1],
,,,,,,,6^1[4:1]/2^5[4:1],
,,,,,8b,8b,,
{1},,,,
E

MASTER

(180){1}
6h[4:3],
4h[4:3],
2h[4:3],
4h[4:3],
{4}
6h[4:3],,,8-5[4:1],
4h[4:3],,,1-4[4:1],
2h[4:3],,,8-5[4:1],
4h[4:3],,,1-4[4:1],
7,6,2b/7b,

{8}
1,2,,8h[4:1],,7,6,5,
{16}6,,,8,{8}8,1,,2,8,,
6,5,,3h[4:1],,2,1,8,
{16}1,,,7,{8}7,6,,7,1,,
3,5-1[4:1],,,,8,8,,
7-3[4:1],,2,2h[4:1],,4,4h[4:1],,
5,5-1[4:1],,,,8,8,,
7-3[4:1],,2,2h[4:1],,7,7h[4:1],,

1h[4:1],,2,3h[4:1],,2,2,,
7h[4:1],,6,5h[4:1],,6,7,,
8h[4:1],,1,2h[4:1],,1,8,7,
8,1h[8:5],,2,,3,3,,
5h[4:1],,6,7h[4:1],,6,6,,
4h[4:1],,3,2h[4:1],,3,4,,
8h[4:1],,1,2h[4:1],,1,8,7,
6h[4:1],,4,2h[4:1],,1,8,7,
8-3[8:1],,,2h[4:1],,5,6,,
5-2[8:1],,,3h[4:1],,7,7,,
8-3[8:1],,,2h[4:1],,5,6^3[8:1],,
,1-5[8:1],,7-3[8:1],,,4h[4:1],,
6-2[8:1],,,8h[4:1],,7,6,,
8-4[8:1],,,2h[4:1],,3,4,,
3-7[8:1],,,6h[4:1],,5,4^7[8:1],,
,,8,8h[4:1],,7,6h[4:1],,
5b,,,,

1h[4:1],,2,3h[4:1],,2,2,,
7h[4:1],,6,5h[4:1],,6,7,,
8h[4:1],,1,2h[4:1],,1,8,7,
8,1h[8:5],,2,,3,3,,
5h[4:1],,6,7h[4:1],,6,6,,
4h[4:1],,3,2h[4:1],,3,4,,
8h[4:1],,1,2h[4:1],,1,8,7,
6h[4:1],,4,2h[4:1],,1,8,,
1h[4:1]/5,,6,3h[8:3]/7,,6,5,,
8h[4:1]/4,,3,6h[8:3]/2,,3,4,,
4h[4:1]/8,,7,2h[8:3]/6,,7,8,,
1h[4:1]/5,,6,3h[4:1]/7,,,3b/4b,,
1h[4:1]/5,,6,3h[8:3]/7,,6,5,,
8h[4:1]/4,,3,6h[8:3]/2,,3,4,,
1h[4:1]/5,,6,2h[4:1]/8,,3,4,3,
2h[8:3],1,7,6,,17,28,,

1h[8:3],,,3,2h[8:3],,,3,
1h[8:3],,,3,2h[8:3],,,6,
8h[8:3],,,6,7h[8:3],,,6,
8h[8:3],,,6,7h[8:3],,,6,
8h[4:1],,1,2,1,8,7,6,
7,8,1,2,3,,,,
2,,2,,1,,1,,
7b/8b,,1b/6b,,2b/5b,,3b/4b,,

,,,,,2,2,2,
2/8h[4:1],,7,1h[4:1],,2,3,4,
1b/8b,7,6,7,8,1,,2h[4:1],
,8,7,6,7h[4:1],,8,1,
{16}3,,,2,{8}2,1,8,7,,,
8/2h[4:1],,3,4h[4:1],,5,6,7,
45,3,2,3,4,5,,6h[4:1],
,5,4,3,{16}2,,,1,{8}1,2h[4:1],
,3,4,3,2,,,,
1/8h[4:1],,7,1h[4:1],,2,3,4,
1b/8b,7,6,7,8,1,,3h[4:1],
,4,5,6,7h[4:1],,8,1,
{16}2,,,1,{8}1,8,7,6,,,
8/2h[4:1],,3,6h[4:1],,5,4,3,
45,6,7,8,1,1,,8h[4:1],
,,8,7,8,,1,2h[4:1],
,3,2,1,8,,,7h[8:15],
,,,,,,,,
,,,,,1b,1b,,
{1},,,,
E

  • Ex譜面最初の{8}改行挟んだ6行目の 6h[8:3],,,4,,3h[4:1],,4, は、 6h[8:3],,,5,,4h[4:1],,3, だったはずですよ~。ここだけずれてました -- 名無しさん (2013-11-13 23:10:37)
名前:
コメント:

タグ:

+ タグ編集
  • タグ:

このサイトはreCAPTCHAによって保護されており、Googleの プライバシーポリシー利用規約 が適用されます。

最終更新:2023年01月03日 14:38