ダンシング☆サムライ

BPM EASY BASIC ADVANCED EXPERT MASTER
142 2 4 7 10 12

EASY


BASIC


ADVANCED


EXPERT


MASTER

(142){1},{8}
1-4[16:1]/7-2[16:1],,,3-6[8:1],,,,,

1,2,3,2,8,7,6,7,
1,2,3,2,8,7,6,7,
1,2,4,3,8,7,5,6,
1,2,4,3,8,7,5,6,

1-4[8:1],,,,{16}8,,,7,,,6-3[8:1],,
,,,,,,,,2,7,,7,{8}2,,
8,8,2,4,1,1,7,5,
8,2,4,6,8-4[8:1],,,,
2-7[8:1],,,,{16}6,,,5,,,4-1[8:1],,
,,,,,,,,6,3,,3,{8}6,,
8,8,7,2,1,1,3,6,
8,2-7[8:1],6-3[8:1],,,,1b,,

1,2,38,2,8,7,16,7,
1,2,38,2,8,7,16,7,
1,2,48,13,8,7,15,68,
1,2,48,13,8,7,15,68,

7,6,5,4,3-6[1:1],,,,
5,,5,,5,,5,,
2,3,4,5,6-3[1:1],,,,
8,1,2-7[4:1],,,,,,
37,15,26,,26,48,37,,
37,15,26,48,37,,,,
{16}2-6[8:1],,,2,2,,2,,7-3[8:1],,,7,7,,7,,
{1}5-8[2:1],

{8}
2h[4:1],7,7h[4:1],3,3h[4:1],6,6h[4:1],2,
2h[4:1],7,7h[4:1],3,3h[4:1],6,6h[4:1],2,
4h[4:1],5,5h[4:1],8,8h[4:1],1,1b,,
5h[4:1],4,4h[4:1],1,1h[4:1],8,8b,,
{16}
3h[16:3],,,4,6,,,,6h[16:3],,,5,3,,,,
2h[16:3],,,3,8,,,,7h[16:3],,,6,1,,,,
1-5[8:1],,,1,1,,1,,8-4[8:1],,,8,8,,8,,
{1}6-2[2:1],

{16}
4-7[8:1]/5-2[8:1],,,,,,,,1,,,6,,,{8}4h[4:1],
,3,4h[8:3],3,6,5h[8:3],6,,
2,2,3,3,7,7,6,6,
{4}4/5h[4:3],6-3[4:1],,,
18,23,{16}67,,,34,,,45,,
,,1,,6,,2,8,,3,,7,5,,,,
7,,7,,1,,1,,3,,3,,5,,5,,
7,8,1,2,3,4,5,6,{8}7h[4:1],,2b,,

78,1,34,2,12,8,56,7,
78,1,34,2,12,8,56,7,
68,1,35,2,13,8,46,7,
68,1,35,2,13,8,46,7,

{1}
1-4[4:3]/8-5[4:3],
,
{2}
18,18,
45,45,
{8}
26,4,26,4,26,4,26,4,
26,4,26,4,26,4,26,4,
37,5,26,4,37,5,26,4,
37,5,26,4,7h[4:1],,2b,,

1-4[8:1],,,,{16}8,,,7,,,6-3[8:1],,
,,,,,,,,2,7,,7,{8}2,,
8,8,2,4,1,1,7,5,
8,2,4,6,8-4[8:1],,,,
2-7[8:1],,,,{16}6,,,5,,,4-1[8:1],,
,,,,,,,,6,3,,3,{8}6,,
8,8,7,2,1,1,3,6,
8,2-7[8:1],6-3[8:1],,,,1b,,
8,2-7[8:1],6-3[8:1],,,,1b,,
8,2-7[8:1],6-3[8:1],,,,1b,,

{16}
26,,,37,,,{8}1b,,,,,

28,5,37,5,28,5,37,5,
17,4,26,4,17,4,26,4,
28,5,37,5,28,5,37,5,
17,4,26,4,17,4,26,4,
{16}
28,,5,,37,,8,1,,2,1,,37,,5,,
17,,4,,26,,1,8,,7,8,,26,,4,,
28,,5,,37,,8,1,,2,1,,37,,5,,
17,,4,,26,,1,8,,7,8,,26,,8-4[16:1],,
{1},,
E

名前:
コメント:

タグ:

+ タグ編集
  • タグ:

このサイトはreCAPTCHAによって保護されており、Googleの プライバシーポリシー利用規約 が適用されます。

最終更新:2021年04月24日 16:23