パンダヒーロー

BPM EASY BASIC ADVANCED EXPERT MASTER
190 2 5 6 8+ 11+

EASY


BASIC

(190.0){1},,
{1}6,
{1}6,
{2}3/6,5,
{2}4,3,
{2}3,4,
{2}5,6,
{2}3/6,5,
{2}4,3,
{2}1/8,2,
{1}3,
{2}7,2-7[4:1],{1},
{2}6,3-6[4:1],{1},
{2}7,2,
{2}1,8-5[4:1],{1},
{2}5,4,
{2}5/6,2/7,
{2}8,1,
{2}1/8,1/2,
{2}3/4,4/5,
{2}8,8,
{2}1,1,
{2}7,8,
{4}7,,8,8b,
{1}7-4[2:1],,
{1}4h[2:1],
{1}3h[2:1],
{1}2-7[2:1],,
{1}7h[2:1],
{1}7-2[4:1],
{2},1/2,
{2}7,6,
{2}7,7/8,
{2}2,3,
{2}2,7,
{2}2/6,2/6,
{2}8,1,
{1}2h[2:1],
{2}7,7/8,
{2}1,2,
{2}1,1/2,
{2}8,7,
{1}6-2[2:1],,
{2}2,1,
{4}7,7,7b,,
{2}2,7,
{2}4,5,
{2},3,
{2},6,
{2}1/6,3/8,
{2}1/6,3/8,
{2},7h[2:1],
{2},2,
{2}2,7,
{2}4,5,
{2}4,5,
{2},2b/7b,
{2}2,7,
{2}4,5,
{1}2h[2:1],
{4}6,7,8,1-4[2:1],{1},
{2}4,5,
{2}6,5,
{1}4,
{2}7,8,
{1}1,
{2}2,1,
{2}8,8,
E

ADVANCED

(190.0){1},,,,
{4}3h[4:1],2,2,,
{4}2,1,8,8,
{4}7h[4:1],6,6,,
{4}6,5,5,,
{4}1h[4:1],2,2,,
{4}2,7,6,6,
{4}1/8,2,2,,
{4}2,3,4,2b/7b,
{4},8,7,6h[2:1],
{4},1,1,,
{4},3,2,3,
{4},1/2,1/8,,
{2}7h[4:1],6h[4:1],
{4}5h[4:1],,4,3/6,
{2}2h[2:1],1h[4:1],
{4}7/8,1,2b,,
{4}3,7h[4:1],,3h[4:1],
{4},1h[4:1],,5h[4:1],
{4},3h[4:1],,7h[4:1],
{4},1/8,2/7,,
{4}3,1h[4:1],,2/3,
{4}6,8h[4:1],,6/7,
{4}2,3h[4:1],,1,
{4},7,1/8,1b/8b,
{4},7-3[2:1],,,{1},
{4},6-2[2:1],,,{1},
{4},3-6[2:1],,,{1},
{4},7-2[2:1],,,{1},
{4},8,7,6h[4:1],
{4},1,1,,
{4},1,2,3,
{4},7/8,1/8,,
{2}7h[4:1],6h[4:1],
{4}5,4,3,1/2,
{2}1/8,4/5,
{4}2,1/8,7,,
{4}8,7h[4:1],,6h[4:1],
{4},2,1,,
{4}1,2h[4:1],,3h[4:1],
{4},7,8,,
{2}1/8,2/7,
{4}3,4,5,6,
{2}7h[4:1],8h[4:1],
{4}1,2,1/8,,
{2}2h[4:1],6h[4:1],
{2}4h[4:1],8h[4:1],
{1}1h[2:1],
{4}6,5,4,,
{2}2h[4:1],6h[4:1],
{2}4h[4:1],8h[4:1],
{1}2h[2:1],
{4}7,7,8h[4:1],,
{2}2h[4:1],6h[4:1],
{2}4h[4:1],8h[4:1],
{4},7,,3,
{4},1/2,1/8,,
{2}2h[4:1],6h[4:1],
{2}4h[4:1],8h[4:1],
{1}4-8[4:1],
{4}7,1,2,1b/8b,
{4}3h[4:1],2,2,,
{4}2,1,8,8,
{4}7h[4:1],6,6,,
{4}6,5,5,,
{4}1h[4:1],2,2,,
{4}2,7,6,6,
{4}1/8,2,2,,
{4}2,3,4,2b/7b,
E

EXPERT

(190.0){1},,,,
{8}4h[4:1]/5h[4:1],,,,2/7,,,6h[4:1],
{8},5,,,1/8,,8,,
{8}2h[4:1],,3,,2/6,,,6h[4:1],
{8},7,,,1/2,,8,,
{8}4h[4:1]/5h[4:1],,,,3/6,,,8h[4:1],
{8},7,,,1/3,,3,,
{8}8h[4:1],,1,,1/8,,,3h[4:1],
{8},2,,,1,,7^2[4:1],,
{4},,2h[4:1],7,
{4}3,2/4,3/5,4/6,
{4}7h[4:1],6,3h[4:1],2,
{1}3^6[4:1],
{4}7-2[4:1],,1h[4:1],8,
{4}7-2[4:1],,1,4/5,
{4}4h[2:1],,5,2/4,
{4}4/5h[2:1],7,1,,
{4}5,6h[4:1],7,2h[4:1],
{4}3,7h[4:1],8,,
{4}1,8h[4:1],1,2h[4:1],
{4}7,7,3/6,,
{4}3,3,6h[4:1],7,
{4}6,5/3h[4:1],4h[4:1],6,
{1}7h[4:7],
{4}1,1,1,1^6[4:3],{1},
{4},,,6^3[4:3],{1},
{4},,,2-7[4:3],{1},,
{2}7h[2:1],6h[2:1],
{1}7-2[4:1],
{4}8h[4:1],1,2/1h[2:1],2,
{4}3,4,5/6,,
{1}3^6[4:1],
{4}3/4,4/5,5/6,,
{4}2h[4:1],1,2/7h[4:1],8,
{4}1,1,3/7,2/6,
{4}1/8,,3/7,3/7,
{4}4/6,3/5,4/5,,
{4}5,7h[4:1],4,3h[4:1],
{4}5,2/7h[4:1],3,,
{4}1,2h[4:1],3,7h[4:1],
{4}8,1,2,,
{2}3h[4:1]/6h[4:1],2/8,
{4}2/6,3/7,2/5,4/7,
{4}5h[4:1],4,3,2,
{4}1,6,7/8,,
{2}1/6,3/8,
{2}1/5,4/8,
{4}1h[4:1],2,5h[4:1],6,
{4}3/7,4/6,2b,,
{2}1/6,3/8,
{2}1/5,4/8,
{2}3^6[4:1],7^2[4:1],
{4}7,2,2b,,
{2}1/6,3/8,
{2}1/5,4/8,
{4}7/2h[4:1],4,4/6h[4:1],5,
{4}2/6,4/8,2b/7b,,
{2}1/6,3/8,
{2}1/5,4/8,
{4}2h[4:1],1,3,4,
{4}6h[4:1],7,1-4[2:1],,
{8},,,,,,,6h[4:1],
{8},5,,,1/8,,8,,
{8}2h[4:1],,4,,2/6,,,6h[4:1],
{8},5,,,1,,8,,
{8}4h[4:1]/5h[4:1],,,,3/6,,,8h[4:1],
{8},7,,,1/3,,2,,
{4}8h[4:1],1,1/8,,
{4}2,7-2[4:1],,,
E

MASTER

(190){8}
4,5,4,,4,5,4,,
2,1,2,1,2,1,2,,
5,4,5,,5,4,5,,
7,8,7,8,7,8,7,,
2h[2:1],,3,3,3,,8,7,
,4,3,,8,8,8,,
6h[2:1],,7,7,7,,4,3,
,8,7,,4,4,4,,
7h[2:1],,6,6,6,,1,2,
,5,6,,1,1,1,,
3h[2:1],,2,2,2,,5,6,
,1,2,8,7,7,7b,,

6/8h[4:1],,2,,2/4h[4:1],,6,,
7,6,7,,18,,,,
1h[4:1]/3,,7,,5h[4:1]/7,,3,,
2,3,2,,45,,,,

6,,48,,2,2,2,,
3,,15,,7,7,7,,
1,,3,,1,,8,,
3,,5h[2:1],,4h[4:1],,,,
1,2,3h[4:1],,7,6,5h[4:1],,
2,2,1-4[4:1],,,,,,
8,7,6h[4:1],,2,3,4h[4:1],,
7,7,{4}8,45,,

2h[4:1],6h[4:1],3h[4:1],7h[4:1],
1h[4:1],8h[4:1],{8}4,5,{4}4,
1h[4:1],8h[4:1],4h[4:1],5h[4:1],
3h[4:1],6,2/7b,1/8b,

1-4[4:1],,5-8[2:1],,
,,1,2h[4:1],
3-6[4:1],,7-2[2:1],,
,,3,2h[4:1],
1-6[4:1],,5-2[2:1],,
,,1,8h[4:1],
7-4[4:1],,3-8[2:1],,
,2,{8}3,3,{4}2b/7b,

7h[2:1],6,2h[2:1],3,
6h[2:1],5,3h[2:1],4,
6h[2:1],7,3h[2:1],2,
8,1,18,,
2h[4:1],7h[4:1],3h[4:1],6h[4:1],
4h[4:1],5h[4:1],{8}4,4,{4}4,
5h[4:1],4h[4:1],6h[4:1],3h[4:1],
{8}7,7,7,,27,,,,

1,2,3h[4:1],,7,6,5h[4:1],,
2,2,1-4[4:1],,,,,,
8,7,6h[4:1],,2,3,4h[4:1],,
7,7,8,,45,,,,

26,,4/8-4[4:1],,1,1,1b,,
37,,5/1-5[4:1],,8,8,8b,,
2-5[4:1],,,,4-7[4:1],,,,
1,2,{4}1,18,,
1h[4:1]/5h[4:1],,3h[4:1]/7h[4:1],,
4h[4:1]/8h[4:1],,2h[4:1]/6h[4:1],,
6h[1:1],7,8,1,
{8}2,2,{4}2,78,,
1h[4:1]/5h[4:1],,3h[4:1]/7h[4:1],,
4h[4:1]/8h[4:1],,2h[4:1]/6h[4:1],,
7-2[4:1],,3-6[4:1],,
3h[4:1],5,45,,
1h[4:1]/5h[4:1],,3h[4:1]/7h[4:1],,
4h[4:1]/8h[4:1],,2h[4:1]/6h[4:1],,
{8}4h[4:1],5,5,,8h[4:1],1,1,,
23,34,{4}45,2h[4:1]/7h[4:1],,
1h[4:1]/5h[4:1],,3h[4:1]/7h[4:1],,
4h[4:1]/8h[4:1],,2h[4:1]/6h[4:1],,
1^6[2:1],,2,2,
4/5[4:1],7,18,3b/6b,

{8}
2h[2:1],,3,3,3,,8,7,
,4,3,,8,8,8b,,
6h[2:1],,7,7,7,,4,3,
,8,7,,4,4,4,,
7h[2:1],,6,6,6,,1,2,
,5,6,,1,1,1b,,
3h[2:1],,2,2,2,,5,6,
,1,2,8,7,7,1b/8b,,
{1},,
E

名前:
コメント:

タグ:

+ タグ編集
  • タグ:

このサイトはreCAPTCHAによって保護されており、Googleの プライバシーポリシー利用規約 が適用されます。

最終更新:2023年01月03日 14:38