メグメグ☆ファイアーエンドレスナイト

BPM EASY BASIC ADVANCED EXPERT MASTER
162 2 5 6 7+ 11

EASY


BASIC


ADVANCED


EXPERT


MASTER

(162){8}
2-5[4:1],7-4[4:1],,,,,,,
1,2,,4,,3,2,,
8,7,,5,,6,7,,
2,7,,5,,3,6,,
28,,24,,5,6,7,,
8,7,,5,,6,7,,
1,2,,4,,3,2,,
7,2,,4,,6,3,,
17,,57,,4,3,2/8b,,

25,,47,,{16}2,,,3,,,{8}1h[4:1],
,8,7,6,,,1b/5,,
28,,13,,24,,7,6,
{16}2,,,1,,,4,,,3,,,5,,6,,
{8}17,,68,,57,,2,3,
15,,37,,15,,4,3,
46,,57,,68,,2,3,
{16}6,,,5,,,7,,,8,,,1,,2,,
{8}35,,24,,13,,6,7,
{16}8,,,2,,,1^6[4:1],,{8},,,,

,1,2,,8,7h[4:1],,6h[4:1],
,5h[4:1],,4h[4:1],,3h[4:1],,,
,7,8,,2,1,,4h[4:1],
,3,2,,5,,26,,
,8,7,,5,,3,2h[4:1],
,1h[4:1],,8h[4:1],,7h[4:1],,6h[4:1],
,5,4^1[2:1],,,,,,

,,,,67,,45,,
1^4[4:1]/8^5[4:1],,,,,,56,,
,34,,18,2,7,3,6,
,,68,,,13,,,
,,57,,24,5,4,6,
3,,18,,,13,,8,
7,6,,4,35,,24,,
13,,7,68,,5,4,3,
2h[4:3],,,5,6,6,7,,
6-2[4:1],,,,,{16}8,7,{8}8b,,

28,1,28,1,{16}3,,,6,,,{8}58,
,17,8,17,,4,3,2,
13,,28,68,,17,,4,
5,3,6,2,3h[4:1],,1b,,
17,8,17,8,{16}6,,,3,,,{8}14,
,28,1,28,,5,6,7,
68,,17,13,,28,,5,
3,6,37,2h[4:1]/8h[4:1],,,1/8b,,

{2}
7^4[4:1],3^8[4:1],
7-3[4:1],2-6[4:1],
7^2[4:1],3^6[4:1],
7-2[4:1],{8}5,,4,,
1h[4:1],,2h[4:1],,3h[4:1],,4,8h[4:1],
,7,6,,5h[4:1],,4,,
3-7[2:1],,2,,1,,8,,
15,2,6,3,7,4,8,5b,

17,,68,,57,,2,3,
{16}7,,,8,,,5,,,6,,,{8}4,3,
28,,13,,24,,7,6,
48,,26,,48,,5,6,
35,,14,,13,,7,6,
{16}3,,,4,,,2,,,1,,,{8}8,7,
46,,57,,68,,3,2,
{16}1,,,7,,,{8}36,,2,7,,
8,7,6,5,4,3,{16}2,1,2b,,
{1},
E

名前:
コメント:

タグ:

+ タグ編集
  • タグ:

このサイトはreCAPTCHAによって保護されており、Googleの プライバシーポリシー利用規約 が適用されます。

最終更新:2021年04月23日 23:15